This file was generated by Ched 2.7.0.0.
#TITLE ""
#ARTIST ""
#DESIGNER ""
#DIFFICULTY 0
#PLAYLEVEL
#SONGID ""
#WAVE ""
#WAVEOFFSET 0
#JACKET ""
#REQUEST "ticks_per_beat 480"
#00002: 4
#BPM01: 158
#00008: 01
#TIL00: ""
#VOLUME: ""
#HISPEED 00
#MEASUREHS 00
#0001a:1414
#0121a:2414
#01214:00140000
#00114:1414
#00218:1414
#00312:1414
#0041a:14
#00414:0014
#00410:41
#00612:14
#00618:0014
#0081a:14
#00814:0014
#01312:1414
#01318:00140000
#0141a:1414
#01414:00140000
#01512:1414
#01518:00140000
#02514:1414
#02518:00140000
#02918:1414
#02914:00140000
#0341a:14140000
#03414:0014
#03418:00000014
#03812:14
#03818:00140014
#03814:0014
#06612:14
#06618:00140000
#06614:0014
#0661a:00000014
#07212:14
#07218:00140014
#07214:0014
#07312:14140000
#0731a:00001414
#07414:14
#07418:00140000
#07412:0014
#0741a:00000014
#07514:14140000
#07518:00001414
#07614:14
#07612:0014
#07714:14
#07712:0054
#07818:14
#0781a:0014
#07918:14
#0791a:0054
#01012:14
#01018:0014
#03012:14
#03018:00140000
#03014:0014
#0301a:00000014
#03512:14
#03518:00140000
#03514:0014
#0351a:00000014
#03614:14
#0431a:14140000
#04314:0014
#04318:00000014
#04414:14
#04612:14
#04618:00140014
#04614:0014
#0461f:11
#04712:14
#05414:00140000
#05418:26001414
#0541f:21
#05512:14140000
#05518:00001414
#05510:41
#05614:14
#05812:14
#05818:00140000
#05814:0014
#0581a:00000014
#05914:14
#0631a:14
#06314:00140000
#06318:00001414
#06414:14
#07016:00000016
#07018:26
#02418:24
#02410:41
#02814:24
#04018:24
#06712:2626
#06718:00260026
#06814:24
#06810:41
#03314:24242400
#03218:24
#03210:41
#03718:24242400
#04114:24242400
#0421a:24
#04212:0024
#04518:24242400
#05218:26
#05312:26
#05718:26262600
#0601a:24
#06112:26262600
#0621a:24
#06212:0024
#06518:26262600
#06918:2626
#06912:00260026
#01610:41
#04058:64
#06854:64
#07654:54
#07652:0054
#07754:54
#07858:64
#0785a:0064
#07958:64
#03258:64
#03654:64
#0425a:14
#04252:0014
#04454:54
#04752:64
#05352:00000016
#05654:54
#05954:54
#0605a:54
#0625a:14
#06252:0014
#06454:54
#07056:00000026
#07058:66
#0053a0:1424
#007320:1424
#009380:1424
#011340:1424
#0163a0:14
#016380:0034
#0173a0:34
#017380:0024
#018320:14
#018340:0034
#019320:34
#019340:0024
#020380:14
#0203a0:0034
#021380:34
#0213a0:0024
#022340:14
#022320:0034
#023340:34
#023320:0024
#024380:14
#0243a0:0024
#026340:1424
#027380:1424
#028340:14
#028320:0024
#031320:1424
#032380:14
#0323a0:0024
#036340:14
#036320:0024
#039320:1424
#040380:14
#0403a0:0024
#044340:14
#044320:0024
#047320:14
#047340:0024
#0483a0:14
#048380:0054
#0493a0:54
#049380:0024
#050340:14
#050320:0054
#051340:54
#051320:0024
#052380:1626
#053320:16000026
#056340:14
#056320:0024
#059340:14
#059320:0024
#0603a0:14
#060380:0024
#064340:14
#064320:0024
#068340:14
#068320:0024
#070380:16
#070360:00003656
#071360:36
#071380:0026
#076340:14
#076320:0054
#077340:54
#077320:0024
#078380:14
#0783a0:0054
#079380:54
#0793a0:0024
