This file was generated by Ched 2.7.0.0.
#TITLE ""
#ARTIST ""
#DESIGNER ""
#DIFFICULTY 0
#PLAYLEVEL
#SONGID ""
#WAVE ""
#WAVEOFFSET 0
#JACKET ""
#REQUEST "ticks_per_beat 480"
#00002: 4
#BPM01: 94
#BPM02: 102
#BPM03: 106
#BPM04: 110
#BPM05: 98
#BPM06: 114
#BPM07: 118
#BPM08: 122
#BPM09: 126
#BPM0A: 128
#BPM0B: 130
#BPM0C: 132
#BPM0D: 134
#BPM0E: 136
#BPM0F: 138
#BPM0G: 140
#BPM0H: 142
#BPM0I: 124
#BPM0J: 112
#BPM0K: 100
#BPM0L: 88
#BPM0M: 144
#BPM0N: 148
#BPM0O: 152
#BPM0P: 156
#BPM0Q: 160
#BPM0R: 150
#BPM0S: 120
#BPM0T: 108
#BPM0U: 96
#BPM0V: 90
#00008: 01
#04808: 01
#00308: 02
#07008: 02000U0V
#00408: 03
#04608: 03
#00508: 04
#00208: 05
#00608: 06
#06808: 06
#00708: 07
#04408: 07
#00808: 08
#00908: 09
#02208: 0A
#05008: 0A
#02308: 0B
#04208: 0B
#06608: 0R0G0B0S
#02408: 0C
#05208: 0C
#02508: 0D
#02608: 0E
#04108: 0E
#05308: 0E
#02708: 0F
#02808: 0G
#05408: 0G
#02908: 0H
#04308: 0I
#04508: 0J
#04708: 0K
#04908: 0L
#05508: 0M
#05608: 0N
#05708: 0O
#05808: 0P
#05908: 0Q
#06908: 0T
#TIL00: ""
#VOLUME: ""
#HISPEED 00
#MEASUREHS 00
#01318:14
#01310:41
#0011a:14
#0021a:14
#00312:14
#00412:14
#00518:14
#00618:14
#00714:14
#00814:14
#03318:14
#0351a:14
#03612:14
#03718:14
#03710:41
#03814:14
#0391a:14
#04012:14
#03414:14
#01414:14
#01518:14
#01614:14
#0171a:14
#01812:14
#0191a:14
#02012:14
#02118:2616
#02110:41
#02212:1616
#02318:1616
#02412:1616
#02518:16
#02512:0016
#02618:16
#02612:0016
#02718:16
#02712:0016
#02818:16
#02812:0016
#04118:2616
#0411f:11
#04212:1616
#04318:1616
#04412:1616
#04518:16
#04512:0016
#04618:16
#04612:0016
#04718:16
#04712:0016
#04818:16
#04812:0016
#05112:2616
#0511f:21
#05312:1616
#05418:1616
#05512:16
#05518:0016
#05612:16
#05618:0016
#05712:16
#05718:0016
#05812:16
#05818:0016
#05218:1616
#05210:41
#06712:16
#06718:0016
#06812:16
#06818:0016
#06912:16
#06918:0016
#07012:16
#07018:0016
#02910:41
#06310:41
#009380:14
#010380:0024
#011340:14
#012340:0024
#0293a0:14
#0303a0:0024
#031320:14
#032320:0024
#049380:16
#050380:26
#059340:14
#060320:0024
#061380:14
#0623a0:0024
#063340:1424
#064380:1424
#065340:1424
#066380:1424
#071320:16
#072330:24
