This file was generated by Ched 2.7.0.0.
#TITLE ""
#ARTIST ""
#DESIGNER ""
#DIFFICULTY 0
#PLAYLEVEL
#SONGID ""
#WAVE ""
#WAVEOFFSET 0
#JACKET ""
#REQUEST "ticks_per_beat 480"
#00002: 4
#BPM01: 94
#BPM02: 102
#BPM03: 106
#BPM04: 110
#BPM05: 98
#BPM06: 114
#BPM07: 118
#BPM08: 122
#BPM09: 126
#BPM0A: 128
#BPM0B: 130
#BPM0C: 132
#BPM0D: 134
#BPM0E: 136
#BPM0F: 138
#BPM0G: 140
#BPM0H: 142
#BPM0I: 124
#BPM0J: 112
#BPM0K: 100
#BPM0L: 88
#BPM0M: 144
#BPM0N: 148
#BPM0O: 152
#BPM0P: 156
#BPM0Q: 160
#BPM0R: 150
#BPM0S: 120
#BPM0T: 108
#BPM0U: 96
#BPM0V: 90
#00008: 01
#04808: 01
#00308: 02
#07008: 02000U0V
#00408: 03
#04608: 03
#00508: 04
#00208: 05
#00608: 06
#06808: 06
#00708: 07
#04408: 07
#00808: 08
#00908: 09
#02208: 0A
#05008: 0A
#02308: 0B
#04208: 0B
#06608: 0R0G0B0S
#02408: 0C
#05208: 0C
#02508: 0D
#02608: 0E
#04108: 0E
#05308: 0E
#02708: 0F
#02808: 0G
#05408: 0G
#02908: 0H
#04308: 0I
#04508: 0J
#04708: 0K
#04908: 0L
#05508: 0M
#05608: 0N
#05708: 0O
#05808: 0P
#05908: 0Q
#06908: 0T
#TIL00: ""
#VOLUME: ""
#HISPEED 00
#MEASUREHS 00
#01915:0000000000000013
#0191b:13
#01415:0013000000000000
#01418:00130014
#0141a:0000000000000014
#01416:0000000000140000
#01414:0014
#01412:0000001400000000
#07018:0000001300000013
#07015:00130000
#07012:16001616
#0701b:0013000000130000
#06912:1613
#0691b:0000130000000013
#06915:0000000000130000
#06918:00000013
#05112:1300000000000013
#0511b:0013
#05118:0000000000130000
#05115:0013000000001300
#0511f:21
#02212:2613
#0221b:0000001300130000
#02218:0013000000000013
#02215:00130013
#03415:0013000000000000
#0341b:00130000
#0341a:0000000000000014
#03418:00000014
#03416:0000000000140000
#03414:0014
#03412:0000001400000000
#03918:13
#03915:0000000000000013
#0331b:13000013
#03315:0013000013000000
#03318:0000130000130000
#03312:0000001300000000
#02912:0013000000000000
#0291a:0000001300000000
#02913:0000000000130000
#02919:0000000000000013
#02918:26
#02910:41
#03014:0013000000000000
#03018:0000001300000000
#03015:0013
#03112:13
#0311b:0013000000000000
#03113:0000001300000000
#0311a:0000000000130000
#03114:0000000000000013
#01318:1313
#01315:0013000000130000
#0131b:00130000
#01312:0000001300000000
#01310:41
#00912:0013000000000000
#00915:0000001300000000
#00918:2600000000130000
#0091b:0000000000000013
#01018:0013000000000000
#01015:0000001300000000
#0111b:0013000000000000
#01118:0000001300000000
#01115:1300000000130000
#01112:0000000000000013
#01215:0013000000000000
#01218:0000001300000000
#01618:0013000014000000
#01615:00130000
#0161a:0000001400000000
#01616:0000000000140000
#01614:00000014
#01612:0000000000000014
#01515:1313
#01518:0013000000130000
#01512:00130000
#0151b:0000001300000000
#01815:0013001300001300
#01818:0000130000130013
#01812:0013
#01715:0000001300000000
#0171b:1313
#01712:0013000000130000
#01718:00130000
#02018:13
#02015:0013
#02012:00000023
#03219:0013000000000000
#03215:0000001300000000
#03218:0013
#03618:0013000014000000
#03612:0000130000000014
#03614:00000014
#03616:0000000000140000
#0361a:0000001400000000
#03512:13000013
#03518:0013000013000000
#03515:0000130000130000
#0351b:0000001300000000
#03815:0013000013000013
#0381b:00130000
#03818:0000001300130000
#03812:00000013
#0371b:13
#03718:0013001300001300
#03715:0000130000130000
#03712:0013
#03710:41
#0401b:13
#04012:0013
#04015:00000023
#04215:0013000000130000
#04218:16131313
#04212:0000001300000000
#0421b:0000000000000013
#0411b:0013
#04115:0000000000130000
#04118:16000013
#04112:0000130000000013
#0411f:11
#04518:1613
#04512:0000000000130000
#04515:0000130000000013
#0451b:00000013
#04618:1600000013000013
#0461b:0000130000130000
#04615:0000001300001300
#04612:0013000000000000
#0431b:0000130000000013
#04312:1613
#04318:0000000000130000
#04315:00000013
#04418:0013000000130000
#04412:1600000000000013
#04415:00131313
#0441b:0000001300000000
#04715:0013
#0471b:0000000000130000
#04718:0000130000000013
#04712:16000013
#04815:0000000013000013
#04812:1600130000130000
#04818:0000001300001300
#0481b:0013000000000000
#04918:16
#00118:26000013
#00115:0013
#00215:0013
#00218:00000013
#0021b:00130000
#00212:26
#00315:00000013
#00318:0013
#00312:26
#00418:2613
#00415:00000013
#00412:00130000
#0051b:00000013
#00512:0013
#00518:26
#00612:2613
#0061b:00000013
#00618:00130000
#00712:26000013
#0071b:0013
#0081b:0013
#00812:00000013
#00815:00130000
#00818:26
#02115:00001313
#0211b:1300000000130013
#02110:41
#0241b:0013
#02412:0000001300130000
#02415:0013000000000013
#02418:26130013
#02318:00001313
#02312:2600000000130013
#02615:0013
#02618:0000001300130000
#0261b:0013000000000013
#02612:26130013
#02512:0013
#0251b:0000000000130000
#02515:00000013
#02518:2600000000000013
#02818:2613
#02815:0000001300130000
#02812:0013000000000013
#0281b:00130013
#0271b:0013
#02712:2600000000130000
#02718:00000013
#02715:0000000000000013
#05018:00140000
#05014:0014
#05012:26
#0501a:00000024
#06415:13000000000000535300000000000000
#06414:00530000000053000053000000000000
#06413:00005300005300000000530000000000
#06412:00000053530000000000005353000000
#06318:13000000000000535300000000000000
#06310:41
#06319:00530000000053000053000000000000
#0631a:00005300005300000000530000000000
#0631b:00000053530000000000005353000000
#06612:16000000000000665600000000000000
#06615:00000066560000000000006656000000
#06613:00660000000066000066000000000000
#06614:00006600006600000000660000000000
#0651b:13000000000000535300000000000000
#0651a:00530000000053000053000000000000
#06519:00005300005300000000530000000000
#06518:00000053530000000000005353000000
#06815:0013001300130000
#06818:16130013
#0681b:0000000000000013
#06812:0013
#0671b:1313
#06718:0000000000130000
#06715:00000013
#06712:0000130000000013
#0711b:13
#07112:13
#05212:0013001300000000
#0521b:00130013
#05215:0000000013000013
#05218:2600000000130000
#05210:41
#0541b:0013001300000000
#05412:26130013
#05418:0000000013000013
#05415:0000000000130000
#05312:0013
#05315:0000000000130000
#05318:2613000000001300
#0531b:0000000000000013
#05612:0013000000000013
#05618:2600130000130000
#05615:0000001300001300
#0561b:0013
#0551b:0013
#05518:0000000000130000
#05512:2613000000001300
#05515:0000000000000013
#0611b:13
#0601b:0013
#06212:0013
#0581b:0013000000000013
#05815:0000130000130000
#05818:0000001300001300
#05812:2613
#05712:0013
#05715:0000000000130000
#0571b:0013000000001300
#05718:2600000000000013
#05912:26
#07218:53
#07215:53
#05152:53
#05155:0023000000000000
#03958:53
#03052:00000013
#03055:0053
#01058:00000013
#01255:00000013
#0195b:63
#02058:53
#02055:0063
#02052:00000013
#03258:0063
#0325b:00000013
#0335b:00000063
#03552:00000053
#03758:00000053
#0405b:63
#04052:0053
#04055:00000013
#0715b:63
#07152:53
#05358:6623000000000000
#0605b:0063
#06058:00000013
#06252:0053
#06255:00000013
#02352:56
#02752:66
#0215b:63
#0575b:0023000000000000
#05758:56
#05552:6623000000000000
#02558:56
#0505a:00000014
#001380:16
#0013b0:00230000
#003320:16230000
#005380:16230000
#007320:16
#007350:00230000
#010380:00001323
#012350:00001323
#0133b0:00000013
#0143b0:23
#015320:00000013
#016320:23
#017380:00000013
#018380:23
#0193b0:13
#019380:00000023
#020380:13
#0203b0:00230000
#020350:0013
#020320:00000023
#0213b0:13
#021380:00230000
#023320:16
#023350:00230000
#025380:16
#0253b0:00230000
#027320:16230000
#030350:0013
#030320:00000023
#032380:0013
#0323b0:00000023
#0333b0:00000013
#034380:23
#035320:00000013
#036350:23
#037380:00000013
#0383b0:23
#039380:13
#0393b0:00000023
#0403b0:13
#040380:00230000
#040320:0013
#040350:00000023
#051320:13230000
#051350:0053000000000000
#053380:1653000000000000
#0533b0:00230000
#055320:1653000000000000
#055350:00230000
#057380:16230000
#0573b0:0053000000000000
#059380:0013000000330000
#0593b0:0000003300000033
#060380:0033000000002300
#0603b0:0000003333000000
#061350:0013000000330000
#061320:0000003300000033
#062350:0033000000002300
#062320:0000003333000000
#071320:13
#072350:23
#0713b1:13
#072381:23
#063980:13000000000000535300000000000000
#0639b0:00000053530000000000005323000000
#064950:13000000000000535300000000000000
#064920:00000053530000000000005323000000
#0659b0:13000000000000535300000000000000
#065980:00000053530000000000005323000000
#066920:16000000000000565600000000000000
#066950:00000056560000000000005626000000
