This file was generated by Ched 2.7.0.0.
#TITLE ""
#ARTIST ""
#DESIGNER ""
#DIFFICULTY 0
#PLAYLEVEL
#SONGID ""
#WAVE ""
#WAVEOFFSET 0
#JACKET ""
#REQUEST "ticks_per_beat 480"
#00002: 4
#BPM01: 245
#BPM02: 140
#BPM03: 255
#BPM04: 155
#BPM05: 310
#00008: 01
#06708: 0001
#07508: 00000402
#07608: 03
#04108: 0004
#04508: 0005
#TIL00: "75'960:1, 75'0:10000"
#VOLUME: ""
#HISPEED 00
#MEASUREHS 00
#04018:0000131313130000
#04015:00000000001300130013001300000086
#04012:0013000000000000
#0401b:0013000000000000
#04112:0000000000130000
#04118:00000000000000000000000000130000
#04115:86008686008686002600000000001300
#04110:0041
#04218:00000000000013000000000000130000
#04215:0000000013000013
#0421b:00000013000000000000000000000000
#04418:00000000000000001300000000130013
#04412:00000013000000000000000000000000
#04415:0000000000000013
#0451a:00000013000000002400000000000000
#04512:00000000000000000000000000000000001300000013000000130000001300000000000000000000000000000000000000000000000000000000000000000000
#04513:1400000000000000231313131313131323000000000000000000000000000000
#04514:000000000000000054000000000000000000000000000000000000000000000000000000000000000000000000000000000000000000000000130000000000000000000000130000000000000000000000130000000000000000000000130000000000000000000000000000000000000000000000000000000000000000000000000000000000000000000000000000000000000000000000000000000000000000000000000000000000000000000000000000000000000000000000000000
#04518:00000013
#04515:000054000000000000000000000000130000000000000000
#04516:0054000000000000
#0431b:00000013000000000000000000000000
#04315:00000013
#00813:0014140000000000
#00819:0014140000000000
#00817:0022
#03612:0016
#03614:160000000000005600000056
#03616:000000160000000000000000000000005600000056000000
#03613:000000000000160000000000005600000000000000000056
#03615:0000001600560056
#03617:000000000000000000000000000000000056005600000000
#03618:00000056
#05312:00131414
#05310:0041
#05512:0000240000140000
#05516:00001414
#0551a:0000000000000014
#05518:0024000000000000
#07018:0000000000130000
#07015:0000001300001300
#07012:0013000000000013
#0701b:00132300
#0741a:0000131300000000
#07419:0000000000151500
#07413:0000131300000000
#07412:1300000000151500
#0741b:13
#07318:2626262600001300
#07315:0000000000000013
#07312:00260026002600262c00000000000000
#0031c:0000000000120000
#00315:0000002600001200
#0031b:0000000000000012
#00312:12
#00314:28
#00414:120000000000005200000000
#0041a:0012000000000000
#00413:000000000000120000000000005200000000000000000000
#00419:0000001200000000
#00412:0012
#00415:000000000000000000000000000000520000000000000056
#00416:000000000000000052000054
#00417:000000000000000000000000000000000052525252520000
#00715:00000013
#00712:1600000000000013
#0071b:0000000000000013
#00713:00150000
#00714:0014
#00718:0016001500140000
#0061b:13
#00612:13
#00618:00001300000013000013001300130013
#00615:0000130013131313
#00515:0000002600130013
#00518:00000013
#0051c:12
#00514:68
#0321b:1313130000000000
#03216:00130013000000000000000000000000
#03212:0000000013131300
#03217:00000000000000005313001300000000
#03219:0000005300000000
#0321a:00000000005300000000000000000000
#03218:00000000000000530000000000000000
#03214:0000000000000053
#03213:00000000000000000000000000530000
#03215:00000000000000000000000000000053
#09114:001400000014000000000000
#09118:261414260000
#09112:000000260000001400260000
#09116:000000000000000014000014
#0911a:000000000014
#09618:13000013000000001300130000000000
#09615:00001300130000000013000000001300
#0961b:0000001300001300
#09612:5300001300001300
#0921b:0013
#09215:00000013
#09218:2600000000130000
#09212:0000240000000013
#09216:0015000000000000
#09210:41
#08918:00000013
#08915:1300000000000013
#08919:00130000
#08914:0013
#09318:00001300000000000000000000130013
#09315:1300000000001313
#0931b:00130000
#09317:0013
#09312:00130000
#11412:0013000000000000
#11418:13002313
#11415:00001323
#1141b:00130000
#05918:0013000000130000
#05912:0000001300001300
#05915:1300130000000013
#0591b:0013
#05818:1300130000130000
#05812:0000001300000000
#05815:0013000013000000
#04617:001300000000
#0461b:000000000000000013000013
#04619:000000000013000000000000
#0091b:0000130000000013
#00912:00130000
#00918:0013
#00915:0000000000130000
#07718:0013000000000013
#07715:13000013
#07712:0000130000130000
#0771b:00131300
#07710:41
#07612:13131300
#07615:0013000000130000
#0761b:0000130000000013
#07618:26000013
#0761f:21
#07812:1313
#07815:0013000000130000
#07818:00130013
#0781b:1300000013000013
#07918:1300000013000013
#07915:0013001300001300
#07912:00130000
#0801b:2313
#08018:00000013001300000000130000000000
#08015:0013131300001300
#08012:2300000000000013
#08118:0013001300000000
#08115:0000130000000013
#0811b:0013
#08112:00000013
#06112:1c23
#0611a:0014
#0611f:0011
#01718:0013000013000000
#0171b:13000013
#01715:0000130000130000
#01712:2300000000000013
#01710:41
#02118:0013000000130000
#0211b:13
#02115:0000130013000013
#02112:2300001300000000
#0221b:0013000000130000
#02218:13130013
#02215:0000001300000013
#02615:0000000000130000
#02612:13131313
#02618:00130013
#0261b:0000000000000013
#01912:13000013
#01915:0013000000130000
#01918:0000130013000013
#0191b:2300001300000000
#02018:0000130000130013
#02015:0013001300001300
#02312:13000013
#02315:0013000000130000
#02318:00131300
#0231b:2300001300000013
#02512:23131313
#0251b:1300000000000013
#02518:0013
#02715:0013001300000000
#02712:1300000000130013
#0271b:13131313
#02815:0013001300000000
#02812:0000000000000013
#0281b:13131313
#01812:0013
#01815:00000013
#01818:0013130000130013
#02415:0013000000001300
#02412:00130000
#0241b:00130000
#02418:0000000000130013
#03915:0016001600160000
#03912:00260026
#03918:2600000026000026
#03916:52
#1131b:0000000000130000
#1131b:0000000000130000
#11312:13000013
#11312:00000013
#11318:0000000000000013
#11318:0000000000000013
#11315:00000000000000000000000000000013
#11315:00000000000000000000000000000013
#11912:0000131300000013
#1191b:0013
#11918:1313000000130000
#11915:00000013
#12012:0000001323002300
#1201b:00002323
#12018:0000000000000023
#09715:00001300130000000000000000130013
#09718:13000013000000000000000013001300
#0641a:14
#06416:000000140000000000000053
#06412:0013
#06414:000000000000005300005300
#06413:000053
#06415:00000053
#06718:00000013
#06716:0024
#0681b:0013000000000013
#06812:00130000
#06818:0000001300000000
#06815:0000000000130000
#06918:13
#06915:0013000000001300
#06912:00130000
#06916:0024
#05414:0014000000000024
#0541a:00002424
#05416:0024
#0331a:14
#03316:6300002400000000
#03518:0000000000160000
#03512:14
#03515:00000016
#03517:2300000000000016
#03516:0000002400000000
#01618:16000013
#01615:0000000000130013
#01612:00140000
#01616:0000001400000000
#0161a:0014
#02912:130000141400
#0291a:000000140014000000140014
#02914:001400
#02918:000000000000001400000000
#02915:000000000014
#0291b:23
#00115:13
#00118:1300002600000000
#00112:0000002600000000
#01114:00130000
#01119:00130000
#01112:2613
#0111b:0000000000130000
#01118:26
#01218:00130000
#01215:0000001300002200
#01212:0013
#0121b:0013000000000000
#01219:0000000000220022
#01315:0013
#01318:0000260000130000
#01312:1600000000000013
#01512:00160014
#0151a:0014
#01516:0000000000140000
#01518:16
#03015:0000000000000013
#03018:00000013
#03012:141400180000
#03017:001400000000000000000000
#0301a:000000140014000000000000
#03016:001400
#0311a:1414
#03116:0014001400140014
#03112:00140014
#0371a:14000014
#03712:6614
#03716:0000002400005400
#03713:00000000000000000054000000000000
#03714:0000000000540000
#03715:00000000000000000000005400000000
#03719:00000000000000000000000000540000
#03718:0000000000000054
#03717:00000000000000000000000000000054
#03812:14000012
#0381c:0012
#03816:6400002400000000
#0381b:00000000000000000052000000000000
#0381a:0000000000520000
#03819:00000000000000000000005200000000
#03818:00000052
#03813:00000000000000000000000000520000
#03814:0000000000000052
#03815:00000000000000000000000000000052
#06312:0014
#06316:00000014
#06318:13530000
#06317:005300000000000000000000
#06319:000053000053000000000000
#0631a:005300
#06315:53
#0631b:0063
#06216:140000000000000000000053
#06212:0013
#06214:000000000000005300005300
#06213:000053
#06215:00000053
#06512:0014
#06518:13530000
#06515:53
#06517:005300000000000000000000
#06519:000053000053000000000000
#0651a:005300
#0651b:0063
#0661a:0014
#06616:0024
#0711b:2300000000130000
#07112:0000001300000013
#07118:0013000000000000
#07115:00132626
#0721b:0013000000000000
#07212:0000001300000000
#07218:00002424
#07214:0000000000240024
#07215:26260000
#0821b:13001313
#08218:0013000000000000
#08212:00130013
#08216:00000000000013000000000000000013
#08217:000000000000000000000000000000000000000000000000000000000000000000000000000000000000000000000000000000000000000000000000000000000000000000000000000000000000000000000000000000000000000000000000000000000000000000000000000000000000000000000000000000000000000000000000000000000000000000000000000000000000000000000000000000000000000000000000000000000000000000000000000000000000000000000000000000000000000000000000000000000000000000000000000000000000000000000000000000000000000000000000000000000000000000000000000000000000000000000000000000000000000000000000000000000000000000000000000000000000000000000000000000000000000000000000000000000000000000000000000000000000000000000000000000000000000000000000000000000000000000000000000000000000000000000000000000000000000000000000000000000000000000000000000000000000000000000000000000000000000000000000000000000000000000000000000000000000000000000000000000000000000000000000000000000000000000000000000000000000000000000000000000000000000000000000000000000000000000000000000000000000000000000000000000000000000000000000000000000000000000000000000000000000000000000000000000000000000000000000000000000000000000000000000000000000000000000000000000000000000000000000000000000000000000000000000000000000000000000000000000000000000000000000000000000000000000000000000000000000000000000000000000000000000000000000000000000000000000000000000000000000000000000000000000000000000000000000000000000000000000000000000000000000000000000000000000000000000000000000000000000000000000000000000000000000000000000000000000000000000000000000000000000000000000000000000000000000000000000000000000000000000000000000000000000000000000000000000000000000000000000000000000000000000000000000000000000000000000000000000000000000000000000000000000000000000000000000000000000000000000000000000000000000000000000000000000000000000000000000000000000000000000000000000000000000000000000000000000000000000000000000000000000000000000000000000000000000000000000000000000000000000000000000000000000000000000000000000000000000000000000000000000000000000000000000000000000000000000000000000000000000000000000000000000000000000000000000000000000000000000000000000000000000000000000000000000000000000000000000000000000000000000000000000000000000000000000000000000000000000000000000000000000000000000000000000000000000000000000000000000000000000000000000000000000000000000000000000000000000000000000000130000000000000000000000000000000000000000000000000000000000000000000000000000000000000000000000000000000000000000000000000000000000000000000000000000000000000000000000000000000000000000000000000000000000000000000000000000000000000000000000000000000000000000000000000000000000000000000000000000000000000000000000000000000000000000000000000000000000000000000000000000000000000000000000000000000000000000000000000000000000000000000000000000000000000000000000000000000000000000000000000000000000000000000000000000000000000000000000000000000000000000000000000000000000000000000000000000000000000000000000000000000000000000000000000000000000000000000000000000000000000000000000000000000000000000000000000000000000000000000000000000000000000000000000000000000000000000000000000000000000000000000000000000000000000000000000000000000000000000000000000000000000000000000000000000000000000000000000000000000000000000000000000000000000000000000000000000000000000000000000000000000000000000000000000000000000000000000000000000000000000000000000000000000000000000000000000000000000000000000000000000000000000000000000000000000000000000000000000000000000000000000000000000000000000000000000000000000000000000000000001300000000000000000000000000000000000000000000000000000000000000000000000000000000000000000000000000000000000000000000000000000000000000000000000000000000000000000000000000000000000000000000000000000000000000000000000000000000000000000000
#08515:0013000000000013
#08518:13000013
#0851b:0000130000130000
#08512:00131300
#0841b:1313
#08415:0013000000001300
#08412:1300130000000013
#08418:0000260000130000
#08318:0000000000130013
#08315:00000013
#0861b:1313
#08618:0013000000130000
#08615:00130013
#08612:1300000013000013
#08718:0013000013000000
#08715:00130013
#0871b:0000001300000013
#08712:0000001300130000
#0901b:13
#09017:00000013000000000000000000000000
#09016:0000001300000000
#0881b:00130000
#0881a:00000013
#08816:0013
#09415:0000000000130013
#09418:00130013
#0951b:1313
#09515:00130013
#0951a:005300000000005300000000
#09519:005300005300
#09514:000053000053
#09513:000000000053000000000053
#09518:00530053
#09512:0053
#10918:0013000000000000
#10916:0013
#10912:13
#1091a:0000001300000000
#10914:00130000
#11118:000013000013
#11115:1323
#11112:002300000000
#1111b:002300000000
#10715:00000013
#10718:00000000000000000000003313000000
#10719:00000033000000000000330000000000
#1071a:00000000330000000033000000000000
#1071b:00000000003300000000000000000000
#10815:0000130000130000
#1081b:2300000000000013
#10812:23
#10818:0000002300002300
#11212:00130000
#1121b:00001323
#11215:23000013
#11210:0041
#11018:000000000013
#1101b:232323232300
#11012:232323232300
#10518:00000013
#10515:1300000000000013
#10519:00130000
#10514:0013
#1041b:00130000
#1041a:00000013
#10416:0013
#10612:13
#10616:0000001300000000
#1061a:00330000000000330000000000330000
#10619:00003333000000000000000000003300
#1061b:00000000000000003333000000000000
#10618:00000000000000000000000000000033
#11512:13
#11515:00000013
#11515:00000013
#11518:0000000000000013
#11518:0000000000000013
#1151b:0000000000130000
#1151b:0000000000130000
#1181b:0013000013130000
#11815:1300000023001313
#11812:00130000
#1171b:13000013
#1171b:00000013
#11715:0000000000000013
#11715:0000000000000013
#11718:00000000000000000000000000000013
#11718:00000000000000000000000000000013
#11712:0000000000130000
#11712:0000000000130000
#11618:00002313
#11612:00001323
#10118:0013001300130013
#10115:13001313
#10112:00130000
#1011b:00130000
#1001b:0000000013000013
#10012:1400240013000013
#10018:0000000000130000
#10015:00000013
#10016:000000000000000000000000000000000000000000000000000000000000000000000000000000000000000000000000000000000000000000000000000000000000000000000000000000000000000000000000000000000000000000000000000000000000000000000000000000000000000000000000000000000000000000000000000000000000000000000000000000000000000000000000000000000000000000000000000000000000000000000000000000000000000000000000000000000000000000000000000000000000000000000000000000000000000000000000000000000000000000000000141400000000000000000000000000000000000000000000000000000000000000000000000000000000000000000000000000000000000000000000000000000000000000000000000000000000000000000000000000000000000000000000000000000000000000000000000000000000000000000000000000000000000000000000000000000000000000000000000000000000000000000000000000000000000000000000000000000000000000000000000000000000000000000000000000000000000000000000000000000000000000000000000000000000000000000000000000000000000000000000000000000000000000000000000000000000000000000000000000000000000000000000000000000000000000000000000000000000000000000000000000000000000000000000000000000000000000000000000000000000000000000000000000000000000000000000000000000000000000000000000000000000000000000000000000000000000000000000000000000000000000000000000000000000000000000000000000000000000000000000000000000000000000000000000000000000000000000000000000000000000000000000000000000000000000000000000000000000000000000000000000000000000000000000000000000000000000000000000000000000000000000000000000000000000000000000000000000000000000000000000000000000000000000000000000000000000000000000000000000000000000000000000000000000000000000000000000000000000000000000000000000000000000000000000000000000000000000000000000000000000000000000000000000000000000000000000000000000000000000000000000000000000000000000000000000000000000000000000000000000000000000000000000000000000000000000000000000000000000000000000000000000000000000000000000000000000000000000000000000000000000000000000000000000000000000000000000000000000000000000000000000000000000000000000000000000000000000000000000000000000000000000000000000000000000000000000000000000000000000000000000000000000000000000000000000000000000000000000000000000000000000000000000000000000000000000000000000000000000000000000000000000000000000000000000000000000000000000000000000000000000000000000000000000000000000000000000000000000000000000000000000000000000000000000000000000000000000000000000000000000000000000000000000000000000000000000000000000000000000000000000000000000000000000000000000000000000000000000000000000000000000000000000000000000000000000000000000000000000000000000000000000000000000000000000000000000000000000000000000000000000000000000000000000000000000000000000000000000000000000000000000000000000000000000000000000000000000000000000000000000000000000000000000000000000000000000000000000000000000000000000000000000000000000000000000000000000000000000000000000000000000000000000000000000000000000000000000000000000000000000000000000000000000000000000000000000000000000000000000000000000000000000000000000000000000000000000000000000000000000000000000000000000000000000000000000000000000000000000000000000000000000000000000000000000000000000000000000000000000000000000000000000000000000000000000000000000000000000000000000000000000000000000000000000000000000000000000000000000000000000000000000000000000000000000000000000000000000000000000000000000000000000000000000000000000000000000000000000000000000000000000000000000000000000000000000000000000000000000000000000000000000000000000000000000000000000000000000000000000000000000000000000000000000000000000000000000000000000000000000000000000000000000000000000000000000000000000000000000000000000000000000000000000000000000000000000000000000000000000000000000000000000000000000000000000000000000000000000000000000
#1001a:14240000
#10215:0013000000001300
#10218:0000130000130000
#1021b:1300000013000013
#10212:1300000013000013
#10318:0013001300130000
#10315:1300130000130000
#1031b:00001313
#10312:0000001300001300
#04719:000013000000000000250000
#04717:000000000013000000000000
#04712:0026
#04814:000013
#04812:000000000000000000000013
#04816:000000000013000000000000
#04815:24
#0481b:00230000
#04914:001300000000
#04916:000000000013000000000000
#04918:0026
#04912:00000026
#05118:16
#05112:000016000016000016000000
#05117:00160000
#05116:0016
#05115:00000016
#0501b:00130000
#05015:260000000013000000130000
#05018:000000131300
#05012:00130000
#05612:1424
#0561a:0014000024000000
#05614:0000000000002424
#0571b:00000013
#05712:00000013
#05718:0024240000000000
#05714:0024
#06019:0015
#06016:0000000000150000
#0601a:14
#06017:0014000000000000
#06012:00140015
#06015:0000001400000015
#01415:00130000
#01418:0000001300160000
#01412:0013000016000000
#0101b:0013000000000000
#01015:0000001300000000
#01018:00131600
#01012:0000000000160000
#0521b:00130000
#05215:00001313
#05218:0000001300000013
#05212:0000000000130000
#12115:2300230000230000
#12112:0023000023000000
#12118:0000002300002300
#1211b:0000000023000023
#12218:2300000000230023
#12215:0023000000002300
#12212:00232300
#1221b:00232300
#12919:00250000
#12912:0000002500260000
#1291a:24
#12918:00000026
#12315:0023002300000000
#12318:00000000230000000000006300630000
#12312:23002323
#1231b:2323
#1231a:00000000000000000063000000000063
#12319:0000000000630063
#12317:00000063
#13018:26260000
#13012:0026002600000000
#1241b:63232300
#12412:2363
#12416:00630023
#12413:00630000000000630000000000000063
#12414:0063006300000063
#12415:00000063006300000000000000630000
#12517:23000063
#12516:00230000
#1251b:00632300
#12512:63006323
#12518:00630000000000000000006300000000
#12519:0063000000630000
#1251a:00000063000000000063000000000000
#12515:00000000006300000000000000000063
#12514:0000006300000063
#12513:00000000000000630000000000630000
#1261b:23002363
#12612:00230023
#12616:6300000063000063
#1261a:00630000000000000000000000000000
#12619:00006300000000000063006300000000
#12618:00000063000000000000000000000000
#12617:0000630000630000
#12613:00000000006300000000000000000000
#12614:00000000000063000000000000630063
#12615:00000000000000630000000000000000
#1271b:23630000
#12712:63000000230000006324002400240024
#1271a:0000000024242424
#12719:00630063000000000000000000000000
#12717:0063000000000000
#12714:00000000006300630000000000000000
#12716:0000006300000000
#12812:00240024002400240000240000002400
#1281a:2424242424000000
#07518:0066
#07512:0066
#04552:00000000000000000000000000000000002300000023000000230000002300000000000000000000000000000000000000000000000000000000000000000000
#04553:0000000000000000636363636363636300000000000000000000000000000000
#04554:00000000000000000000000000000000000000230000002300000023000000230000000000000000000000000000000000000000000000000000000000000000
#04558:00000053
#0455a:0014
#05352:0014
#07958:2313
#07952:00530000
#07955:0000002300000000
#06152:1c13
#0615a:0064
#0645a:64
#06456:00240000
#0335a:64
#03356:1300001400000000
#0745b:13
#07452:13
#06952:00530000
#06956:0014
#06858:0000005300000000
#06855:0000000000630000
#0255b:6300000000000063
#02558:0053
#02552:13
#07752:00530000
#00155:63
#00158:5300001600000000
#00152:0000001600000000
#00352:52
#00355:0000001600000000
#00354:18
#0055c:62
#00555:0000001600000000
#00554:18
#01552:00160000
#01558:16
#01658:16
#01755:00630000
#01752:1300000000000053
#01858:00530000
#01958:0000000000000053
#0195b:13
#02055:0000006300000000
#0235b:1300000000000063
#02658:00530000
#02855:0000006300000000
#03552:54
#03556:0000001400000000
#03557:13
#0315a:1414
#03152:00140014
#03052:0018
#0375a:64
#03756:0000001400000000
#03752:16
#03852:54
#03856:1400001400000000
#06352:0054
#06356:00000024
#0635b:0013
#06256:24
#06552:0054
#0655b:0013
#0665a:0064
#06656:0014
#0765b:00630000
#07658:46
#07858:00130000
#0785b:0000000000000063
#08052:0000000000000053
#0815b:0063
#08152:00000053
#08155:0000000000000023
#0825b:63006363
#08258:0023000000000000
#08252:00530053
#08256:00000000000023000000000000000023
#08257:000000000000000000000000000000000000000000000000000000000000000000000000000000000000000000000000000000000000000000000000000000000000000000000000000000000000000000000000000000000000000000000000000000000000000000000000000000000000000000000000000000000000000000000000000000000000000000000000000000000000000000000000000000000000000000000000000000000000000000000000000000000000000000000000000000000000000000000000000000000000000000000000000000000000000000000000000000000000000000000000000000000000000000000000000000000000000000000000000000000000000000000000000000000000000000000000000000000000000000000000000000000000000000000000000000000000000000000000000000000000000000000000000000000000000000000000000000000000000000000000000000000000000000000000000000000000000000000000000000000000000000000000000000000000000000000000000000000000000000000000000000000000000000000000000000000000000000000000000000000000000000000000000000000000000000000000000000000000000000000000000000000000000000000000000000000000000000000000000000000000000000000000000000000000000000000000000000000000000000000000000000000000000000000000000000000000000000000000000000000000000000000000000000000000000000000000000000000000000000000000000000000000000000000000000000000000000000000000000000000000000000000000000000000000000000000000000000000000000000000000000000000000000000000000000000000000000000000000000000000000000000000000000000000000000000000000000000000000000000000000000000000000000000000000000000000000000000000000000000000000000000000000000000000000000000000000000000000000000000000000000000000000000000000000000000000000000000000000000000000000000000000000000000000000000000000000000000000000000000000000000000000000000000000000000000000000000000000000000000000000000000000000000000000000000000000000000000000000000000000000000000000000000000000000000000000000000000000000000000000000000000000000000000000000000000000000000000000000000000000000000000000000000000000000000000000000000000000000000000000000000000000000000000000000000000000000000000000000000000000000000000000000000000000000000000000000000000000000000000000000000000000000000000000000000000000000000000000000000000000000000000000000000000000000000000000000000000000000000000000000000000000000000000000000000000000000000000000000000000000000000000000000000000000000000000000000000000000000000000000000000000000000000000000000000000000000000000000000000000000000230000000000000000000000000000000000000000000000000000000000000000000000000000000000000000000000000000000000000000000000000000000000000000000000000000000000000000000000000000000000000000000000000000000000000000000000000000000000000000000000000000000000000000000000000000000000000000000000000000000000000000000000000000000000000000000000000000000000000000000000000000000000000000000000000000000000000000000000000000000000000000000000000000000000000000000000000000000000000000000000000000000000000000000000000000000000000000000000000000000000000000000000000000000000000000000000000000000000000000000000000000000000000000000000000000000000000000000000000000000000000000000000000000000000000000000000000000000000000000000000000000000000000000000000000000000000000000000000000000000000000000000000000000000000000000000000000000000000000000000000000000000000000000000000000000000000000000000000000000000000000000000000000000000000000000000000000000000000000000000000000000000000000000000000000000000000000000000000000000000000000000000000000000000000000000000000000000000000000000000000000000000000000000000000000000000000000000000000000000000000000000000000000000000000000000000000000000000000000000000000002300000000000000000000000000000000000000000000000000000000000000000000000000000000000000000000000000000000000000000000000000000000000000000000000000000000000000000000000000000000000000000000000000000000000000000000000000000000000000000000
#0855b:00630000
#08452:00530000
#08458:00460000
#08655:00130000
#08652:0000000000000053
#0875b:0000006300000043
#08758:0023
#08752:0000000000530033
#08755:00000023
#0905b:63
#09057:00000023000000000000000000000000
#09056:0000006300000000
#0885b:00630000
#0885a:00000063
#08856:0063
#08959:00630000
#08954:0063
#08955:63
#0935b:00630000
#09357:0023
#10758:00000063
#1085b:1300000000000023
#10852:13
#10858:00000063
#11252:00230000
#11255:5313
#1125b:00000013
#1045b:00630000
#1045a:00000063
#10456:0063
#10559:00630000
#10554:0063
#10555:63
#10652:53
#10656:0000006300000000
#1145b:00630000
#11455:00000013
#11458:0013
#11852:00530000
#11855:0013
#1015b:00630000
#10158:0000002300000000
#10252:0000000000000053
#10258:00130000
#10355:2300000000630013
#10358:0000005300530013
#1035b:00002323
#10352:00000023
#10056:000000000000000000000000000000000000000000000000000000000000000000000000000000000000000000000000000000000000000000000000000000000000000000000000000000000000000000000000000000000000000000000000000000000000000000000000000000000000000000000000000000000000000000000000000000000000000000000000000000000000000000000000000000000000000000000000000000000000000000000000000000000000000000000000000000000000000000000000000000000000000000000000000000000000000000000000000000000000000000000000242400000000000000000000000000000000000000000000000000000000000000000000000000000000000000000000000000000000000000000000000000000000000000000000000000000000000000000000000000000000000000000000000000000000000000000000000000000000000000000000000000000000000000000000000000000000000000000000000000000000000000000000000000000000000000000000000000000000000000000000000000000000000000000000000000000000000000000000000000000000000000000000000000000000000000000000000000000000000000000000000000000000000000000000000000000000000000000000000000000000000000000000000000000000000000000000000000000000000000000000000000000000000000000000000000000000000000000000000000000000000000000000000000000000000000000000000000000000000000000000000000000000000000000000000000000000000000000000000000000000000000000000000000000000000000000000000000000000000000000000000000000000000000000000000000000000000000000000000000000000000000000000000000000000000000000000000000000000000000000000000000000000000000000000000000000000000000000000000000000000000000000000000000000000000000000000000000000000000000000000000000000000000000000000000000000000000000000000000000000000000000000000000000000000000000000000000000000000000000000000000000000000000000000000000000000000000000000000000000000000000000000000000000000000000000000000000000000000000000000000000000000000000000000000000000000000000000000000000000000000000000000000000000000000000000000000000000000000000000000000000000000000000000000000000000000000000000000000000000000000000000000000000000000000000000000000000000000000000000000000000000000000000000000000000000000000000000000000000000000000000000000000000000000000000000000000000000000000000000000000000000000000000000000000000000000000000000000000000000000000000000000000000000000000000000000000000000000000000000000000000000000000000000000000000000000000000000000000000000000000000000000000000000000000000000000000000000000000000000000000000000000000000000000000000000000000000000000000000000000000000000000000000000000000000000000000000000000000000000000000000000000000000000000000000000000000000000000000000000000000000000000000000000000000000000000000000000000000000000000000000000000000000000000000000000000000000000000000000000000000000000000000000000000000000000000000000000000000000000000000000000000000000000000000000000000000000000000000000000000000000000000000000000000000000000000000000000000000000000000000000000000000000000000000000000000000000000000000000000000000000000000000000000000000000000000000000000000000000000000000000000000000000000000000000000000000000000000000000000000000000000000000000000000000000000000000000000000000000000000000000000000000000000000000000000000000000000000000000000000000000000000000000000000000000000000000000000000000000000000000000000000000000000000000000000000000000000000000000000000000000000000000000000000000000000000000000000000000000000000000000000000000000000000000000000000000000000000000000000000000000000000000000000000000000000000000000000000000000000000000000000000000000000000000000000000000000000000000000000000000000000000000000000000000000000000000000000000000000000000000000000000000000000000000000000000000000000000000000000000000000000000000000000000000000000000000000000000000000000000000000000000000000000000000000000000000000000000000000000000000000000000000000000000000000000000000000000000000000000000000
#1005a:64440000
#10052:54340000
#09256:0025000000000000
#09252:00340000
#09258:56
#0925a:00440000
#05158:46
#05157:00460000
#05156:0046
#05155:00000046
#01352:16
#01358:00160000
#03952:00160016
#03958:1600000016000016
#1205b:0043
#12052:0033
#04155:0016
#12959:00450000
#12952:0000003500360000
#1295a:44
#12958:00000046
#12252:00130000
#1225b:00130000
#07352:001c
#0545a:0014
#04958:0046
#04952:00000036
#05055:16
#02152:13
#0295b:13
#05652:0014
#06756:0014
#11152:001300000000
#1115b:001300000000
#11652:00000013
#11658:0013
#13058:46460000
#13052:0036003600000000
#12852:0000000000340034
#1285a:0044
#01158:16
#01152:16
#00955:16
#0835b:0043000000000000
#08352:0033000000000000
#001350:13
#001320:0000002600000000
#001381:1300002600000000
#003321:12
#003351:0000002600000000
#0053c1:12
#005351:0000002600000000
#008371:000000000000000000000000000000000000000000000000000000000000000000000000000000000000000000000000000000000000000000000000000000000000000000000000000000000000000000000000000000000000000000000000000000000000000000000000000000000000000000000000000000000000000000000000000000000000000000000000000000000000000000000000000000000000000000000000000000000000000000000000000000000000000000000000000000000000000000000000000000000000000000000000000000000000000000000000000000000000000000000000000000000000000000000000000000000000000000000000000000000000000000000000000000000000000000000000000000000000000000000000000000000000000000000000000000000000000000000000000000000000000000000000000000000000000000000000000000000000000000000000000000000000000000000000000000000000000000000000000000000000000000000000000000000000000000000000000000000000000000000000000000000000000000000000000000000000000000000000000000000000000000000000000000000000000000000000000000000000000000000000000000000000000000000000000000000000000000000000000000000000000000000000000000000000000000000000000000000000000000000000000000000000000000000000000000000000000000000000000000000000000000000000000000000000000000000000000000000000000000000000000000000000000000000000000000000000000000000000000000000000000000000000000000000000000000000000000000000000000000000000000000000000000000000000000000000000000000000000000000000000000000000000000000000000000000000000000000000000000000000000000000000000000000000000000000000000000000000000000000000000000000000000000000000000000000000000000000000000000000000000000000000000000000000000000000000000000000000000000000000000000000000000000000000000000000000000000000000000000000000000000000000000000000000000000000000000000000000000000000000000000000000000000000000000000000000000000000000000000000000000000000000000000000000000000000000000000000000000000000000000000000000000000000000000000000000000000000000000000000000000120000000000000000000000000000000000000000000000000000000000000000000000000000000000000000000000000000000000000000000000000000000000000000000000000000000000000000000000000000000000000000000000000000000000000000000000000000000000000000000000000000000000000000000000000000000000000000000000000000000000000000000000000000000000000000000000000000000000000000000000000000000000000000000000000000000000000000000000000000000000000000000000000000000000000000000000000000000000000000000000000000000000000000000000000000000000000000000000000000000000000000000000000000000000000000000000000000000000000000000000000000000000000000000000000000000000000000000000000000000000000000000000000000000000000000000000000000000000000000000000000000000000000000000000000000000000000000000000000000000000000000000000000000000000000000000000000000000000000000000000000000000000000000000000000000000000000000000000000000000000000000000000000000000000000000000000000000000000000000000000000000000000000000000000000000000000000000000000000000000000000000000000000000000000000000000000000000000000000000000000000000000000000000000000000000000000000000000000000000000000000000000000000000000000000000000000000000000000000000000000000000000000000000000000000000000000000000000000000000000000000000000000000000000000000000000000000000000000000000000000000000000000000000000000000000000000000000000000000000000000000000000000000000000000000000000000000000000000000000000000000000000000000000000000000000000000000000000000000000000000000000000000000000000000000000000000000000000000000000000000000000000000000000000000000000000000000000000000000000000000000000000000000000000000000000000000000000000000000000000000000000000000000000000000000000000000000000000000000000000000000000000000000000000000000000000000000000000000000000000000000000000000000000000000000000000000000000000000000000000000000000000000000000000000000000000000000000000000000000000052
#009351:26
#009321:0000000000000000000000000000000000000000000000000000000013535353
#009331:00000000000000000000000000000000000000000000000000000000000000000000000000000000000000000000000000000000000000000053005300530053
#010321:5353535323000000000000000000000000000000000000000000000000000000
#010331:00530053005300530000000000000000000000000000000000000000000000000000000000000000000000000000000000000000000000000000000000000000
#010381:00000016
#011381:26
#011351:0000000000000000000000000000000000000000000000000000000013535353
#011341:00000000000000000000000000000000000000000000000000000000000000000000000000000000000000000000000000000000000000000053005300530053
#012351:5353535323000000000000000000000000000000000000000000000000000000
#012341:00530053005300530000000000000000000000000000000000000000000000000000000000000000000000000000000000000000000000000000000000000000
#0133b1:0000000000000000000000000000000000000000000000000000000013535353
#0133a1:00000000000000000000000000000000000000000000000000000000000000000000000000000000000000000000000000000000000000000053005300530053
#0143b1:5353535323000000000000000000000000000000000000000000000000000000
#0143a1:00530053005300530000000000000000000000000000000000000000000000000000000000000000000000000000000000000000000000000000000000000000
#014321:00000016
#015321:26
#017351:00130000
#017321:0023
#017321:0000000000000013
#018351:0023000000000000
#018381:00130000
#0183b1:0023
#019381:0000000000000013
#0203b1:0023000000000000
#020351:0000001300000000
#020321:0000000000230000
#0233b1:0000000000000013
#024381:0023000000000000
#0253b1:13
#025381:00230000
#025381:0013
#0253b1:00000023
#0253b1:0000000000000013
#026381:0033330000000000
#0263b1:0023
#028351:0000001300000000
#028321:00000023
#0333a1:14
#033361:0000002400000000
#035321:14
#035361:0000002400000000
#0373a1:14
#037361:0000002400000000
#038321:14
#038361:0000002400000000
#040351:00000016
#041351:0026
#040350:00000000000000000000000000000016
#041350:26
#041350:00001626000000000000000000000000
#041350:00000000001626000000000000000000
#041321:00000000000000000000001300230000
#0413b1:00000000000000000000000000000013
#0423b1:00230000000000000000000000000000
#042350:00130023000000000000000000000000
#042320:0000132300000000
#0423b0:00000000000000000013002300000000
#042351:00000000000000000000001300230000
#042381:00000000000000000000000000000013
#043381:00230000000000000000000000000000
#043320:00130023000000000000000000000000
#043350:0000132300000000
#043381:0000001323000000
#043320:0000000013230000
#0433b1:0000000000132300
#043381:00000000000000000000000000130023
#043350:00000000000000000000000000000013
#044350:00230000000000000000000000000000
#0443b1:00130023000000000000000000000000
#044381:0000132300000000
#044320:0000001323000000
#044380:00000000000000000013002300000000
#044351:00000000000000000000001300230000
#045331:0000000000000000135353535353535323000000000000000000000000000000
#045321:00000000000000000000000000000000005300000053000000530000005300000000000000000000000000000000000000000000000000000000000000000000
#045341:00000000000000000000000000000000000000530000005300000053000000530000000000000000000000000000000000000000000000000000000000000000
#045381:00000013
#0463b1:23
#046320:132300000000
#046340:000000130023000000000000
#046360:000000132300
#046360:000000000000000000130023
#047340:132300000000
#047320:000000130023000000000000
#047320:00001626
#047391:00000015
#048391:25
#048350:14240000
#0483b1:000000130023000000000000
#048391:000000132300
#048371:000000000000000000130023
#049391:132300000000
#0493b1:000000130023000000000000
#052321:13230000
#0533b1:13230000
#053361:00001424
#053381:0000000000000014
#054381:0024000000000000
#0543a1:00142400
#054360:00001424
#054340:0000000000000014
#055340:0024000000000000
#055320:00142400
#056320:00142400
#0563a1:00001424
#056341:0000000000000014
#057341:0024000000000000
#057381:00142400
#0583b1:00000013
#0593b1:23
#0613a1:0014
#062361:54
#0623a1:0024
#063321:0014
#063361:00000054
#064321:24
#0643a0:1424
#064360:00540000
#065320:0014
#066360:0024
#0663a1:0014
#067361:0024
#067320:00001323
#067350:0000000000000013
#068350:0023000000000000
#068380:0000001300000000
#0683b0:0000000000230000
#068351:0000000000130000
#068321:0000000000000023
#069321:00130000
#069361:0024
#0693b0:00001323
#069380:0000000000000013
#070380:0023000000000000
#075380:1626
#075321:1626
#0763b1:00130000
#076381:0023
#077321:00130000
#077351:0023
#0783b1:0000000000000013
#079381:53
#0793b1:0023000000000000
#079321:00132300
#079351:0000005300000000
#080321:0000000000000013
#081351:0023000000000000
#0813b1:0013
#081381:00000023
#081320:00000013
#081350:0000000000000053
#082320:23
#0823b1:13230000
#082381:0053000000000000
#082320:00132300
#082360:0000005300000000
#0823b1:00001333
#082371:000000000000000000000000000000000000000000000000000000000000000000000000000000000000000000000000000000000000000000000000000000000000000000000000000000000000000000000000000000000000000000000000000000000000000000000000000000000000000000000000000000000000000000000000000000000000000000000000000000000000000000000000000000000000000000000000000000000000000000000000000000000000000000000000000000000000000000000000000000000000000000000000000000000000000000000000000000000000000000000000000000000000000000000000000000000000000000000000000000000000000000000000000000000000000000000000000000000000000000000000000000000000000000000000000000000000000000000000000000000000000000000000000000000000000000000000000000000000000000000000000000000000000000000000000000000000000000000000000000000000000000000000000000000000000000000000000000000000000000000000000000000000000000000000000000000000000000000000000000000000000000000000000000000000000000000000000000000000000000000000000000000000000000000000000000000000000000000000000000000000000000000000000000000000000000000000000000000000000000000000000000000000000000000000000000000000000000000000000000000000000000000000000000000000000000000000000000000000000000000000000000000000000000000000000000000000000000000000000000000000000000000000000000000000000000000000000000000000000000000000000000000000000000000000000000000000000000000000000000000000000000000000000000000000000000000000000000000000000000000000000000000000000000000000000000000000000000000000000000000000000000000000000000000000000000000000000000000000000000000000000000000000000000000000000000000000000000000000000000000000000000000000000000000000000000000000000000000000000000000000000000000000000000000000000000000000000000000000000000000000000000000000000000000000000000000000000000000000000000000000000000000000000000000000000000000000000000000000000000000000000000000000000000000000000000000000000000000000000000000000000000000000000000000000000000000000000000000000000000000000000000000000000000000000000000000000000000000000000000000000000000000000000000000000000000000000000000000000000000000000000000000000000000000000000000000000000000000000000000000000000000000000000000000000000000000000000000000000000000000000000000000000000000000000000000000000000000000000000000000000000000000000000000000000000000000000000000000000000000000000000000000000000000000000000000000000000000000000000000000000530000000000000000000000000000000000000000000000000000000000000000000000000000000000000000000000000000000000000000000000000000000000000000000000000000000000000000000000000000000000000000000000000000000000000000000000000000000000000000000000000000000000000000000000000000000000000000000000000000000000000000000000000000000000000000000000000000000000000000000000000000000000000000000000000000000000000000000000000000000000000000000000000000000000000000000000000000000000000000000000000000000000000000000000000000000000000000000000000000000000000000000000000000000000000000000000000000000000000000000000000000000000000000000000000000000000000000000000000000000000000000000000000000000000000000000000000000000000000000000000000000000000000000000000000000000000000000000000000000000000000000000000000000000000000000000000000000000000000000000000000000000000000000000000000000000000000000000000000000000000000000000000000000000000000000000000000000000000000000000000000000000000000000000000000000000000000000000000000000000000000000000000000000000000000000000000000000000000000000000000000000000000000000000000000000000000000000000000000000000000000000000000000000000000000000000000000000000000000000000000005300000000000000000000000000000000000000000000000000000000000000000000000000000000000000000000000000000000000000000000000000000000000000000000000000000000000000000000000000000000000000000000000000000000000000000000000000000000000000000000
#0833b1:0023000000000000
#082320:00000013
#082360:00000000000000000000000000000053
#083320:0023000000000000
#084320:00130000
#084350:0023
#0853b0:00130000
#085380:0023
#086320:0000000000000013
#087350:0023000000000000
#0873b0:0000001300230000
#087380:0053
#087321:0000000000130023
#087351:00000053
#0883b1:00130000
#088391:0023
#088360:0013
#088340:00000023
#0883a1:00000013
#089381:23
#089350:13
#089330:00230000
#089391:00130000
#089371:0023
#089340:0013
#089320:00000023
#0903b0:1300002300000000
#090370:00000053000000000000000000000000
#090361:0000001300000000
#091321:23
#092381:16
#092361:0055000000000000
#0923a1:00240000
#0933b1:00130023
#093371:0053
#094351:13535353230000000000000000000000
#094341:0053005300530053000000000000000000000000000000000000000000000000
#094381:00000000000013535353230000000000
#094391:0000000000000000000000000053005300530053000000000000000000000000
#0973b1:0000000000000000000000001353535353535353230000000000000000000000
#0973a1:00000000000000000000000000000000000000000000000000530053005300530053005300530053000000000000000000000000000000000000000000000000
#097320:0000000000000000000000001353535353535353230000000000000000000000
#097330:00000000000000000000000000000000000000000000000000530053005300530053005300530053000000000000000000000000000000000000000000000000
#0983a0:14545454545454545454545454545454240000000000000000000000000000000000000000000000000000000000000000000000000000000000000000000000
#098390:0054005400540054005400540054005400540054005400540054005400540054000000000000000000000000000000000000000000000000000000000000000000000000000000000000000000000000000000000000000000000000000000000000000000000000000000000000000000000000000000000000000000000000
#098321:00000000000000000000000000000000145454545454545454545454545454542400000000000000000000000000000000000000000000000000000000000000
#098331:0000000000000000000000000000000000000000000000000000000000000000005400540054005400540054005400540054005400540054005400540054005400000000000000000000000000000000000000000000000000000000000000000000000000000000000000000000000000000000000000000000000000000000
#0983a0:00000000000000000000000000000000000000000000000000000000000000001454545454545454545454545454545454545454545454545454545454545454
#098390:0000000000000000000000000000000000000000000000000000000000000000000000000000000000000000000000000000000000000000000000000000000000540054005400540054005400540054005400540054005400540054005400540054005400540054005400540054005400540054005400540054005400540054
#0993a0:54545454545454545454545454545454545454545454545454545454545454545454545454545454545454545454545454545454545454545454545454545454
#099390:0054005400540054005400540054005400540054005400540054005400540054005400540054005400540054005400540054005400540054005400540054005400540054005400540054005400540054005400540054005400540054005400540054005400540054005400540054005400540054005400540054005400540054
#1003a0:34240000
#100360:0054000000000000
#098321:00000000000000000000000000000000000000000000000000000000000000000000000000000000000000000000000014545454545454545454545454545454
#098331:0000000000000000000000000000000000000000000000000000000000000000000000000000000000000000000000000000000000000000000000000000000000000000000000000000000000000000000000000000000000000000000000000054005400540054005400540054005400540054005400540054005400540054
#099321:54545454545454545454545454545454545454545454545454545454545454545454545454545454545454545454545454545454545454545454545454545454
#099331:0054005400540054005400540054005400540054005400540054005400540054005400540054005400540054005400540054005400540054005400540054005400540054005400540054005400540054005400540054005400540054005400540054005400540054005400540054005400540054005400540054005400540054
#100321:34240000
#100361:000000000000000000000000000000000000000000000000000000000000000000000000000000000000000000000000000000000000000000000000000000000000000000000000000000000000000000000000000000000000000000000000000000000000000000000000000000000000000000000000000000000000000000000000000000000000000000000000000000000000000000000000000000000000000000000000000000000000000000000000000000000000000000000000000000000000000000000000000000000000000000000000000000000000000000000000000000000000000000000000005400000000000000000000000000000000000000000000000000000000000000000000000000000000000000000000000000000000000000000000000000000000000000000000000000000000000000000000000000000000000000000000000000000000000000000000000000000000000000000000000000000000000000000000000000000000000000000000000000000000000000000000000000000000000000000000000000000000000000000000000000000000000000000000000000000000000000000000000000000000000000000000000000000000000000000000000000000000000000000000000000000000000000000000000000000000000000000000000000000000000000000000000000000000000000000000000000000000000000000000000000000000000000000000000000000000000000000000000000000000000000000000000000000000000000000000000000000000000000000000000000000000000000000000000000000000000000000000000000000000000000000000000000000000000000000000000000000000000000000000000000000000000000000000000000000000000000000000000000000000000000000000000000000000000000000000000000000000000000000000000000000000000000000000000000000000000000000000000000000000000000000000000000000000000000000000000000000000000000000000000000000000000000000000000000000000000000000000000000000000000000000000000000000000000000000000000000000000000000000000000000000000000000000000000000000000000000000000000000000000000000000000000000000000000000000000000000000000000000000000000000000000000000000000000000000000000000000000000000000000000000000000000000000000000000000000000000000000000000000000000000000000000000000000000000000000000000000000000000000000000000000000000000000000000000000000000000000000000000000000000000000000000000000000000000000000000000000000000000000000000000000000000000000000000000000000000000000000000000000000000000000000000000000000000000000000000000000000000000000000000000000000000000000000000000000000000000000000000000000000000000000000000000000000000000000000000000000000000000000000000000000000000000000000000000000000000000000000000000000000000000000000000000000000000000000000000000000000000000000000000000000000000000000000000000000000000000000000000000000000000000000000000000000000000000000000000000000000000000000000000000000000000000000000000000000000000000000000000000000000000000000000000000000000000000000000000000000000000000000000000000000000000000000000000000000000000000000000000000000000000000000000000000000000000000000000000000000000000000000000000000000000000000000000000000000000000000000000000000000000000000000000000000000000000000000000000000000000000000000000000000000000000000000000000000000000000000000000000000000000000000000000000000000000000000000000000000000000000000000000000000000000000000000000000000000000000000000000000000000000000000000000000000000000000000000000000000000000000000000000000000000000000000000000000000000000000000000000000000000000000000000000000000000000000000000000000000000000000000000000000000000000000000000000000000000000000000000000000000000000000000000000000000000000000000000000000000000000000000000000000000000000000000000000000000000000000000000000000000000000000000000000000000000000000000000000000000000000000000000000000000000000000000000000000000000000000000000000000000000000000000000000000000000000000000000000000000000000000000000000000000000000000000000000000000000000000000000000000000000000000000000000000000000000000000000000000000000000000000000000000000000000000000000000000000000000000000000000000000000000
#1013b1:00132300
#101381:0000005300000000
#102321:0000000000000013
#103351:53
#103321:0023000000000000
#103381:0000001300330023
#1033b1:00005353
#103350:0000000000130023
#103320:00000053
#1043b0:00130000
#104390:0023
#104361:0013
#104341:00000023
#1043a0:00000013
#105380:23
#105351:13
#105331:00230000
#105390:00130000
#105370:0023
#105341:0013
#105321:00000023
#106321:13
#106361:0000003300000000
#107321:0023
#1063b0:13000000000000003333330033000000
#1063a0:00330000000000330000000000330000
#106390:00003333330033000000000000003300
#106380:00000000000000000000000000000033
#107380:33003300000000000000003333000000
#107390:00000033000000000000330000000000
#1073a0:00000000330000000033000000000000
#1073b0:00000000003333003300000000000000
#1083b0:23
#108380:00000013
#1083b0:0000000000000053
#109380:23
#112350:1323
#112320:00530000
#113380:0013002300000000
#113321:0000001300230000
#1143b1:00130000
#114381:0023
#1153b1:0013002300000000
#115320:0000001300230000
#116320:1323000000000000
#1163b1:0013230000000000
#116350:0000132300000000
#116381:0000001323000000
#117351:0013002300000000
#1173b0:0000001300230000
#118320:00130000
#118350:0023
#1203b0:1353535353535353535353535353535323000000000000000000000000000000
#1203a0:00530053005300530053005300530053005300530053005300530053005300530000000000000000000000000000000000000000000000000000000000000000
#1243b0:00001323
#004920:0012
#004970:000000000000000000000000000000000052520000520000
#005940:28
#0329b0:00130000
#032970:0023
#032920:00000013
#033960:23
#036920:0016
#036980:00000056
#037920:26
#037920:0014
#037960:00000024
#0379a1:00000014
#038961:24
#0389c1:0012
#038981:00000022
#038920:00000012
#039960:22
#045930:14
#045960:0024000000000000
#062920:0013
#062940:000000000000005300005300
#062930:000053
#062950:00000053
#062960:000000000000000000000053
#063950:23
#063981:13530000
#063971:005300000000000000000000
#063991:000053000053000000000000
#0639a1:005300
#0639b1:0023
#064921:0013
#064941:000000000000005300005300
#064931:000053
#064951:00000053
#064961:000000000000000000000053
#065951:23
#065980:13530000
#065970:005300000000000000000000
#065990:000053000053000000000000
#0659a0:005300
#0659b0:0023
#0959b0:13
#095980:00230000
#095951:00130000
#095921:0023
#0959b0:0013
#095980:00000023
#095951:00000013
#096921:23
#1239b1:0013
#123971:00000053
#1249b1:23
#124920:1323
#124960:00530000
#124960:00000013
#125920:23
#125971:13
#1259b1:00230000
#125960:00130000
#125920:0023
#1259b1:0013
#125971:00000023
#125920:00000013
#126960:23
#1269b1:13
#126971:00230000
#126920:00130000
#126960:0023
#1269b1:00001323
#126971:0000000000530000
#126920:00000013
#126960:0000000000000053
#127920:23
#1279b1:13230000
#127971:0053000000000000
#127920:00132300
#127960:0000005300000000
