This file was generated by Ched 2.7.0.0.
#TITLE ""
#ARTIST ""
#DESIGNER ""
#DIFFICULTY 0
#PLAYLEVEL
#SONGID ""
#WAVE ""
#WAVEOFFSET 0
#JACKET ""
#REQUEST "ticks_per_beat 480"
#00002: 4
#BPM01: 245
#BPM02: 140
#BPM03: 255
#BPM04: 155
#BPM05: 310
#00008: 01
#06708: 0001
#07508: 00000402
#07608: 03
#04108: 0004
#04508: 0005
#TIL00: ""
#VOLUME: ""
#HISPEED 00
#MEASUREHS 00
#04212:1313
#04218:00000013000000000000000013000000
#04215:0000130000000013
#0421b:0000001300000000
#05312:0000000014000014
#05318:00000014
#0531b:13
#05310:0041
#07418:00130000
#0741b:13
#07412:13
#07415:0000001300000000
#08918:14000013
#08915:0000140000000013
#08912:0014
#05915:00130000
#0591b:0013
#05918:13000013
#01012:0013
#01015:00130000
#01018:0000001300000000
#0101b:0000000000130000
#00919:00130000
#00914:00130000
#00918:0013
#00915:0000000000130000
#07715:0013000000000013
#0771b:13130000
#07718:00000013
#07712:0000000000130000
#07710:41
#07615:0013
#07618:26000013
#07612:00130000
#0761f:21
#0781b:1313
#07815:00130013
#07818:0000000000000013
#08018:00130013
#08015:0000000013000013
#0801b:23
#06118:13
#06116:0013
#0611b:0013
#0611f:0011
#01718:0013000000130013
#01715:23130013
#01710:41
#11915:0013
#1191a:00140014
#11912:14
#11916:0014000000000014
#06712:00000013
#06716:14
#0671a:0024
#06818:13
#0681b:0013
#06812:00000013
#06815:00130000
#06918:13
#06915:00130000
#0691b:00000013
#06912:0024
#05418:0014000000000000
#05412:00140000
#0541a:0000000024000024
#05414:00000024
#05818:0013
#05815:13000013
#00112:13
#0011b:13
#00115:0000002300000000
#00118:0000002300000000
#0111b:00130000
#01115:0013
#01118:0000000000130000
#01112:23
#01415:00130000
#01418:0000001300000000
#01412:0013
#0141b:0000000000130000
#0151b:00130000
#01512:0014
#01518:0000000000140000
#0161a:00140000
#01614:0000001400000000
#02912:00140054
#02913:000054005454
#02914:000000000054005400000054
#02915:0054
#0901b:13
#09017:0000001300000000
#10518:14000013
#10515:0000140000000013
#10512:0014
#11512:0013000000000000
#1151b:13
#11515:00000013
#11515:00000013
#11518:0000000000000013
#11518:0000000000000013
#11315:0013000000000000
#11318:13
#1131b:00000013
#1131b:00000013
#11312:0000000000000013
#11312:0000000000000013
#05118:16161616
#05112:0016001600160000
#0501a:00140000
#05016:0014
#05012:26000014
#11818:0013000000001300
#11815:1323
#11812:00130000
#01218:00130000
#01215:0000001300000000
#01318:0013
#01315:0000000000130000
#0131b:13
#01312:00230000
#0181b:00130000
#01812:00000013
#01818:0000000000000013
#0191b:00130000
#01915:0000000013000013
#01918:00000013
#01912:23
#0231b:00130000
#02315:0000000013000013
#02318:00000013
#02312:23
#0211b:0013001300130000
#02115:00131300
#02112:0000000000000013
#02218:1300130000000013
#02212:0013001300000000
#02215:00000013
#0221b:0000000000130000
#02415:0000000000130013
#02418:00000013
#02515:0000000000000013
#02518:00000013
#02516:00140000
#02512:0014
#0251a:24
#02612:00130000
#0261b:00000013
#02615:0000000000000013
#0271b:13
#02712:00130000
#02718:0000000013000013
#02715:00000013
#03018:00000014
#03015:5454
#03014:005400000054000000000000
#03013:005454000000
#03012:00540000
#03114:14
#03117:0000000000000014
#03112:0000001400000000
#0311a:00141400
#04115:00000013
#04118:0000000000000013
#0411b:0023
#04112:0023
#04110:0041
#0431b:1313
#04315:00000013000000000000000013000000
#04318:0000130000000013
#04312:0000001300000000
#04615:0013
#04618:00000013
#0461b:13
#04715:13000023
#04718:00130000
#04712:0023
#04812:0013
#0481b:00230013
#04818:23
#04912:1326
#0491b:00130000
#04918:00000026
#05212:13
#05218:0013
#05215:00000013
#05512:0013
#0551a:00240000
#05514:0024000000000000
#0561b:13
#05614:0000000024000024
#05618:00000024
#05718:0013
#0571a:0024000000000000
#05712:00240000
#06015:13000013
#06012:00130000
#06018:0013
#06316:0013
#0631b:0013
#06417:13
#06412:13
#06616:14
#06612:0024
#07018:00130000
#07015:1300000000000013
#07012:0013
#07316:00000014
#07312:0024
#0731a:0024
#08418:0013
#08415:00000013
#0841b:13
#08412:00260000
#08612:1313
#08618:00130013
#08615:0000000000000013
#0881a:00140000
#08817:0014
#08814:00000014
#10818:0000130000130000
#10812:23
#1081b:23
#10815:0000002300002300
#11115:000013000013
#11118:1323
#11112:002300000000
#1111b:002300000000
#11718:0013000000000000
#11715:13
#11712:00000013
#11712:00000013
#1171b:0000000000000013
#1171b:0000000000000013
#1141b:00130000
#11415:0013000000002300
#11418:1323
#1041a:00140000
#10417:0014
#10414:00000014
#1061b:13
#10617:0000001300000000
#09215:0013
#09218:00000013
#0921a:00240000
#09212:24
#09210:41
#09415:0000000000000013
#09418:00000013
#04412:13001313
#04418:00000013000000000000000000000000
#04415:0000130000000013
#0441b:0000001300000000
#0451b:0013000000000000
#04518:1300000000130000
#04514:00000000000000000000000000000000000000130000001300000013000000130000000000000000000000000000000000000000000000000000000000000000
#04515:0000000000000000231313131313131323000000000000001300000000000000
#04516:00000000000000000000000000000000001300000013000000130000001300000000000000000000000000000000000000000000000000000000000000000000
#10112:0013000000130013
#10118:13130000
#10117:00000013
#10015:0000000000130000
#1001b:00001313
#10012:1400000000000013
#1001a:14
#10014:00240000
#10018:00240000
#1021b:1300130000000013
#10215:0013000000001300
#10218:0000000000130000
#10212:0013
#09116:14
#0911a:0014
#0961b:00130000
#09615:00000013
#09618:0013
#07512:1563
#07519:15
#0751b:0063
#0821b:1313
#08218:00130013
#08118:00000013
#08318:00000013
#08312:0000000000130000
#08315:0000000000000013
#08518:0013000000000013
#08512:13130000
#08515:00000013
#0851b:0000000000130000
#09312:00130000
#09315:13
#09318:0013000000000000
#09712:13
#09718:0013000000000013
#09715:00130013
#1221a:0000000014343434
#1221a:0034
#12216:3434340000000000
#00712:00130000
#00718:00001313
#00715:0000000000130013
#00818:0016000000000000
#00812:00162200
#0081c:0022
#02018:00130000
#02012:0000001300000000
#02815:00130000
#0281b:0000001300000000
#0361b:13
#03618:0000001300000000
#03615:0000000000000013
#03518:00000013
#03515:0000000000000013
#03512:0000002400000000
#03212:0014
#03216:00000014
#0371a:14
#03716:0000002400000000
#03812:14
#03816:0000002400000000
#0711b:0000001300000000
#07115:00000013
#07118:00000013
#08718:0013000000000000
#08715:00130000
#1031b:0000130000130000
#10312:0013000000130000
#00618:0013
#0061b:00000000000000000000003333333333
#0061a:0000000000330000
#00619:00000000000000000033000000000000
#00615:3333333300000000
#00415:0013
#00418:3333333300000000
#00412:000000000000000000000000000000333333333333333333
#00413:000000000000003300000000
#00414:000000000000000000000000003300000000000000000000
#0791b:00130000
#07912:00000013
#0651a:0024
#11018:262626
#11012:002600260026
#11212:00000023
#11218:23
#11210:0041
#11612:0023
#1161b:00000023
#12818:0000000023230000
#12814:0000000000000024
#1281a:24240000
#12816:0024000000000000
#12812:0000002400000000
#13018:26260000
#13012:0026002600000000
#12914:24
#12918:0000252500000000
#12912:0000000000262600
#12412:0024
#1241a:3434343400000000
#1271a:0024
#12716:00000024
#12712:0000000000240024
#12016:0000000024003434
#0051b:0000002300000000
#00512:23
#00513:00000033
#00514:0000000000000033
#0331a:0000002400000000
#03912:00000026
#03918:2400000024000026
#03914:00240000
#00312:0000002300000000
#0031b:23
#00319:0000000000000033
#0031a:00000033
#1091b:0033333300000000
#1231a:3434343434343434
#12116:3434343434343434
#05352:0014
#0535b:63
#06158:13
#06156:0063
#0615b:0063
#0745b:13
#07452:13
#00152:53
#0015b:63
#00155:0000001300000000
#00158:0000001300000000
#0155b:00130000
#01552:13
#01758:0000000000000053
#01755:00630000
#07855:00130000
#07858:0000000000000053
#0905b:63
#09057:0000005300000000
#0185b:00630000
#01858:0013
#02355:0000000000000063
#02555:0000000000000063
#02652:00530000
#02655:0013
#05252:53
#05552:0053
#0565b:63
#05654:0014
#05758:0053
#05855:63
#06356:0063
#0635b:0063
#06457:53
#06452:53
#06456:0013
#0645b:0013
#06955:00630000
#06952:0014
#1145b:00630000
#11455:00000013
#11458:0013
#1065b:63
#10657:0000005300000000
#0465b:63
#04554:00000000000000000000000000000000000000230000002300000023000000230000000000000000000000000000000000000000000000000000000000000000
#04555:0000000000000000535353535353535300000000000000000000000000000000
#04556:00000000000000000000000000000000002300000023000000230000002300000000000000000000000000000000000000000000000000000000000000000000
#10158:00530000
#1025b:00130000
#09156:64
#0915a:0064
#07552:65
#07559:55
#08055:0000000000000063
#0825b:6363
#08258:00530053
#08158:00000053
#08152:0013
#08658:00130000
#09352:00530000
#10052:54
#1005a:64
#10054:00140000
#10058:00140000
#1225a:0064
#01955:0000000000000063
#02052:0000005300000000
#02055:0000000000000013
#02758:0000000000000053
#0285b:0000006300000000
#02858:0000000000000013
#0365b:63
#03658:0000005300000000
#03157:0000000000000054
#0315a:0064
#0375a:64
#03756:0000001400000000
#03852:54
#03856:0000001400000000
#07052:0053
#07055:0000000000000063
#0715b:0000006300000000
#07155:00000063
#07158:00000053
#10352:0000000000530000
#1035b:0000000000630000
#10355:0000000000000013
#10358:0000000000000013
#00658:0053
#00455:0063
#0795b:00630000
#07958:0013
#11852:00530000
#11855:0013
#0135b:13
#01352:00130000
#0415b:0013
#04152:0013
#0545a:0014
#04952:0016
#04958:00000016
#07658:16
#0655a:0014
#11252:00000013
#11258:63
#1125b:0013
#11652:0013
#1165b:00000013
#05052:16
#06652:0014
#0675a:0014
#10852:13
#1085b:13
#10855:00000053
#0925a:00140000
#08452:00160000
#12056:0054
#0055b:0000001300000000
#00552:13
#03552:0000001400000000
#0335a:0000001400000000
#07352:0014
#0735a:0014
#00352:0000001300000000
#0035b:13
#01152:13
#03055:0014
#00952:12
#0095c:12
#06252:0013
#06257:0013
#01652:14
#0165a:00000014
#02452:00130000
#09655:13
#0835b:0013000000000000
#0075b:13
#08758:0000000000000013
#08755:0000000000000013
#001320:13
#001350:0000002300000000
#0013b1:13
#001381:0000002300000000
#0033b1:0000000000130000
#0033a1:00000033
#003391:0000000000000033
#004381:3333333323000000
#004350:0013
#004340:000000000000000000000000003300000000000000000000
#004330:000000000000003300000000
#004320:000000000000000000000000000000333333333333333333
#005320:23
#005320:0000000000130000
#005330:00000033
#005340:0000000000000033
#006350:3333333323000000
#006381:0013
#006391:00000000000000000033000000000000
#0063a1:0000000000330000
#0063b1:00000000000000000000003333333333
#0073b1:23
#008321:0012
#009321:22
#0083c0:0012
#0093c0:22
#009380:0000000000000000000000000000000000000000000000000000000013535353
#009390:00000000000000000000000000000000000000000000000000000000000000000000000000000000000000000000000000000000000000000053005300530053
#010380:5353535323000000000000000000000000000000000000000000000000000000
#010390:00530053005300530000000000000000000000000000000000000000000000000000000000000000000000000000000000000000000000000000000000000000
#010320:00000013
#011320:23
#011350:0000000000000000000000000000000000000000000000000000000013535353
#011340:00000000000000000000000000000000000000000000000000000000000000000000000000000000000000000000000000000000000000000053005300530053
#012350:5353535323000000000000000000000000000000000000000000000000000000
#012340:00530053005300530000000000000000000000000000000000000000000000000000000000000000000000000000000000000000000000000000000000000000
#013380:0000000000000000000000000000000000000000000000000000000013535353
#013390:00000000000000000000000000000000000000000000000000000000000000000000000000000000000000000000000000000000000000000053005300530053
#014380:5353535323000000000000000000000000000000000000000000000000000000
#014390:00530053005300530000000000000000000000000000000000000000000000000000000000000000000000000000000000000000000000000000000000000000
#014320:00000013
#015320:23
#015320:00000014
#016320:24
#0163a0:00001424
#017350:00130000
#017320:0023
#017380:0000000000000013
#0183b0:0033330000000000
#018380:0023
#019350:0000000000000013
#020320:0023000000000000
#020320:0000001300000000
#020350:0000000000003323
#023350:0000000000000013
#024320:0033230000000000
#025350:0000000000000013
#026320:0033330000000000
#026350:0023
#027380:0000000000000013
#0283b0:0023000000000000
#0283b0:0000001300000000
#028380:0000000000003323
#0313a0:0014
#031370:0000000000000034
#0323a0:00240000
#0333a0:1400002400000000
#035320:1400002400000000
#0363b0:1300000000230000
#036380:0000333300000000
#0373a0:14
#037360:0000002400000000
#038320:14
#038360:0000002400000000
#0403b0:00001300330033003300330033000033
#0403a0:00000000003300330033003300000000
#0413b0:00003300003300002300000000000000
#040321:00001300330033003300330033000033
#040331:00000000003300330033003300000000
#041321:00003300003300002300000000000000
#045351:0000000000000000135353535353535323000000000000000000000000000000
#045361:00000000000000000000000000000000005300000053000000530000005300000000000000000000000000000000000000000000000000000000000000000000
#045341:00000000000000000000000000000000000000530000005300000053000000530000000000000000000000000000000000000000000000000000000000000000
#0463b1:13
#046381:00230000
#052321:13
#052351:00230000
#0533b1:13
#053381:00230000
#055321:0013
#055351:00000023
#0563b1:13
#056381:00230000
#057381:0013
#0573b1:00000023
#058351:13
#058321:00230000
#061361:0013
#062321:0023
#0613b0:0013
#062370:0023
#063360:0013
#064320:33
#064360:0023
#0633b1:0013
#064371:33
#0643b1:0023
#069351:00130000
#069321:0024
#070321:0013
#070351:0000000000003333
#071321:00230000
#0713b1:0000001300000000
#071381:0000000000333300
#0723b1:00003333
#0723a1:0000000000330033
#0733b1:33
#073391:00340034003400340000000000000000
#0733a1:0034343424000000
#071350:0000000000133300
#072320:00003333
#072330:0000000000330033
#073320:3334343424000000
#073330:00340034003400340000000000000000
#074390:00000015
#075390:35
#0753b0:0023
#074321:00000015
#075321:3523
#078381:0000000000000013
#0793b1:0033330000000000
#079381:0023
#080351:0000000000000013
#081321:00332300
#081381:00000013
#0823b1:3333
#082381:00330033
#0833b1:0023000000000000
#087381:0000001300000023
#087350:0000000000130023
#0903b0:13
#090370:0000003300000000
#0913b0:23
#091361:14
#091321:00240000
#0913a1:0014
#091361:00000024
#093321:00130000
#093351:00000023
#0943b1:13535353230000000000000000000000
#0943a1:0053005300530053000000000000000000000000000000000000000000000000
#094321:00000000000013535353230000000000
#094331:0000000000000000000000000053005300530053000000000000000000000000
#095381:1323
#095391:003300000033000000000000
#0953a1:003333000000
#0953b1:00330000
#095350:0013
#095340:000000000000003300000033
#095330:000000003333
#095320:00000033
#096350:23
#0973b0:000000000000000000135353535353230000000000000000
#0973a0:000000000000000000000000000000000000005300530053005300530053000000000000000000000000000000000000
#098320:1454545454545454240000000000000000000000000000000000000000000000
#098330:00540054005400540054005400540054000000000000000000000000000000000000000000000000000000000000000000000000000000000000000000000000
#0983a0:0000000000000000000000000000000014545454545454545454545454545454
#098390:00000000000000000000000000000000000000000000000000000000000000000054005400540054005400540054005400540054005400540054005400540054
#0993a0:5454545454545454545454545454545454545454545454545454545454545454
#099390:00540054005400540054005400540054005400540054005400540054005400540054005400540054005400540054005400540054005400540054005400540054
#1003a0:34
#100380:00240000
#098321:0000000000000000000000000000000000000000000000001454545454545454
#098331:00000000000000000000000000000000000000000000000000000000000000000000000000000000000000000000000000540054005400540054005400540054
#099321:5454545454545454545454545454545454545454545454545454545454545454
#099331:00540054005400540054005400540054005400540054005400540054005400540054005400540054005400540054005400540054005400540054005400540054
#100321:34
#100341:00240000
#101381:00130000
#1013b1:0023
#103321:0000001300330000
#103351:0000000000000023
#1033b0:0000000000130000
#103380:0000000000000023
#1063b0:13
#106370:0000003300000000
#1073b0:0023
#107320:00000013
#108320:23
#1073b1:00000013
#1083b1:23
#108351:00000013
#109321:23
#1093b0:1333333300000000
#109380:0023
#112380:13
#1123b0:0023
#113320:0000001300230000
#1143b0:00130000
#114380:0023
#115380:0000001300230000
#116320:1333333323000000
#1173b0:0000001300230000
#118320:00130000
#118350:0023
#120320:1454545454545454545454545454545424000000000000000000000000000000
#120330:00540054005400540054005400540054005400540054005400540054005400540000000000000000000000000000000000000000000000000000000000000000
#120361:0000000014003434
#121361:3434343434343434
#122361:3434340000000000
#1223a1:0000000034343434
#1233a1:3434343434343434
#1243a1:3434343400000000
#124361:0024
#124320:0000000014003434
#124330:00000000000000000000000000340000
#124340:00000000000000000000000000000034
#125330:3400000000000037
#125350:00340000340035003500000000000000
#125340:0034000000363600
#125360:00000034003500350036003600370037
#126330:3700373700000000
#126360:00380038003700370036003600350035
#126320:0038000000000000
#126340:0000000036360000
#126350:0000000000003535
#127350:34000034000000000000000000000000
#127360:00340000000000000000000000000000
#127340:00003400003400000000000000000000
#127330:00000000340000340000000000000000
#127320:0000003424000000
#029920:00140054
#029950:0054
#030950:5424
#030920:00540000
