This file was generated by Ched 2.7.0.0.
#TITLE ""
#ARTIST ""
#DESIGNER ""
#DIFFICULTY 0
#PLAYLEVEL
#SONGID ""
#WAVE ""
#WAVEOFFSET 0
#JACKET ""
#REQUEST "ticks_per_beat 480"
#00002: 4
#BPM01: 155
#BPM02: 154
#BPM03: 153
#BPM04: 152
#BPM05: 151
#BPM06: 224
#BPM07: 184
#BPM08: 204
#BPM09: 219
#BPM0A: 234
#BPM0B: 244
#BPM0C: 254
#00008: 01
#01008: 0203
#01608: 02
#01108: 0405
#01208: 06
#01808: 06
#01708: 00070809
#07108: 0A
#07208: 0B
#07308: 0C
#TIL00: "41'1440:1, 41'720:0.01, 137'960:1, 41'240:0.9, 41'360:0.8, 41'480:0.7, 41'600:0.6, 136'361:10000"
#VOLUME: ""
#HISPEED 00
#MEASUREHS 00
#13216:00001414
#1321a:2414
#13516:00001313
#13517:0013001300130013
#13519:14000000000000000000005300000053
#13513:1400000000000000000000000000000000000053000000000000005300000000
#13514:00000000000000000053000000530000
#13512:0000000000530053
#1351b:00000053
#13515:0000000000000000000000000000000000530000000000000053000000000000
#13518:0000000000000000000000000000000000000000005300000000000000530000
#1351a:0000000000000000000000000000000000000000000000530000000000000053
#00414:00000000005300530000000000001400
#00417:0000000053131300
#00412:26000000530000005300001300000000
#00418:00002600000000000000000000000024
#00416:0000005300000000
#00614:12000000000000000000000000000012
#00618:00120000000000000000000000001200
#00615:00001200000000000000000000120000
#00619:00000012000000000000000012000000
#00616:00000000120000000000001200000000
#0061a:00000000001200000000120000000000
#00617:00000000000012000012000000000000
#0061b:00000000000000122200000000000000
#00716:13000000000000132300000000000013
#00713:00130000000000000000000000001300
#00717:00001300000000000000000000130000
#00714:00000013000000000000000013000000
#00718:00000000130000000000001300000000
#00715:00000000001300000000130000000000
#00719:00000000000013000013000000000000
#00812:14000000000000000000000000000014
#00817:00140000000000000000000000001400
#00813:00001400000000000000000000140000
#00818:00000014000000000000000014000000
#00814:00000000140000000000001400000000
#00819:00000000001400000000140000000000
#00815:00000000000014000014000000000000
#0081a:00000000000000142400000000000000
#0091a:0000141414000000
#00916:14001400001400001400001400140000
#00912:0000000000141414
#0241b:13130053
#02412:00130000001300000000000053000000
#02418:0013001300000000
#02415:00000013000000130000000000000000
#02414:00000000000000000000000000530053
#02416:0000000000000053
#02512:5316001600000000
#02518:16162600
#03412:2400140000001414
#03416:0014
#03418:0000000000140000
#0341a:0000000000001424
#03414:0000001400000000
#0341b:13
#03410:41
#03514:0000001400000000
#03516:0014
#03518:0000000000140000
#03512:0000140000001424
#0351a:0014000000001414
#03617:00000013000000000000000000000000
#03618:0000000000150000
#03616:14000000000000130000000000000000
#03612:0014140000000014
#0361a:0000001414000024
#03613:0000000000150000
#04018:00130000160000002300000026000000
#0401b:0013000000000000
#04015:23000000000000000013000000000000
#04012:0000260000131600
#04219:0000001300130000
#04217:0013
#0421b:00130013
#04212:6c
#04416:00000013000000000000000000000000
#04418:00001600160000000000160000000013
#04417:00000000000000130000000000000000
#04412:0000001616000000
#04415:0000000000000013
#04716:1313131313000013
#0471a:24242424
#04915:00140014000000000000000000000000
#04914:00000000001400140000000000000000
#04917:0000000000142700
#04913:00000000000000000014001400000000
#04919:0014250000000000
#04918:0000001426000000
#04912:00000000000000000000000000140014
#04916:0000000000000014
#0491a:24
#05218:0000000013131313
#05215:00000000000000000013001300130013
#05212:6c
#05318:00140000
#05316:0014
#0531a:14
#05314:00000014
#0581a:14
#05816:0013000000000000
#05817:0000001300000000
#05812:0000001300000013
#0581b:0000000000130000
#05814:00000013
#05810:41
#05712:0000000014000014
#0571a:0014000000141400
#05716:14000000000000000000001400000000
#05718:00140000
#05713:0012121200000000
#05916:0014001400001400
#05914:0000000000000014
#06115:0000001300000000
#06118:00130000
#0611b:0013000000000000
#06112:5414
#06116:0000000000140000
#0611a:00000014
#00113:1200120012121212
#00216:0000001313130000
#0021b:00000000000000130013000000000000
#00218:26000000000000000000000000130013
#00215:0000000000000013
#0021a:00140000
#00212:0026000000000000
#00312:13
#00315:00130000000000000000000013000000
#00318:00001300000000000000000000130000
#0031b:00000013000000000000000000000000
#0051a:00140000000000000000000000000000
#00516:00001400000000140000000000140000
#00518:00000014000000000014000000000000
#00512:0000001400001400
#00514:00241400
#0101a:141400140000140000140000
#01016:000014000014000014000014
#01018:000000000000001400001400
#01019:001400
#01012:24242424
#03015:00130013000000000000000000340000
#03018:2313000000000000
#0301a:00000000000033000014001400000000
#03016:0000000024140000
#03019:00000000003300000000000000000000
#0301b:00000000000000330000000000000000
#03014:0000000000000034
#03013:00000000000000000000000000000034
#03112:00140014000000000014001400000000
#03116:2515000026160000
#03115:00000000001400140000000000000000
#03119:0000251500000000
#03114:00000000000000000000000000140014
#03118:0000000000002616
#0371a:0014000000001400
#03716:1414
#03714:0000001400000000
#03718:0000000000140000
#03712:00140014
#04315:0013000000000000
#04318:0000130000000026
#0431b:13
#04312:1300000000000026
#04614:0014000000000000
#04617:0000001500000000
#04613:0000000000160000
#04616:0000000000000017
#05516:0000001300000000
#05517:1313000000131300
#05512:13000013
#05519:0000000000000013
#05616:1313000000000000
#0561b:13
#05617:0000001300000000
#06615:0000000000130013
#06618:00000000000000000000001300130000
#06617:13000013000000000000000000000000
#0661b:0000001300000000
#06612:24242424
#03218:16
#03212:00281600
#03216:00000028
#10612:00000014
#10616:0000001400140000
#1061a:0014
#10619:25
#10617:00220022
#1061f:21
#11212:0016000016001600
#11218:0000262600260026
#11312:16001616
#11318:0026262600262600
#12814:0014000000000000
#12817:00000014000000000000000000000000
#12818:0000001426002600
#12815:00000000000000140000000000000000
#12812:0000260000160000
#12912:1600160016161616
#12918:2600260026262626
#11416:0014
#11414:00140000
#11412:1400000000000064
#1141a:0024002424240000
#11916:00000000001400000000000000005600
#11915:23000000000000000015000000000000
#11917:00130000000000000000550000000000
#11914:00000000240000000000000000160000
#11913:0025
#11912:00000026
#11919:00005300000000000000005500000000
#1191b:00000053000000000000000000000000
#11918:00000000000054000000000000000056
#1191a:00000000000000540000000000000000
#1111a:00000000000000001400001400001400
#11112:1414
#11117:00220022
#11717:1313000000000000
#11716:0000131300000000
#11712:2414000024002400
#1171a:0000241400240024
#12615:0016001600000000
#12614:0000000000180018
#1261a:2424
#12612:00240024
#12713:001a001a00000000
#12712:00002400001c242c
#1271a:2424
#04518:0000130000000013
#04515:0013000000000000
#0451b:13
#04512:13
#02612:1c535300535353531c00000000000000
#02618:00000000000000000000535353535353
#02815:1313131300001900
#02818:00130013001300130000000000000000
#02812:00000000000000001900005300000000
#02814:00000000000000000053000000000000
#02813:0000000000530000
#02819:00000000000000000000000000530000
#0281a:0000000000000053
#0281b:00000000000000000000000000000053
#04816:0014001400140014
#04812:00140014
#0481a:2424
#01612:15
#01619:15
#01312:2515
#01316:00000015
#0121a:2414
#01216:00000014
#01812:130013001300132c
#0181b:1313
#01816:00140014
#01810:41
#01912:13131313
#0191a:0014545454000000
#01916:00000014
#0191b:0000000000000013
#01919:00000054005400540000000000000000
#02012:13001313
#02016:00001400000000001454545454001400
#02015:00220000
#02019:00220000
#02112:13131313
#0211b:13
#02116:0014000000001414
#0211a:0000145454000000
#02119:00000000005400540000000000000000
#0221b:13131313
#02212:130000001300002c
#02216:00140014
#0231b:13131313
#02315:00001353530000000000000000000000
#02312:0000001300000000
#02316:00000000000000001454540000001400
#02712:1c1c
#02715:00005300535353530000000000000000
#0271b:00000000000000000000005300005300
#03319:0014000000000000
#03318:16
#03312:0016
#03317:00000022
#03818:1313000023000014
#03815:2300001313130000
#03812:00230023
#0381b:00230023
#03918:1414000024000014
#03914:2400001414140000
#0391b:00230023
#03912:00230023
#05416:00130013
#05414:0000001300000013
#05417:0013
#05419:0000000000130000
#0541b:00130013
#05412:2413
#0541a:24
#06012:1454
#06016:14541454
#0601a:00140014
#06219:00000000000000000013001300000000
#06216:0000000000140014
#06217:0013000000000000
#06212:24242424
#0631b:0013130000000000
#06316:00000000000000000000001400001400
#06312:24242424
#06414:00000000001300130000000000000000
#06416:0000001400140000
#06412:1300000000000013
#0641a:24242424
#06512:13
#06516:0000130000001314
#0651a:24242424
#06514:0033003300000000
#06719:0013003300001300
#06717:0000130000000013
#0671b:13
#06712:24242424
#06816:00000014000000000000140000000000
#06812:0000001300000013
#06815:13
#0681a:24242424
#06916:1313
#06912:00130000
#0691a:24242424
#06914:0000003300000000
#07016:001400001400001400140014
#07012:241400141414
#0701a:000000140014000000000000
#07010:41
#07116:001400001400001400140014
#0711a:241400141414
#07112:000000140014000000000000
#0721a:001400000014001400000014
#07216:001414001414
#07218:00140014
#07212:2424
#0781a:00120012
#07818:0016
#07812:22520000
#07814:00002252
#07918:1616
#0791a:00120012
#07916:22520000
#07914:00002252
#08018:16161616
#08012:22
#08118:0000130000130013
#08115:0000001300001300
#0811b:0013
#08112:0013
#08617:0013000000000000
#08612:24140000
#08619:0000001313130000
#08614:00000014
#0861b:0000000000000013
#08615:0024
#0871b:1313000000000000
#08714:00140000
#08719:0000001313130000
#08712:00000014
#08717:2400000000000013
#08715:0024
#08816:0013000000000000
#0881a:24140000
#08814:0000001313130000
#08812:2400000000000013
#08818:00000014
#08817:0024
#08810:41
#08912:1313000000000000
#08918:00140000
#08914:0000001313130000
#0891a:00000014
#08916:0000000000000013
#08915:24
#08917:0024
#09915:0013000000000013
#09918:00131313
#09912:0000000000130000
#1001b:13
#10015:0013000000000000
#10018:00130000
#10012:0000001300000000
#10016:00000074
#10719:15
#1071a:0014
#10716:0000001400140000
#10712:00000014
#10717:00220022
#10710:41
#1081a:00000014
#10816:0000001400140000
#10812:1514
#10817:00220022
#10916:0014000054000000
#10912:0000541400000000
#10914:00000054000000540000000000001300
#1091b:0013
#10919:0000000000130000
#10917:00220022
#11012:1314
#1101a:0000140000000014
#11016:0014000000000000
#11017:00220022
#11512:1400000000000064
#11514:00140000
#11516:0014
#1151a:2424002424240000
#11614:00140000
#11616:0014
#11612:1400000000000064
#1161a:2424242424240000
#12012:1616
#12016:00160016
#12019:0022
#12112:1616
#12116:00160000
#12119:2222
#12215:26161616
#1221b:0000130000130013
#1231b:13
#12315:26161616
#12312:0000130000130013
#12412:130000002424
#12415:26161616
#1241b:00130000
#1241a:000000000000002400000024
#12515:00000016
#12512:26262600
#12518:0026002600000000
#13018:0014260000160000
#13015:00000014000000000000000000000000
#13014:0000001400000000
#13017:00000000000000140000000000000000
#13012:00002626
#13112:00000000240000006414000000000000
#13117:0000000000140000
#13113:00000000000000000000001400000000
#13114:00000000006400640000000000140000
#13119:0000000000000014
#13115:00000000000000000000000000000014
#1311a:24640000
#13116:0064006424000000
#13118:00640064000000000000000024000000
#13312:2414
#13316:00001414
#13419:14141414
#13413:0014
#01114:001400000000000000000000
#01116:000014000014001414001414
#01112:14141414
#01115:001400
#0111a:24242424
#07312:18
#07314:00525252525252525200520052000000
#0821b:13
#11816:0014001400000000
#11812:26002614
#1181a:00000014
#11818:00260000
#07418:16
#07412:24540000
#07414:00002454
#07618:16
#07612:23530000
#07614:00002353
#0751b:13
#07516:24540000
#07514:00002454
#0771b:13
#07716:23530000
#07714:00002353
#10212:1918
#1021a:0054
#1021b:53
#10312:1716
#10319:55
#10318:0056
#10412:15141312
#10417:57
#10416:00580000
#10415:0059
#10414:0000005a
#02915:13
#02918:00130000
#0901f:11
#0901a:54
#09018:0000005600000000
#09016:00000058
#13616:24
#13612:0000000000000000000000000000000000000000000000000000000000000000000000000000000000000000000000000000000000000000000000000000000000000000000000000000000000000000000000000000000000000000000000000000000000000000000000000000000000000000000000000000000000000000000000000000000000000000000000000000000000000000000000000000000000000000000000000000000000000000000000000000000000000000000000000000000000000000000000000000000000000000000000000000000000000000000000000000000000000000000000000000000000000000000000000000000000000000000000000000000000000000000000000000000000000000000000000000000000000000000000000000000000000000000000000000000000000000000000000000000000000000000000000000000000000000000000000000000000000000000000002c8c00000000000000000000000000000000000000000000000000000000000000000000000000000000000000000000000000000000000000000000000000000000000000000000000000000000000000000000000000000000000000000000000000000000000000000000000000000000000000000000000000000000000000000000000000000000000000000000000000000000000000000000000000000000000000000000000000000000000000000000000000000000000000000000000000000000000000000000000000000000000000000000000000000000000000000000000000000000000000000000000000000000000000000000000000000000000000000000000000000000000000000000000000000000000000000000000000000000000000000000000000000000000000000000000000000000000000000000000000000000000000000000000000000000000000000000000000000000000000000000000000000000000000000000000000000000000000000000000000000000000000000000000000000000000000000000000000000000000000000000000000000000000000000000000000000000000000000000000000000000000000000000000000000000000000000000000000000000000000000000000000000000000000000000000000000000000000000000000000000000000000000000000000000000000000000000000000000000000000000000000000000000000000000000000000000000000000000000000000000000000000000000000000000000000000000000000000000000000000000000000000000000000000000000000000000000000000000000000000000000000000000000000000000000000000000000000000000000000000000000000000000000000000000000000000000000000000000000000000000000000000000000000000000000000000000000000000000000000000000000000000000000000000000000000000000000000000000000000000000000000000000000000000000000000000000000000000000000000000000000000000000000000000000000000000000000000000000000000000000000000000000000000000000000000000000000000000000000000000000000000000000000000000000000000000000000000000000000000000000000000000000000000000000000000000000000000000000000000000000000000000000000000000000000000000000000000000000000000000000000000000000000000000000000000000000000000000000000000000000000000000000000000000000000000000000000000000000000000000000000000000000000000000000000000000000000000000000000000000000000000000000000000000000000000000000000000000000000000000000000000000000000000000000000000000000000000000000000000000000000000000000000000000000000000000000000000000000000000000000000000000000000000000000000000000000000000000000000000000000000000000000000000000000000000000000000000000000000000000000000000000000000000000000000000000000000000000000000000000000000000000000000000000000000000000000000000000000000000000000000000000000000000000000000000000000000000000000000000000000000000000000000000000000000000000000000000000000000000000000000000000000000000000000000000000000000000000000000000000000000000000000000000000000000000000000000000000000000000000000000000000000000000000000000000000000000000000000000000000000000000000000000000000000000000000000000000000000000000000000000000000000000000000000000000000000000000000000000000000000000000000000000000000000000000000000000000000000000000000000000000000000000000000000000000000000000000000000000000000000000000000000000000000000000000000000000000000000000000000000000000000000000000000000000000000000000000000000000000000000000
#1361b:53
#04112:2c
#01515:0029
#01516:28
#05012:2c
#10517:0022
#10512:53535352525251515100000000000000
#01417:0027
#01418:26
#09114:005a000000000000
#09112:000000005c5c5c5c
#09212:0000540000560000
#09312:5800005a005c5c5c
#09412:5c5c5c005c005c00
#09512:5c0000005c0000005c0000005c00005c00005c00005c0000
#09613:006700000000000000000067
#09616:006766656667
#09614:00660066
#09615:000000000065006500000000
#09612:6c
#09712:6c00000067670000
#09717:00640065006600670067006600650064
#09715:0064000000000000
#09714:0000650000000065
#09713:0000006600006600
#09815:66
#09816:00000074
#10116:00006400640064000000646400000000
#00258:46
#00252:0036000000000000
#00256:0000000000130000
#00452:36
#00458:00004600000000000000000000000044
#00457:00000013
#0095a:0000001454000000
#00952:0000000000000014
#00956:5464000000000000
#00358:00000000000000000000000000130000
#02552:0036003600000000
#02558:46464600
#0345b:53
#03452:1400000000000064
#03656:24
#03658:0000000000450000
#03653:0000000000350000
#03652:0000000000000064
#0355a:0000000000000054
#03756:24
#0375a:00000014
#03752:00000014
#04052:00160000
#04058:00000016
#0575a:0024000000000000
#05756:6414
#05758:00640000
#05752:0014
#04458:0000000000460000
#05556:0000006300000000
#05557:0063000000000000
#0555b:0000001300000000
#05656:0063000000000000
#05652:0000001300000000
#05856:0063000000000000
#05857:0000006300000000
#0585b:0000000000230000
#05852:0000002300000000
#07354:00000012
#03258:56
#03252:00185600
#03256:00000018
#12752:000034000000344c
#1275a:4444
#10659:15
#11358:00000016
#11352:00000016
#11852:36003634
#11858:00460000
#1185a:00000044
#12255:16161616
#12552:36363600
#12558:0046004600000000
#01555:0049
#01556:48
#04852:00340034
#0485a:4444
#1115a:0000140000000014
#11152:54
#1325a:0064
#13256:00000024
#00554:00340000
#00558:00000000000000000054000000000000
#00556:00000000000000000000000000540000
#01457:0047
#01458:46
#01758:00000000000000000000001200000000
#01756:00120000
#01652:55
#01659:55
#0125a:1454
#01256:00000024
#01252:0014
#01352:1555
#01356:00000025
#0135a:0014
#0195a:0014
#0215a:0014
#04252:00000013
#0425b:00000013
#04352:0000000000130000
#0435b:0000000000130000
#04552:0000000000130000
#0455b:0000000000130000
#04752:00000000000000000000001300000000
#04756:0053
#05452:14
#0595b:0013
#06152:1414
#06156:1400000000140000
#0615a:00000014
#0635b:00530000
#06357:0013
#06552:5313
#06556:00530000
#06452:53
#06257:0063000000000000
#0675b:0013
#06757:00530000
#06956:6363
#06952:00630013
#0695a:14141414
#06652:14
#0665b:0000005300000000
#0685a:1414
#07858:1616
#07958:1616
#08058:16161616
#08152:12
#08654:00000034
#08652:00340000
#08754:00340000
#08752:00000034
#0885a:00440000
#08858:00000044
#08958:00440000
#0895a:00000044
#1075a:0044
#10752:00000034
#1105a:0000640000000064
#11052:0054
#12052:5656
#12056:00260026
#12152:5656
#12156:00260000
#12355:36161616
#12455:46161616
#12652:00340034
#1265a:4444
#12852:0000000000160000
#12952:0000000000000016
#12958:0000000000000016
#13058:0000000000160000
#13352:0054
#13356:00000024
#06052:5454
#06056:54545454
#0605a:00540054
#0825b:13
#13652:000000000000000000000000000000000000000000000000000000000000000000000000000000000000000000000000000000000000000000000000000000000000000000000000000000000000000000000000000000000000000000000000000000000000000000000000000000000000000000000000000000000000000000000000000000000000000000000000000000000000000000000000000000000000000000000000000000000000000000000000000000000000000000000000000000000000000000000000000000000000000000000000000000000000000000000000000000000000000000000000000000000000000000000000000000000000000000000000000000000000000000000000000000000000000000000000000000000000000000000000000000000000000000000000000000000000000000000000000000000000000000000000000000000000000000000000000000000000000000000000005c00000000000000000000000000000000000000000000000000000000000000000000000000000000000000000000000000000000000000000000000000000000000000000000000000000000000000000000000000000000000000000000000000000000000000000000000000000000000000000000000000000000000000000000000000000000000000000000000000000000000000000000000000000000000000000000000000000000000000000000000000000000000000000000000000000000000000000000000000000000000000000000000000000000000000000000000000000000000000000000000000000000000000000000000000000000000000000000000000000000000000000000000000000000000000000000000000000000000000000000000000000000000000000000000000000000000000000000000000000000000000000000000000000000000000000000000000000000000000000000000000000000000000000000000000000000000000000000000000000000000000000000000000000000000000000000000000000000000000000000000000000000000000000000000000000000000000000000000000000000000000000000000000000000000000000000000000000000000000000000000000000000000000000000000000000000000000000000000000000000000000000000000000000000000000000000000000000000000000000000000000000000000000000000000000000000000000000000000000000000000000000000000000000000000000000000000000000000000000000000000000000000000000000000000000000000000000000000000000000000000000000000000000000000000000000000000000000000000000000000000000000000000000000000000000000000000000000000000000000000000000000000000000000000000000000000000000000000000000000000000000000000000000000000000000000000000000000000000000000000000000000000000000000000000000000000000000000000000000000000000000000000000000000000000000000000000000000000000000000000000000000000000000000000000000000000000000000000000000000000000000000000000000000000000000000000000000000000000000000000000000000000000000000000000000000000000000000000000000000000000000000000000000000000000000000000000000000000000000000000000000000000000000000000000000000000000000000000000000000000000000000000000000000000000000000000000000000000000000000000000000000000000000000000000000000000000000000000000000000000000000000000000000000000000000000000000000000000000000000000000000000000000000000000000000000000000000000000000000000000000000000000000000000000000000000000000000000000000000000000000000000000000000000000000000000000000000000000000000000000000000000000000000000000000000000000000000000000000000000000000000000000000000000000000000000000000000000000000000000000000000000000000000000000000000000000000000000000000000000000000000000000000000000000000000000000000000000000000000000000000000000000000000000000000000000000000000000000000000000000000000000000000000000000000000000000000000000000000000000000000000000000000000000000000000000000000000000000000000000000000000000000000000000000000000000000000000000000000000000000000000000000000000000000000000000000000000000000000000000000000000000000000000000000000000000000000000000000000000000000000000000000000000000000000000000000000000000000000000000000000000000000000000000000000000000000000000000000000000000000000000000000000000000000000000000000000000000000000000000000000000000000000000000000000000000000000000000000000000000000
#09552:1c0000001c0000001c0000001c00001c00001c00001c0000
#09452:1c1c1c001c001c00
#09352:1800001a001c1c1c
#09252:0000140000160000
#09152:000000001c1c1c1c
#09154:001a000000000000
#09056:00000018
#09058:0000001600000000
#0905a:14
#07458:56
#07658:56
#0755b:23
#0775b:23
#1025a:0044
#10252:2928
#1025b:43
#10359:45
#10358:0046
#10352:2726
#10457:47
#10452:25242322
#10456:00480000
#10455:0049
#10454:0000004a
#09855:16
#02955:13
#02958:00130000
#03352:00160000
#03358:0016
#003350:0000132300000000
#003381:0000001323000000
#003320:0000000013230000
#0033b1:0000000000132300
#004371:00132300
#004391:00000000003300330000000000000000
#0043b1:0000003300000000
#005381:00000000000000000014000000000000
#005361:00000024
#005361:00000000000000000000000000140000
#0063a1:24
#009361:14
#0093a1:0024000000000000
#009360:0014000000000000
#009320:00240000
#0093a0:0014
#009360:0000000000240000
#012320:1424
#0123a1:0014
#012361:00000054
#0133a1:3424
#013320:0015
#013360:00000055
#014320:350000000000000000000000000000000000000000000000000000000000000000000000000000000000000000000000000000000000000000000000000000000000000000000000000000000000000000000000000000000000000000000000000000000000000000000000000000000000000000000000000000000000000000000000000000000000000000000000000000000000000000000000000000000000000000000000000000000000000000000000000000000000000000000000000000000000000000000000000000000000000000000000000000000000000000000000000000000000000000000000000000000000000000000000000000000000000000000000000000000000000000000000000000000000000000000000000000000000000000000000000000000000000000000000000000000000000000000000000000000000000000000000000000000000000000000000000000000000000000000000000000000000000000000000000000000000000000000000000000000000000000000000000000000000000000000000000000000000000000000000555400000000000000000000000000000000000000000000000000000000000000000000000000000000000000000000000000000000000000000000000000000000000000000000000000000000000000000000000000000000000000000000000000000000000000000000000000000000000000000054550000000000000000000000000000000000000000000000000000000000000000000000000000000000000000000000000000000000000000000000000000000000000000000000000000000000000000000000000000000000000000000000000000000000000000000000000000000000000000000000000000000000000000000000000000000000000000000000000000000000000000000000000000000000000000000000000000000000000000000000000000000000000000000000000000000000000000000000000000000000000000000000000000000000000000000000000000000000000000000000000000000000000000000000000000000000000000000000000000000000000000000000000000000000000000000000000000000000000000000000000000000000000000000000000000000000000000000000000000000000000000000000000000000000000000000000000000000000000000000000555300000000000000000000000000000000000000000000000000000000000000000000000000000000000000000000000000000000000000000000
#015320:000000000000000000000000000000000000000000000000000000000000000000000000000000000000000000000000000000000000000000000053550000000000000000000000000000000000000000000000000000000000000000000000000000000000000000000000000000000000000000000000000000000000000000000000000000000000000000000000000000000000000000000000000000000000000000000000000000000000000000000000000000000000000000000000000000000000000000000000000000000000000000000000000000000000000000000000000000000000000000000000000000000000000000000000000000000000000000000000000000000000000000000000000000000000000000000000000000000000000000000000000000000000000000000000000000000000000000000000000000000000000000000000000000000000000000000000000000000000000000000000000000000000000000000000000000000000000000000000000000000000000000000000000000000000000000000000000000000000000000000000550052000000000000000000000000000000000000000000000000000000000000000000000000000000000000000000000000000000000000000000000000000000000000000000000000000000000000000000000000000000000000000000000000000000000000000000000000000000000000005200550000000000000000000000000000000000000000000000000000000000000000000000000000000000000000000000000000000000000000000000000000000000000000000000000000000000000000000000000000000000000000000000000000000000000000000000000000000000000000000000000000000000000000000000000000000000000000000000000000000000000000000000000000000000000000000000000000000000000000000000000000000000000000000000000000000000000000000000000000000000000000000000000000000000000000000000000000000000000000000000000000000000000000000000000000000000000000000000000000000000000000000000000000000000000000000000000000000000000000000000000000000000000000000000000000000000000000000000000000000000000000000000000000000000000000000000000000000000000000000000000000000000000000000000000000000000000000000000000000000000000000000000000000000000000000000000000000000000000000000000
#016320:35
#016360:00000052
#017360:00220000
#016391:15
#016381:00000052
#017381:00000000000000000000002200000000
#0243b1:00001323
#024391:00000000000000000033003300000000
#024371:0000000000330000
#030381:00130000
#030391:00000000003300000000000000000000
#0303a1:0000003300000000
#0303b1:00000000000000332300000000000000
#030361:00000014
#030351:00000000000000000000000000340000
#030341:0000000000000034
#030331:00000000000000000000000000000034
#031321:24
#032381:16
#032321:00280000
#032321:0016
#032361:00000028
#033341:12
#033321:00260000
#0333a0:00120000
#033380:0026
#0343b0:13
#034370:00230000
#034320:0000000000000014
#035360:0024000000000000
#0353a0:0000000000000014
#036360:54
#0363a0:0024000000000000
#036320:0000000000000014
#037360:54
#037320:0024000000000000
#041320:1c00003c3c003c00000000003c000000
#042320:2c
#042320:00130023
#043350:0000001300000000
#043320:00000000000000530000230000000000
#043381:0000001300000000
#0433b1:00000000000000530000230000000000
#043321:0000000000000016
#044321:0026000000000000
#045351:0000001300000000
#045321:00000000000000530000230000000000
#045380:0000001300000000
#0453b0:00000000000000530000230000000000
#046380:1323000000000000
#046340:0000132300000000
#046390:0000000013230000
#046330:0000000000001323
#047360:0013
#047320:00000000000000000000002300000000
#050320:1c000000000000000000000000000000000000000000000000000000000000000000000000000000000000000000005c5b0000005a5c00000000000000000000000000000000000000000000000000000000000000000000000000000000005c
#050340:000000000000000000000000000000000000000000000000000000000000000000000000000000000000000000000000005a00000000000000000000000000000000000000000000000000000000000000000000000000000000000000000000
#051350:580000000000000057000000590000005700000000000000000000000000000000000000000057000000000000000000000000000000000000000000000000000000000000000000000000000000000000000000000000000000000000000000000000000000000000000000000000000000000000000000000000000000000000000000000000000000000000000000000000590000000000000000000000000000000000000000000000000000000000000000000000000000000000000000
#051320:005c0000005c005c005c005c00005c005c595c005c0000000000000000000000000000000000000000000000000000000000000000000000000000000000000000000000005c00005b00005c0000000000000000000000000000000000000000
#051330:0000000058000000000000000000000000000000000000000000000000000000000000000000000000000000000000000000000000000000000000000000000000000000000000000000000000000000000000000000000000000000000000000000000000000000000000000000000000000000000000000000000000000000000000000000000000000000005b0000000000000000000000000000000000000000000000000000000000000000000000000000000000000000000000000000
#051340:0000005a0000000000005800000000560000000000000000000000000000000000000000000000000000000000000000000000000000000000000000000000000000000000000000000000000000000000000000000000000000000000000000
#052320:2c
#055370:0013000000000000
#0553b0:0000002300000000
#055361:0000001300000000
#055321:0000000000230000
#056361:0013000000000000
#056321:0000002300000000
#0563a1:00000000000000001424000000000000
#056350:00000000000000000014240000000000
#056391:00000000000000000000142400000000
#056340:00000000000000000000001424000000
#056381:00000000000000000000000014240000
#056330:00000000000000000000000000142400
#056371:00000000000000000000000000001424
#056320:00000000000000000000000000000014
#057320:24
#057361:1400003424000000
#0573a1:0034000000000000
#057381:00340000
#058361:0013000000230000
#058321:0000005300000000
#058370:0000001300000023
#0583b0:0000000000530000
#059320:13230000
#0593b1:00132300
#059320:00001323
#060360:1400005434000054
#0603a0:0054340000543400
#061360:24
#062370:0013000000000000
#0623b0:0000002300000000
#0633b0:00130000
#063370:0023
#064320:13
#064360:00230000
#065320:1323
#065340:0033003300000000
#065360:00330000
#0663b0:0000001300000000
#066380:0000000000230000
#067370:00130000
#067390:0000003300000000
#0673b0:0023
#069360:1333
#069320:00330023
#069340:0000003300000000
#074320:14240000
#074381:16
#0753b1:53
#076381:56
#0773b1:53
#078381:26
#074340:00001424
#075360:14240000
#075340:00001424
#076320:13230000
#076340:00001323
#077360:13230000
#077340:00001323
#078320:12220000
#078340:00001222
#079360:12220000
#079340:00001222
#080320:12
#081320:22
#082320:13230000
#082371:00132300
#082340:00001323
#082391:00000013
#083391:23
#083360:13230000
#0833b1:00132300
#083360:0000000013230000
#083391:0000000000132300
#083340:0000000000001323
#083371:0000000000000013
#084371:23
#084320:13230000
#084371:00132300
#084340:00001323
#084391:00000013
#085391:23
#085360:13230000
#0853b1:00132300
#085360:0000000013230000
#085391:0000000000132300
#085340:0000000000001323
#085371:0000000000000013
#086371:23
#098361:00001424
#100361:00001424
#102321:19000000000000000000000000000000000000000000000000000000000000000000000000000000000000000000000000000000000000000000000000000000000000000000000000000000000000000000000000000000000000000000000000000000000000000000000000000000000000000000000000000000000000000000000000000000000000000000000000000000000000000000000000000000000000000000000000000000000000000000000000000000000000000000000000000000000000000000000000000000000000000000000000000000000000000000000000000000000000000000000000000000000000000000000000000000000000000000000000000000000000000000000000000000000000000000000000000000000000000000000000000000000000000000000000000000000000000000000000000000000000000000000000000000000000000000000000000000000000000000000000000000000000000000000000000000000000000000000000000000000000000000000000000000000000000000000000000000000000000000000000000000000000000000000000000000000000000000000000000000000000000000000000000000000000000000000000000000000000000000000000000000000000000000000000000000000000000000000000000000000000000000000000000000000000000000000000000000000000000000000000000000000000000000000000000000000000000000000000000000000000000000000000000000000000000000000000000000000000000000000000000000000000000000000000000000000000000000000000000000000000000000000000000000000000000000000000000000000000000000000000000000000000000000000000000000000000000000000000000000000000000000000000000000000000000000000000000000000000000000000000000000000000000000000000000000000000000000000000000000000000000000000000000000000000000000000000000000000000000000000000000000000000000000000000000000000000000000000000000000000000000000000000000000000000000000000000000000000000000000000000000000000000000000000000000000000000000000000000000000000000000000000000000000000000000000000000000000000000000000000000000000000000000000000000000000000000000000000000000000000000000000000000000000000000000000000000000000000000000000005b58000000000000000000000000000000000000000000000000000000000000000000000000000000000000000000000000000000000000000000000000000000000000000000000000000000000000000000000000000000000000000000000000000000000000000000000000000000000000000000000000000000000000000000000000000000000000000000000000000000000000000000000000000000000000000000000000000000000000000000000000000000000000000000000000000000000000000000000000000000000000000000000000000000000000000000000000000000000000000000000000000000000000000000000000000000000000000000000000000000000000000000000000000000000000000000000000000000000000000000000000000000000000000000000000000000000000000000000000000000000000000000000000000000000000000000000000000000000000000000000000000000000000000000000000000000000000000000000000000000000000000000000000000000000000000000000000000000000000000000000000000000000000000000000000000000000000000000000000000000000000000000000000000000000000000000000000000000000000000000000000000000000000000000000000000000000000000000000000000000000000000000000000000000000000000000000000000000000000000000000000000000000000000000000000000000000000000000000000000000000000000000000000000000000000000000000000000000000000000000000000000000000000000000000000000000000000000000000000000000000000000000000000000000000000000000000000000000000000000000000000000000000000000000000000000000000000000000000000000000000000000000000000000000000000000000000000000000000000000000000000000000000000000000000000000000000000000000000000000000000000000000000000000000000000000000000000000000000000000000000000000000000000000000000000000000000000000000000000000000000000000000000000000000000000000000000000000000000000000000000000000000000000000000000000000000000000000000000000000000000000000000000000000000000000000000000000000000000000000000000000000000000000000000000000000000000000000000000000000000000000000000000000000000000000000000000000000000000000000000005a
#103321:570000000000000000000000000000000000000000000000000000000000000000000000000000000000000000000000000000000000000000000000000000000000000000000000000000000000000000000000000000000000000000000000000000000000000000000000000000000000000000000000000000000000000000000000000000000000000000000000000000000000000000000000000000000000000000000000000000000000000000000000000000000000000000000000000000000000000000000000000000000000000000000000000000000000000000000000000000000000000000000000000000000000000000000000000000000000000000000000000000000000000000000000000000000000000000000000000000000000000000000000000000000000000000000000000000000000000000000000000000000000000000000000000000000000000000000000000000000000000000000000000000000000000000000000000000000000000000000000000000000000000000000000000000000000000000000000000000000000000000000000000000000000000000000000000000000000000000000000000000000000000000000000000000000000000000000000000000000000000000000000000000000000000000000000000000000000000000000000000000000000000000000000000000000000000000000000000000000000000000000000000000000000000000000000000000000000000000000000000000000000000000000000000000000000000000000000000000000000000000000000000000000000000000000000000000000000000000000000000000000000000000000000000000000000000000000000000000000000000000000000000000000000000000000000000000000000000000000000000000000000000000000000000000000000000000000000000000000000000000000000000000000000000000000000000000000000000000000000000000000000000000000000000000000000000000000000000000000000000000000000000000000000000000000000000000000000000000000000000000000000000000000000000000000000000000000000000000000000000000000000000000000000000000000000000000000000000000000000000000000000000000000000000000000000000000000000000000000000000000000000000000000000000000000000000000000000000000000000000000000000000000000000000000000000000000000000000000000000000000000059560000000000000000000000000000000000000000000000000000000000000000000000000000000000000000000000000000000000000000000000000000000000000000000000000000000000000000000000000000000000000000000000000000000000000000000000000000000000000000000000000000000000000000000000000000000000000000000000000000000000000000000000000000000000000000000000000000000000000000000000000000000000000000000000000000000000000000000000000000000000000000000000000000000000000000000000000000000000000000000000000000000000000000000000000000000000000000000000000000000000000000000000000000000000000000000000000000000000000000000000000000000000000000000000000000000000000000000000000000000000000000000000000000000000000000000000000000000000000000000000000000000000000000000000000000000000000000000000000000000000000000000000000000000000000000000000000000000000000000000000000000000000000000000000000000000000000000000000000000000000000000000000000000000000000000000000000000000000000000000000000000000000000000000000000000000000000000000000000000000000000000000000000000000000000000000000000000000000000000000000000000000000000000000000000000000000000000000000000000000000000000000000000000000000000000000000000000000000000000000000000000000000000000000000000000000000000000000000000000000000000000000000000000000000000000000000000000000000000000000000000000000000000000000000000000000000000000000000000000000000000000000000000000000000000000000000000000000000000000000000000000000000000000000000000000000000000000000000000000000000000000000000000000000000000000000000000000000000000000000000000000000000000000000000000000000000000000000000000000000000000000000000000000000000000000000000000000000000000000000000000000000000000000000000000000000000000000000000000000000000000000000000000000000000000000000000000000000000000000000000000000000000000000000000000000000000000000000000000000000000000000000000000000000000000000000000000000000000000000000058
#104321:550000000000000000000000000000000000000000000000000000000000000000000000000000000000000000000000000000000000000000000000000000000000000000000000000000000000000000000000000000000000000000000000000000000000000000000000000000000000000000000000000000000000000000000000000000000000000000000000000000000000000000000000000000000000000000000000000000000000000000000000000000000000000000000000000000000000000000000000000000000000000000000000000000000000000000000000000000000000000000000000000000000000000000000000000000000000000000000000000000000000000000000000000000000000000000000000000000000000000000000000000000000000000000000000000000000000000000000000000000000000000000000000000000000000000000000000000000000000000000000000000000000000000000000000000000000000000000000000000000000000000000000000000000000000000000000000000000000000000000000000000000000000000000000000000000000000000000000000000000000000000000000000000000000000000000000000000000000000000000000056540000000000000000000000000000000000000000000000000000000000000000000000000000000000000000000000000000000000000000000000000000000000000000000000000000000000000000000000000000000000000000000000000000000000000000000000000000000000000000000000000000000000000000000000000000000000000000000000000000000000000000000000000000000000000000000000000000000000000000000000000000000000000000000000000000000000000000000000000000000000000000000000000000000000000000000000000000000000000000000000000000000000000000000000000000000000000000000000000000000000000000000000000000000000000000000000000000000000000000000000000000000000000000000000000000000000000000000000000000000000000000000000000000000000000000000000000000000000000000000000000000000000000000000000000000000000000000000000000000000000000000000000000000000000000000000000000000000000000000000000000000000000000000000000000000000000000000000000000000000000000000000000000000000000000000000000000000000000000000000055530000000000000000000000000000000000000000000000000000000000000000000000000000000000000000000000000000000000000000000000000000000000000000000000000000000000000000000000000000000000000000000000000000000000000000000000000000000000000000000000000000000000000000000000000000000000000000000000000000000000000000000000000000000000000000000000000000000000000000000000000000000000000000000000000000000000000000000000000000000000000000000000000000000000000000000000000000000000000000000000000000000000000000000000000000000000000000000000000000000000000000000000000000000000000000000000000000000000000000000000000000000000000000000000000000000000000000000000000000000000000000000000000000000000000000000000000000000000000000000000000000000000000000000000000000000000000000000000000000000000000000000000000000000000000000000000000000000000000000000000000000000000000000000000000000000000000000000000000000000000000000000000000000000000000000000000000000000000000000000054520000000000000000000000000000000000000000000000000000000000000000000000000000000000000000000000000000000000000000000000000000000000000000000000000000000000000000000000000000000000000000000000000000000000000000000000000000000000000000000000000000000000000000000000000000000000000000000000000000000000000000000000000000000000000000000000000000000000000000000000000000000000000000000000000000000000000000000000000000000000000000000000000000000000000000000000000000000000000000000000000000000000000000000000000000000000000000000000000000000000000000000000000000000000000000000000000000000000000000000000000000000000000000000000000000000000000000000000000000000000000000000000000000000000000000000000000000000000000000000000000000000000000000000000000000000000000000000000000000000000000000000000000000000000000000000000000000000000000000000000000000000000000000000000000000000000000000000000000000000000000000000000000000000000000000000000000000000000000000000000
#105321:23
#106321:14240000
#106321:0000000000000014
#107321:00240000
#1083a1:14240000
#1083a1:0000000000000014
#1093a1:0024000000000000
#1103a1:00140000
#110361:0024
#110320:0014
#110360:0000000000240000
#1103a1:0000000000142400
#1103a1:0000000000000014
#111361:24
#111320:14
#111360:0024000000000000
#1113a1:0014240000000000
#114361:0000000000140000
#114321:0000000000000024
#115361:0000000000140000
#115321:0000000000000024
#116361:0000000000140000
#116321:0000000000000024
#120321:1656
#120361:00560056
#121321:5656
#121361:00560000
#122351:26
#1323a1:1454
#132361:00000054
#1333a1:24
#133320:1454
#133360:00000054
#134320:24
#004920:00132300
#004960:0000005300000000
#0199a0:0014545424000000
#019990:00000054005400540000000000000000
#020960:00001424
#0219a0:0000145424000000
#021990:00000000005400540000000000000000
#023950:0013230000000000
#023960:0000000014240000
#024920:00000013
#024960:0000000000000053
#025920:23
#026920:13000000000000230000000000000000
#026980:00000000000000001300000000000023
#027950:13000000000000230000000000000000
#0279b0:0000000013000023
#028950:0013
#028920:00000000000000000000002300000000
#028980:00000013
#0289b0:00000000000000000000000000000023
#060920:140000000000000000000000000000000000000000000000000000000000000000000000000000000000000000000000000000000000000000000000000000000000000000000000000000000000000000000000000000000000000000000000000000000000000000000000000000000000000000000000000000000000000000000000000000000000000000000000000000000000000000000000000000000000000000000000000000000000000000000000000000000000000000000000000000000000000000000000000000000000000000000000000000000000000000000000000000000000000000000000000000000000000000000000000000000000000000000000000000000000000000000000000000000000000000000000000000000000000000000000000000000000000000000000000000000000000000000000000000000000000000000000000000000000000000000000000000000000000000000000540000000000000000000000000000000000000000000000000000000000000000000000000000000000000000000000000000000000000000000000000000000000000000000000000000000000000000000000000000000000000000000000000000000000000000000000000000000000000000000000540000000000000000000000000000000000000000000000000000000000000000000000000000000000000000000000000000000000000000000000000000000000000000000000000000000000000000000000000000000000000000000000000000000000000000000000000000000000000000000000000000000000000000000000000000000000000000000000000000000000000000000000000000000000000000000000000000000000000000000000000000000000000000000000000000000000000000000000000000000000000000000000000000000000000000000000000000000000000000000000000000000000000000000000000000000000000000000000000000000000000000000000000000000000000000000000000000000000000000000000000000000000000000000000000000000000000000000000000000000000000000000000000000000000000000000000000000000000000000000000540000000000000000000000000000000000000000000000000000000000000000000000000000000000000000000000000000000000000000000000000000000000000000000000000000000000000000000000000000000000000000000000000000000000000000000000000000000000000000545454
#060960:0054540000545400
#061920:24
#073940:12000022
#0909a0:14
#091920:000000005c00002c
#092920:00140000
#093920:00000000005c0000
#095920:000000000000002c
#096920:1c
#096950:0000000000000000000000000000005600560000000000000000000000000000
#097920:5c00000000000000000000000000005c0000005c000000000000000000000000
#097950:00560000000000000000000000000000
#098950:26
#101960:0014002400000000
#101960:00000000000000000000142400000000
#109960:0014000000000000
#109920:00240000
#109920:0000001400000000
#109960:0024
#119970:00130000000000000000000000000000
#1199b0:00000023000000000000000000000000
#119960:00000000001400000000000000000000
#1199a0:00000000000000240000000000000000
#119950:00000000000000000015000000000000
#119990:00000000000000000000002500000000
#119940:00000000000000000000000000160000
#119980:00000000000000000000000000000026
#1319a0:14240000
#131960:0054000000000000
#131921:00142400
#131961:0000005400000000
#135961:0013
#135921:0000000000230000
#135970:0000000000130000
#1359b0:00000023
#135961:00000013
#135921:0000000000000023
#135970:0000000000000013
#1369b0:23
#136920:000000000000000000000000000000000000000000000000000000000000000000000000000000000000000000000000000000000000000000000000000000000000000000000000000000000000000000000000000000000000000000000000000000000000000000000000000000000000000000000000000000000000000000000000000000000000000000000000000000000000000000000000000000000000000000000000000000000000000000000000000000000000000000000000000000000000000000000000000000000000000000000000000000000000000000000000000000000000000000000000000000000000000000000000000000000000000000000000000000000000000000000000000000000000000000000000000000000000000000000000000000000000000000000000000000000000000000000000000000000000000000000000000000000000000000000000000000000000000000000000001c00000000000000000000000000000000000000000000000000000000000000000000000000000000000000000000000000000000000000000000000000000000000000000000000000000000000000000000000000000000000000000000000000000000000000000000000000000000000000000000000000000000000000000000000000000000000000000000000000000000000000000000000000000000000000000000000000000000000000000000000000000000000000000000000000000000000000000000000000000000000000000000000000000000000000000000000000000000000000000000000000000000000000000000000000000000000000000000000000000000000000000000000000000000000000000000000000000000000000000000000000000000000000000000000000000000000000000000000000000000000000000000000000000000000000000000000000000000000000000000000000000000000000000000000000000000000000000000000000000000000000000000000000000000000000000000000000000000000000000000000000000000000000000000000000000000000000000000000000000000000000000000000000000000000000000000000000000000000000000000000000000000000000000000000000000000000000000000000000000000000000000000000000000000000000000000000000000000000000000000000000000000000000000000000000000000000000000000000000000000000000000000000000000000000000000000000000000000000000000000000000000000000000000000000000000000000000000000000000000000000000000000000000000000000000000000000000000000000000000000000000000000000000000000000000000000000000000000000000000000000000000000000000000000000000000000000000000000000000000000000000000000000000000000000000000000000000000000000000000000000000000000000000000000000000000000000000000000000000000000000000000000000000000000000000000000000000000000000000000000000000000000000000000000000000000000000000000000000000000000000000000000000000000000000000000000000000000000000000000000000000000000000000000000000000000000000000000000000000000000000000000000000000000000000000000000000000000000000000000000000000000000000000000000000000000000000000000000000000000000000000000000000000000000000000000000000000000000000000000000000000000000000000000000000000000000000000000000000000000000000000000000000000000000000000000000000000000000000000000000000000000000000000000000000000000000000000000000000000000000000000000000000000000000000000000000000000000000000000000000000000000000000000000000000000000000000000000000000000000000000000000000000000000000000000000000000000000000000000000000000000000000000000000000000000000000000000000000000000000000000000000000000000000000000000000000000000000000000000000000000000000000000000000000000000000000000000000000000000000000000000000000000000000000000000000000000000000000000000000000000000000000000000000000000000000000000000000000000000000000000000000000000000000000000000000000000000000000000000000000000000000000000000000000000000000000000000000000000000000000000000000000000000000000000000000000000000000000000000000000000000000000000000000000000000000000000000000000000000000000000000000000000000000000000000000000000000000000000000000000000000000000000000000000000000000000000000000000000000000000000000000000000000000000000000000000000000000000000000000000000000000000000000000000000000000000000000000000000000000000
#137920:0021
