This file was generated by Ched 2.7.0.0.
#TITLE ""
#ARTIST ""
#DESIGNER ""
#DIFFICULTY 0
#PLAYLEVEL
#SONGID ""
#WAVE ""
#WAVEOFFSET 0
#JACKET ""
#REQUEST "ticks_per_beat 480"
#00002: 4
#BPM01: 155
#BPM02: 154
#BPM03: 153
#BPM04: 152
#BPM05: 151
#BPM06: 224
#BPM07: 184
#BPM08: 204
#BPM09: 219
#BPM0A: 234
#BPM0B: 244
#BPM0C: 254
#00008: 01
#01008: 0203
#01608: 02
#01108: 0405
#01208: 06
#01808: 06
#01708: 00070809
#07108: 0A
#07208: 0B
#07308: 0C
#TIL00: ""
#VOLUME: ""
#HISPEED 00
#MEASUREHS 00
#0021a:14
#00214:0014
#00318:14
#00312:0014
#0041a:14
#00618:0014
#00712:14
#0071a:0014
#00814:14
#00818:0014
#00912:14
#0091a:0014
#01214:14
#01318:14
#01414:14
#01418:0014
#01514:14
#01518:0014
#0181a:14
#01814:0014
#01810:41
#0191a:14
#01914:0014
#02212:14
#02218:0014
#02312:14
#02318:0014
#0261a:14
#02614:0014
#02718:14
#02712:0014
#0281a:14
#02814:0014
#02918:14
#03012:14
#03018:0014
#03114:14
#0311a:0014
#03212:14
#03218:0014
#0341a:24140000
#03414:00001414
#03410:41
#0351a:14
#03518:00343400
#03612:14140000
#03618:00001414
#03712:14
#03714:00343400
#0421a:1414
#04214:00140014
#0431a:14
#04412:1414
#04418:00140014
#04512:14
#0461a:14
#04614:0014
#04718:14
#04712:0014
#0481a:14
#04912:14
#04914:00343434
#05118:14
#05214:14
#05414:0014
#0551a:14
#05612:14
#05618:0014
#05712:14
#05818:14
#05812:0014
#05810:41
#05918:14
#06014:14
#0601a:0014
#06114:14
#0621a:1414
#06214:00140014
#0631a:1414
#06314:00140000
#06412:1414
#06418:00140014
#06512:1414
#06518:00140000
#0661a:1414
#06614:00140000
#06712:1414
#06718:00140000
#0681a:1414
#06814:00140014
#06918:1414
#06912:00140014
#0731a:14
#07412:0014
#0751a:14
#07513:0014
#07619:14
#07614:0014
#07718:14
#07715:0014
#08118:14
#0901a:14
#0901f:11
#09118:14
#0921a:14
#09318:14
#10618:0014
#1061f:21
#10614:24
#10714:1414
#10718:00140000
#10710:41
#10814:14
#1081a:1414
#10912:1414
#1091a:00140000
#11012:14
#1101a:0014
#11018:14
#11116:14
#11112:0014
#11216:14
#1121a:0014
#11316:14
#11312:0014
#1141a:14
#11512:14
#1161a:14
#11712:0014
#11714:14
#11718:00140000
#11914:14
#11918:0014
#12014:14
#1221a:1414
#12214:00240014
#1231a:14
#12318:0014
#12312:00240014
#1241a:0014
#12414:00240014
#12418:14
#1251a:14
#12518:0014
#12512:00140000
#12614:00001414
#12618:00140000
#12612:24
#12718:00001414
#12714:00140000
#1271a:24
#0871a:1414
#08812:14
#0881a:0014
#08810:41
#08912:1414
#11818:0014
#12818:00140014
#12812:2424
#12918:00140000
#12912:2424
#13014:00140014
#1301a:2424
#13114:00140000
#1311a:2424
#13212:16
#13213:0036
#08214:0014
#0831a:14
#08412:14
#08418:0014
#08512:14
#0861a:14
#08614:0014
#01614:24
#03314:2424
#03318:00240000
#10218:24
#10212:0024
#1041a:24
#10418:00343434
#10319:24
#10313:0024
#0781a:24
#07814:0024
#07919:24
#07913:0024
#08018:24
#08012:0024
#0981a:24
#13315:0035
#07010:41
#01654:14
#0355a:54
#03752:64
#0435a:54
#04552:64
#0485a:54
#04952:54
#05054:14
#0735a:54
#08158:54
#0905a:64
#0925a:64
#09158:24
#09358:24
#1045a:64
#1145a:64
#11458:0014
#11552:54
#11554:0014
#1165a:64
#11658:0014
#11752:0054
#11854:14
#11858:0014
#12054:54
#13656:00000014000000000000000000000000
#02552:14
#07456:14
#0825a:14
#0985a:14
#11958:0014
#11954:14
#13252:56
#12152:14
#12558:0014
#10654:14
#004340:0014
#006340:24
#010340:1424
#011380:1424
#0203a0:14
#0213a0:24
#024320:14
#025320:24
#0353a0:14
#035380:00343424
#037320:14
#037340:00343424
#0383a0:14342400
#039340:14342400
#040380:14342400
#041320:14342400
#0433a0:14
#043380:0024
#045320:14
#045340:0024
#0483a0:14
#048380:0024
#049320:14
#049340:00343434
#050340:24
#0533a0:14343434
#0543a0:24
#0703a0:14
#070380:0000540000000054
#071390:34
#0713a0:0054000000000054
#072390:3434
#072380:0054005400000000
#0723a0:0000000000540000
#0733a0:34
#073360:00000054
#074360:24
#081380:14
#0823a0:24
#0903a0:14
#091380:54
#0923a0:34
#093380:54
#0943a0:34
#0953a0:34
#0963a0:34343434
#0973a0:34343434
#0983a0:24
#1043a0:14
#104380:00343434
#105380:3424
#1143a0:14
#114380:00342400
#115320:14
#115340:00342400
#1163a0:14
#116380:00342400
#117320:0014
#117340:00000034
#118340:24
#120340:14
#121320:24
#132320:16
#132330:0036
#133350:0035
#134360:0034
#135360:0034
#136360:34000024000000000000000000000000
