This file was generated by Ched 2.7.0.0.
#TITLE ""
#ARTIST ""
#DESIGNER ""
#DIFFICULTY 0
#PLAYLEVEL
#SONGID ""
#WAVE ""
#WAVEOFFSET 0
#JACKET ""
#REQUEST "ticks_per_beat 480"
#00002: 4
#BPM01: 205
#00008: 01
#TIL00: "132'959:10000.0, 132'960:1.0"
#VOLUME: ""
#HISPEED 00
#MEASUREHS 00
#00119:14
#00414:0014
#0041a:24
#00410:41
#00518:1414
#00612:14
#00618:0014
#00714:1414
#01214:0014
#0121a:14
#0131a:1414
#01418:0014
#01412:14
#01512:1414
#01618:16
#0161a:0000003400003400
#0181a:14
#02212:1414
#0211a:0014
#02114:14
#02018:0014
#02012:24
#02010:41
#0241a:1414
#02512:1414
#02812:1414
#02918:1414
#03014:1414
#0311a:1414
#03212:14
#03218:00000014
#03414:14
#04018:1424
#04114:00140000
#04314:00000014
#04612:00160000
#04618:00000016
#04712:00160000
#04718:00000016
#04818:00160000
#04812:00000016
#04912:00160000
#05418:00160000
#05412:00000016
#05518:00160000
#05512:00000016
#05612:00160000
#05618:00000016
#05718:00160000
#0621a:00000014
#06314:00000014
#06612:00000014
#0671a:00000014
#07014:00000014
#07118:00000014
#07413:00000014
#07419:00000014
#07512:00000014
#0751f:00000011
#0761a:00000014
#0791a:00000014
#08012:00000014
#09018:1616
#09012:00160000
#09218:00160000
#09212:00000016
#09312:00160000
#09310:41
#09612:00160000
#09618:00000016
#09718:00160000
#10018:00160000
#10012:00000016
#10112:00160000
#10118:00000016
#10212:00160000
#10218:00000016
#10312:00160000
#10318:00000016
#10418:00160000
#10412:00000016
#10512:00160000
#1101a:00140000
#11014:00000014
#1111a:00000014
#11118:14
#11114:00140000
#11212:00140000
#11218:00000014
#11314:14
#11318:00140000
#11312:00000014
#11412:00140000
#11418:00000014
#11514:14
#11518:00140000
#11512:00000024
#1231a:0000000000000000000000000000001400000000000000000000000000000000
#12312:0000000000000000000000000000001400000000000000000000000000000000
#04518:00000026
#04510:41
#05312:00000026
#08912:00000026
#09118:00000026
#0911f:00000021
#09512:00000026
#09918:00000026
#10912:00000024
#10910:00000041
#11614:00240000
#11618:00000024
#1171a:00240000
#11712:00000026
#11818:00260000
#11819:00000024
#11813:00000024
#11919:00240024
#11913:00240024
#0171a:0034000034000000
#04212:0034000000000034
#03610:41
#01658:66
#0185a:24
#03454:54
#04354:00000054
#1235a:0000000000000000000000000000005400000000000000000000000000000000
#12352:0000000000000000000000000000005400000000000000000000000000000000
#002330:14
#003320:26
#0083a0:1424
#009320:1424
#010380:1424
#011340:1424
#016380:16
#0163a0:0000003400003400
#0173a0:0034000034000000
#0183a0:34
#019380:0026
#023320:1424
#0263a0:1434
#0273a0:24
#033340:0014
#034340:34
#035320:24
#0363a0:14
#037380:24
#037320:00000014
#038340:0000000000340000
#039340:00240000
#041340:00000014
#042320:0034000034000034
#043340:00343434
#044320:00000024
#049380:00000016
#050380:00260000
#050320:00000016
#051320:00260000
#051380:00000016
#052370:00360000
#052380:00000036
#053380:00260000
#057320:00000016
#058320:00260000
#058380:00000016
#059380:00260000
#059320:00000016
#060330:00000036
#061320:00000026
#064380:00000014
#065380:34343424
#068340:00000014
#069340:00000024
#072380:00000014
#073380:00000024
#077340:00000014
#078340:00000024
#081380:00000014
#082380:00000024
#083320:00000014
#084340:00000034
#085320:00000034
#086340:00000024
#0873a0:00000014
#088380:00000024
#090320:00000016
#091320:00260000
#093380:00000016
#094370:00360000
#094380:00000036
#095380:00260000
#097320:00000016
#098330:00360000
#098320:00000036
#099320:00260000
#105380:00000016
#106360:00000036
#107380:00000026
#119390:00000014
#1233a0:0000000000000000000000000000003400000000000000000000000000000000
#1273b0:0000000000000000000000230000000000000000000000000000000000000000
#119331:00000014
#123321:0000000000000000000000000000003400000000000000000000000000000000
#127321:0000000000000000000000230000000000000000000000000000000000000000
#1329d0:000000000000000000000000000000000000000000000000000000000000000000000000000000000000000000000000000000000000000000000000000000000000000000000000000000000000000000000000000000000000000000000000000000000000000000000000000000000000000000000000000000000000000000000000000000000000000000000000000000000000000000000000000000000000000000000000000000000000000000000000000000000000000000000000000000000000000000000000000000000000000000000000000000000000000000000000000000000000000000000000000000000000000000000000000000000000000000000000000000000000000000000000000000000000000000000000000000000000000000000000000000000000000000000000000000000000000000000000000000000000000000000000000000000000000000000000000000000000000000000000000000000000000000000000000000000000000000000000000000000000000000000000000000000000000000000000000000000000000000000000000000000000000000000000000000000000000000000000000000000000000000000000000000000000000000000000000000000000000000000000000000000000000000000000000000000000000000000000000000000000000000000000000000000000000000000000000000000000000000000000000000000000000000000000000000000000000000000000000000000000000000000000000000000000000000000000000000000000000000000000000000000000000000000000000000000000000000000000000000000000000000000000000000000000000000000000000000000000000000000000000000000000000000000000000000000000000000000000000000000000000000000000000000000000000000000000000000000000000000000000000000000000000000000000000000000000000000000000000000000000000000000000000000000000000000000000000000000000000000000000000000000000000000000000000000000000000000000000000000000000000000000000000000000000000000000000000000000000000000000000000000000000000000000000000000000000000000000000000000000000000000000000000000000000000000000000000000000000000000000000000000000000000000000000000000000000000000000000000000000000000000000000000000000000000000000000000000000000000000000000112100000000000000000000000000000000000000000000000000000000000000000000000000000000000000000000000000000000000000000000000000000000000000000000000000000000000000000000000000000000000000000000000000000000000000000000000000000000000000000000000000000000000000000000000000000000000000000000000000000000000000000000000000000000000000000000000000000000000000000000000000000000000000000000000000000000000000000000000000000000000000000000000000000000000000000000000000000000000000000000000000000000000000000000000000000000000000000000000000000000000000000000000000000000000000000000000000000000000000000000000000000000000000000000000000000000000000000000000000000000000000000000000000000000000000000000000000000000000000000000000000000000000000000000000000000000000000000000000000000000000000000000000000000000000000000000000000000000000000000000000000000000000000000000000000000000000000000000000000000000000000000000000000000000000000000000000000000000000000000000000000000000000000000000000000000000000000000000000000000000000000000000000000000000000000000000000000000000000000000000000000000000000000000000000000000000000000000000000000000000000000000000000000000000000000000000000000000000000000000000000000000000000000000000000000000000000000000000000000000000000000000000000000000000000000000000000000000000000000000000000000000000000000000000000000000000000000000000000000000000000000000000000000000000000000000000000000000000000000000000000000000000000000000000000000000000000000000000000000000000000000000000000000000000000000000000000000000000000000000000000000000000000000000000000000000000000000000000000000000000000000000000000000000000000000000000000000000000000000000000000000000000000000000000000000000000000000000000000000000000000000000000000000000000000000000000000000000000000000000000000000000000000000000000000000000000000000000000000000000000000000000000000000000000000000000000000000000000000000000000
