This file was generated by Ched 2.7.0.0.
#TITLE ""
#ARTIST ""
#DESIGNER ""
#DIFFICULTY 0
#PLAYLEVEL
#SONGID ""
#WAVE ""
#WAVEOFFSET 0
#JACKET ""
#REQUEST "ticks_per_beat 480"
#00002: 4
#BPM01: 205
#00008: 01
#TIL00: "132'959:10000, 132'960:1"
#VOLUME: ""
#HISPEED 00
#MEASUREHS 00
#00217:14
#00418:0014000000001300
#00412:0000001300000000
#0041b:0000001300000000
#00415:0000000000130013
#00414:24
#00410:41
#0051b:0013000000000000
#00518:00130000
#00515:0000001300000000
#00612:1400000000130013
#0061a:0014000000000000
#00614:0000001300000000
#00619:0000001300000000
#0061b:00000013
#00812:00140014
#00816:0000001400140014
#0081a:0014
#0091a:1400001400000000
#00912:0014000000140000
#00916:00140000
#00918:0000000000000013
#00915:00000000000000000000000000000013
#01012:00000000140000000034143400000000
#01016:00000000003434143400000034143434
#01014:0000000000000000000000000000000000140000000000140000000000000000
#0101a:24
#0111b:0013000000000000
#01118:0000130000130013
#01115:00000000000013000000000013000013
#01112:0013
#01214:0014000000000000
#0121b:0000001300000000
#01212:0000001300000000
#01218:2400000000130013
#01215:00000013
#01312:0013000000000000
#01315:00130000
#01318:0000001300000000
#0141a:14
#01412:0014000000001300
#01419:0000001300000000
#01414:0000001300000000
#0141b:0000000000130013
#01515:0013130000000000
#01518:00000013000000000000000000000000
#0151a:0000000000140000
#01512:0000000000240000
#01815:13
#01818:13
#02015:0000000000130013
#02018:00000013
#0201b:23
#02012:23
#02010:41
#02112:0000001300000000
#02117:0000001300000000
#02218:00000013
#02212:00000013
#0231b:13000013
#02315:1300000000130000
#02312:0013
#02318:0000000000000013
#02412:140000003434140000003434
#02416:003434140000003434140000
#02518:0013000000000000
#02515:00130000
#02615:1313
#02612:0000000000000000130000000000000000000000000000000000000000000013
#02618:0013
#0261b:0000000000000000000000000000000000000000000000000000000000000013
#02818:0000000000130013
#02815:00000013
#02812:23
#0281b:23
#0291b:0000001300003333
#02916:0000001300000000
#02917:0000000000130000
#03015:00000013
#0301b:00000013
#03112:1314
#03118:13000000000000000000003400000000
#0311a:0014
#0271a:14
#02712:1400000000000013150000000000001316000000000000130000000000000000
#0271b:0000000000000013000000000000001300000000000000130000000000000000
#02719:00150000
#02718:0016
#03215:00140000
#03214:0000000000140000
#0321a:24
#03219:0000002400000000
#03218:00000024
#03313:14
#03312:0000001400000024
#03317:0024000000000000
#0331a:0024
#03316:00000000000000000000002400000000
#03515:00130000
#0351b:13
#03518:00000053000000002300230023002300
#03514:00000000005300000000000000000000
#03513:0000005300000000
#03512:00000000000000530000000000000000
#0351a:00530000000000000000000000000000
#03519:0053000000000000
#03612:13
#03615:0013000000000000
#03618:00130000
#03610:41
#03712:0013000000001300
#03718:00130000
#03715:0000001300000013
#0371b:0013
#03818:1300000000130000
#03815:0000000000130000
#03914:001400
#03918:000000000014000000000000
#03912:0014
#0391a:00240000
#03916:000000000000003434343434
#04016:143434000000000000003434
#04018:000000000000001400000000
#04014:000014
#0401a:24000014
#04012:003434000000240000000000
#04116:343434143434000000000000
#04115:0000000000000013
#04112:00240023
#0411a:000000003434000000000000
#04218:13
#04216:00130000
#04219:0000001300000000
#04217:0000000000130000
#0421a:00000013
#04214:0023
#04215:0000000000000023
#04213:0023000000000000
#04318:13
#0431b:0013000000000000
#04312:00240000
#04316:0024
#0431a:00000024
#04416:00140000
#04512:2400000000000013
#04518:00000026
#04510:41
#04615:1300000000000013
#04618:0013000000001300
#0461b:0000130000130000
#04612:0016
#04712:1300000000000026
#0471b:00130000
#04715:0000001313000000
#04718:00000000000000130000000026000000
#0481b:0013000000000000
#04815:00001324
#04818:0000000000130000
#0481a:00000024
#05012:13
#05018:0013000000130000
#05015:00001313
#05118:00130013
#05115:00000013
#0531b:0000000000000013
#05312:00000026
#05318:00230000
#05418:1300000016000013
#05415:0013000000001300
#05412:0000130000130000
#0551b:13
#05512:00130026
#05518:0000001313000026
#05515:00000000000000130000000000000000
#0521b:00130000
#05212:00130000
#05215:00000023
#0561a:0000000000000014
#05615:0023000000000000
#0561b:0023000000000000
#05618:0023
#05612:0023
#05716:14
#05712:0014000000000013
#05718:0013
#05715:0000000000130000
#0571b:00000023
#05817:1414000000000000
#0581b:0000001300002300
#05815:0000000014140000
#05812:00230000
#0601b:13
#06012:13
#06115:0000000000000013
#06118:00000026
#06114:00000000000000000000000000000053
#06218:0013001300000000
#06212:00130000
#06215:0013
#0621b:0000000000130000
#06213:53
#0631b:00001313
#06315:0000000000130000
#0631a:00000000000000000000000000530000
#06319:0000000000000053
#06318:00000000000000000000000000000053
#06412:13000023
#06413:00530000000000000000000000000000
#06414:0053000000000000
#06415:00000053000000000000000000000000
#06416:00530000
#06417:53
#06515:0000230000000013
#06518:23
#0651b:0023
#06618:1300001300130000
#06612:0013000000001300
#0661b:00130000
#06615:0013
#06715:1300001300130000
#0671b:0013000000002300
#06712:0000130000000013
#06718:0013
#06818:1300000000130000
#06812:00000024
#06815:000000000000000000003434
#06819:00000000000000000000005300000000
#0681a:00000053
#06915:143434000000000000000000
#06917:000000003434143434000000
#0691a:00240000
#06912:00000024
#0701a:00001424
#07012:0000000000140000
#07112:0000001400001400
#0711a:0014
#07116:0000000000140000
#07214:14
#07218:0014
#07216:00140000
#0721a:00000014
#07312:000000130013000000240000
#07318:001300
#0731b:000000131300
#07315:000000000000001300000000
#07418:00002414
#0741a:24
#07412:00240000
#07414:00000024
#07514:00000012
#07518:0000000000000012
#0751f:00000011
#07512:33
#0751b:33
#07614:12120000
#07618:0012000000000000
#0761a:00001212
#07616:0000000000120012
#0771a:1200000000120000
#07714:00120000
#07716:0000001200001200
#07718:0000000012000012
#07813:0012000000000000
#0781a:00000012
#07818:0012
#07816:0000000000120000
#07918:12
#07916:00120000
#07914:0012
#0791a:00000012
#08016:1200000000120000
#08018:0012000012000000
#08014:0000001200000000
#08214:00120000
#0821a:0032120000000000
#08118:00000012
#0831a:00000012
#08318:0000000000000012
#08416:1200000000120000
#08414:0012000012000000
#0841a:0000120000000012
#08418:00000012
#08514:1200000000000012
#08518:00121200
#08516:0000001200120000
#0851a:00000012
#08618:0012000000000000
#08616:0012
#08613:00000000000000000000001200000000
#08718:1200000000120000
#08716:0012000000000000
#08814:00000012
#0881a:00000012
#08915:12
#08919:12
#08916:00240000
#08914:0000000000002424
#0911b:0000000000000013
#0911a:2424000000000000
#09115:00260000
#09112:00000026
#0911f:00000021
#09218:1300000016000013
#09215:0013000000001300
#09212:0000130000130000
#0931b:13
#09312:00130026
#09318:0000001313000026
#09315:00000000000000130000000000000000
#09310:41
#09412:0013000000002400
#09418:0013
#09415:0000000000130000
#09417:00000024
#0961b:13
#09615:0013000000130000
#09618:00001313
#09715:00130013
#09718:00000013
#09912:0000000000000013
#09918:00000026
#09915:00230000
#10015:1300000000000013
#10018:0013000000001300
#1001b:0000130000130000
#10012:0016
#10112:1300000000000026
#1011b:00130000
#10115:0000001313000000
#10118:00000000000000130000000026000000
#09812:00130000
#0981b:00130000
#09818:00000023
#10212:0023000000000014
#10218:0023000000000000
#10215:0023
#1021b:0023
#10316:14
#1031a:0014000000000000
#10318:0000000000130000
#1031b:0000000000000013
#10312:00000023
#10415:1414000000000000
#10412:0000001300002300
#10417:0000000014140000
#1041b:00230000
#1061b:13
#10612:23000026
#10814:0012
#11212:00000014
#11217:00000024
#11315:14
#1131a:14000024
#11317:00140000
#11312:00140000
#11314:000000000034000000000000
#11319:000000000034000000000000
#11516:0000000000000014
#11515:24
#11517:00240000
#11512:00000024
#11616:0014001400140014
#11612:24000024
#1161a:00242400
#11716:0014000024000000
#11714:0000001400000000
#11718:0000000000140000
#1171a:24000024
#11712:00240000
#11812:1300001300000000
#11818:0013000013132400
#11815:00000000130000000013001300000000
#1181b:13
#1231b:0000001300000000
#12316:0000001300000000
#0011a:24000024
#00112:0000002400000000
#00117:00343434000000000000000000343434
#00115:00000000000000343434000000000000
#01618:24
#01613:0000002400000000
#0161a:00000024
#01612:00000024
#01619:0000002400000000
#01714:0024000000000000
#01718:0024000000000000
#0171a:0024
#01712:0024
#03417:24
#03412:0000002424000000
#04914:24000024
#04913:00240000
#04912:0024
#04919:24
#04918:00240000
#04917:0024
#0491a:00000024
#05915:23
#05918:00230000
#05912:0023
#09014:2424000000000000
#09018:0000242424240000
#09012:0000000000002424
#09518:24000024
#09519:00240000
#0951a:0024
#09513:24
#09514:00240000
#09515:0024
#09512:00000024
#10518:23
#10515:00230000
#1051b:0023
#10718:0026
#10716:00260000
#10714:26
#10712:00000026
#1091a:00000024
#10915:00000024
#10910:00000041
#11015:00000024
#11112:00000024
#11117:00000024
#11417:00000024
#11412:00240000
#11914:24
#11918:00260026
#11912:0026
#00716:000000003434000000003434
#0071a:000000000000003434000000
#12712:0000000000000053000000000000000000000000000000000000000000000000
#12713:00530000
#12714:0000000000000000005300000000000000000000000000000000000000000000
#12715:00000000005300000000000000000000
#12716:0000000000000000000000530000000000000000000000000000000000000000
#12717:0000000000000063000000000000000000000000000000000000000000000000
#12718:00630000
#12719:0000000000000000006300000000000000000000000000000000000000000000
#1271a:00000000006300000000000000000000
#1271b:0000000000000000000000630000000000000000000000000000000000000000
#00257:64
#0035a:14
#00455:0000000000000013
#00652:0000000000000013
#00856:14
#0095a:0000001400000000
#00952:0000000000140000
#0105a:14
#01052:0000640000240000
#01056:00000000000000240000000000240000
#01054:0000000000000000000000000000000000640000000000640000000000000000
#01152:34
#01258:0000000000000013
#0145b:0000000000000013
#0155a:0000000000640000
#01552:0000000000640000
#01654:14
#01658:14
#01653:0000001400000000
#0165a:00000014
#01652:00000014
#01659:0000001400000000
#01758:0014000000000000
#01754:0014000000000000
#0175a:0024
#01752:0024
#01855:63
#01858:53
#02055:0000000000000013
#02157:0000006300000000
#02258:00000063
#02252:00000063
#0235b:23
#02355:23
#02452:6464
#02456:00640054
#02655:6353
#02652:0000000000000000230000000000000000000000000000000000000000000023
#02658:0063
#0265b:0000000000000000000000000000000000000000000000000000000000000023
#02858:0000000000000013
#02956:0000005300000000
#02957:0000000000630000
#03055:00000053
#0305b:00000053
#03152:23
#03158:23
#0315a:0054
#0275a:54
#02752:6400000000000023650000000000002366000000000000231600000000000000
#0275b:0000000000000023000000000000002300000000000000230000000000000000
#02759:00550000
#02758:00005616
#03259:0000004400000000
#03258:00000044
#0325a:44
#03357:0044000000000000
#03457:64
#0375b:0013
#03855:0000000000630000
#03858:0000000000630000
#03952:0064
#04056:64
#0405a:64000054
#04156:00540000
#04152:00540000
#04456:00240000
#0445a:00000044
#0435a:00000064
#04552:34
#04558:00000016
#0465b:00130000
#04752:13
#04755:0013
#0485b:0063000000000000
#0495a:00000014
#04954:00000014
#05058:0063000000000000
#05055:00000063
#05158:00530053
#05155:00000053
#05452:00130000
#0555b:13
#05558:0013
#0525b:00530000
#05252:00630000
#05255:00000013
#05358:00130000
#05655:0063000000000000
#0565b:0063000000000000
#05652:0013
#05658:0013
#0605b:63
#06052:63
#06158:00000016
#0655b:00000013
#06855:0000001300000000
#06852:00000064
#06955:24
#06957:0024
#0695a:00540000
#06952:00000064
#07056:0014000000000000
#0705a:00000054
#07156:0014000000000000
#07152:00000014
#07254:14
#07258:0014
#07256:00140000
#0725a:00000014
#07352:00000014
#07458:00000064
#07454:00000064
#07853:0062000000000000
#08254:00620000
#0825a:00620000
#08258:00000012
#08158:00000062
#08356:00120000
#0845a:00120000
#08554:12
#08658:0062000000000000
#08656:0052
#08653:00000000000000000000002200000000
#08756:0012000000000000
#08956:00140000
#09155:00160000
#09152:00000016
#09252:00130000
#0935b:13
#09358:0013
#09452:0053000000000000
#09655:0053000000000000
#09658:00000053
#09755:00630063
#09758:00000063
#1005b:00130000
#10152:13
#10155:0013
#09852:00630000
#0985b:00530000
#09858:00000013
#09552:00000014
#09558:00000014
#09955:00130000
#10258:0053000000000000
#10252:0053000000000000
#10255:0013
#1025b:0013
#10652:63000016
#1065b:63
#10758:0016
#10756:00160000
#10754:16
#10752:00000066
#10952:00160000
#10854:0022
#11152:0014
#11157:0014
#11355:6414
#1135a:6414
#11357:00540000
#11352:00540000
#11252:00000064
#11257:00000064
#1155a:0014
#11555:0014
#1175a:00000014
#11858:00000014
#11958:00160066
#1235b:0000006300000000
#12356:0000006300000000
#0195a:0014
#01952:0014
#0013a0:14
#001370:00343434240000000000000000000000
#001320:0000001400000000
#001350:00000000000000343434240000000000
#0013a0:00000014
#001370:00000000000000000000000000343434
#002370:34
#0033a0:24
#0053a0:0014
#005390:00000000000000000034000000000034
#005380:0000000000340034
#005370:00000000000000000000003400340000
#005360:00000034
#0063a0:24
#0073a0:000000140000003434340000
#007360:000000003434340000003434
#008360:24
#010320:00000000140000000034343400000000
#010360:00000000003434343400000034343434
#010340:0000000000000000000000000000000000540000000000540000000000000000
#011320:24
#013320:0014
#013330:00000000000000000034000000000034
#013340:0000000000340034
#013350:00000000000000000000003400340000
#013360:00000034
#014320:24
#0153a0:0000001400340000
#016380:24
#015321:0000000000140000
#016341:24
#0173a1:0014
#018381:33
#0193a1:0024
#017320:0014
#018350:33
#019320:0024
#0203b0:13000000000033332300000000000000
#020380:00003333330000000000000000000000
#021370:0000001300000000
#0213b0:0000000000230000
#021361:0000000000130000
#021341:00000000000000000000003300000000
#021321:0000000000003333
#022321:33
#022351:00230000
#022380:13
#0223b0:00230000
#022380:0000001300000000
#0223b0:0000000000230000
#022321:0000001300000000
#022351:0000000000230000
#022321:00000013
#023351:53
#023321:00230000
#022380:00000013
#0233b0:53
#023380:00230000
#024320:140000003434340000003434
#024360:003434340000003434340000
#025320:24
#0253b0:0000001300330000
#0253a0:00000033
#025390:0000000000000033
#026380:23
#026351:1333
#026321:0000000000000000530000000000000000000000000000000000000053000053
#027321:3453000000000053355300000000005336530000000000532600000000000000
#026380:0013
#0263b0:0000000000000000000000000000000000000000000000000000000053000053
#0273a0:34
#0273b0:0053000000000053005300000000005300530000000000530000000000000000
#027390:00350000
#027380:00003626
#028320:13000000000033332300000000000000
#028350:00003333330000000000000000000000
#029360:0000001300000000
#029320:0000000000230000
#029371:0000000000130000
#0293b1:0000000000003333
#0303b1:33
#030381:00230000
#030350:13
#030320:00230000
#030350:0000001300000000
#030320:0000000000230000
#0303b1:0000001300000000
#030381:0000000000230000
#0303b1:00000013
#031381:53
#0313b1:00230000
#030350:00000013
#031320:53
#031350:00230000
#0313a0:0014
#031380:00000000000000000000003400000034
#031360:0000000000000034
#0323a0:24
#034370:14
#0343a0:0000003434002400
#034321:00001424
#0363b1:0000001300230000
#036350:0000000000130023
#036381:0000000000000013
#037381:0023000000000000
#0383b1:0013002300000000
#038350:0000001300330000
#039320:23
#038381:0000000000130000
#0393b1:23
#039321:0014
#039361:000000000000003434343434
#040361:34
#040321:003434240000000000000000
#0403a0:14
#040360:003434240000000000000000
#0403a0:00000014
#040360:000000000000000000003434
#041360:343434340000000000000000
#0413a0:000000003434240000000000
#041321:00140000
#041361:000000003434240000000000
#0433a1:00000014
#044361:00540000
#0443a1:00000024
#0483b1:0013000000000000
#048381:0000002300000000
#050381:0013000000000000
#0503b1:0000002300000000
#050351:00000013
#051321:23
#051381:00130000
#0513b1:0023
#051351:00000013
#052321:0033330000000000
#052351:00000023
#051380:00000013
#0523b0:0033330000000000
#052380:00000033
#053380:00230000
#056350:0013000000000000
#056320:0000002300000000
#0563b1:0013000000000000
#056381:0000002300000000
#0583b1:00000013
#0593b1:23
#059350:13230000
#059381:00132300
#059320:0013
#060320:33
#060350:00000033
#060340:000000000000000000000000000000000000000000000000000000000000000000000000000000000000000000000000000000000000000000000000000000000000000000000000000000000000000000000000000000000000000000000000000000000000000000000000000000000000000000000000000000000000000000000000000000000000000000000000000000000000000000000000000000000000000000000000000000000000000000000000000000000000000000000000000000000000000000000000000000000000000000000000000000000000000000000000000000000000000000000000000000000000000000000000000000000000000000000000000000000000000000000000000000000000000000000000000000000000000000000000000000000000000000000000000000000000000000000000000000000000000000000000000000000000000000000000000000000000000000000000000000000000000000000000000000000000000000000000000000000000000000000000000000000000000000000000000000000000000000000000000000000000000000000000000000000000000000000000000000000000000000000000000000000000000000000000000000000000000000000000000000000000000000000000000000000000000000000000000000000000000000000000000000000000000000000000000000000000000000000000000000000000000000000000000000000000000000000000000000000000000000000000000000000000000000000000000000000000000000000000000000000000000000000000000000000000000000000000000000000000000000000000000000000000000000000000000000000000000000000000000000000000000000000000000000000000000000000000000000000000000000000000000000000000000000000000000000000000000000000000000000000000000000000000000000000000000000000000000000000000000000000000000000000000000000000000000000000000000000000000000000000000000000000000000000000000000000000000000000000000000000000000000000000000000000000000000000000000000000000000000000000000000000000000000000000000000000000000000000000000000000000000000000000000000000000000000000000000000000000000000000000000000000000000000000000000000000000000000000000000000000000000000000000000000000000000000000000000000000000000000000000000000000000000000000000000000000000000000000000000000000000000000000000000000000000000000000000000000000000000000000000000000000000000000000000000000000000000000000000000000000000000000000000000000000000000000000000000000000000000000000000000000000000000000000000000000000000000000000000000000000000000000000000000000000000000000000000000000000000000000000000000000000000000000000000000000000000000000000000000000000000000000000000000000000000000000000000000000000000000000000000000000000000000000000000000000000000000000000000000000000000000000000000000000000000000000000000000000000000000000000000000000000000000000000000000000000000000000000000000000000000000000000000000000000000000000000000000000000000000000000000000000000000000000000000000000000000000000000000000000000000000000000000000000000000000000000000000000000000000000000000000000000000000000000000000000000000000000000000000000000000000000000000000000000000000000000000000000000000000005400000000000000000000000000000000000000000000000000000000000000000000000000000000000000000000000000000000000000000000000000000000000000000000000000000000000000000000000000000000000000000000000000000000000000000000000000000000000000000000000000000000000000000000000000000000000000000000000000000000000000000000000000000000000000000000000000000000000000000000000000000000000000000000000000000000000000000000000000000000000000000000000000000000000000000000000000000000000000000000000000000000000000000000000000000000000000000000000000000000000000000000000000000000000000000000000000000000000000000000000000000000000000000000000000000000000000000000000000000000000000000000000000000000000000000000000000000000000000000000000000000000000000000000000000000000000000000000000000000000000000000000000000000000000000000000000000000000000000000000000000000000000000000000000000000000000000000000000000000000000000000000000000000000000000000000000000000000000000000000
#061340:34
#061330:005500000000000000000000000000000000000000000000000000000000000000000000000000000000000000000000000000000000000000000000000000000000000000000000000000000000000000000000000000000000000000000000000000000000000000000000000000000000000000000000000000000000000000000000000000000000000000000000000000000000000000000000000000000000000000000000000000000000000000000000000000000000000000000000000000000000000000000000000000000000000000000000000000000000000000000000000000000000000000000000000000000000000000000000000000000000000000000000000000000000000000000000000000000000000000000000000000000000000000000000000000000000000000000000000000000000000000000000000000000000000000000000000000000000000000000000000000000000000000000000000000000000000000000000000000000000000000000000000000000000000000000000000000000000000000000000000000000000000000000000000000000000000000000000000000000000000000000000000000000000000000000000000000000000000000000000000000000000000000000000350000000000000000000000000000000000000000000000000000000000000000000000000000000000000000000000000000000000000000000000000000000000000000000000000000000000000000000000000000000000000000000000000000000000000000000000000000000000000000000000000000000000000000000000000000000000000000000000000000000000000000000000000000000000000000000000000000000000000000000000000000000000000000000000000000000000000000000000000000000000000000000000000000000000000000000000000000000000000000000000000000000000000000000000000000000000000000000000000000000000000000000000000000000000000000000000000000000000000000000000000000000000000000000000000000000000000000000000000000000000000000000000000000000000000000000000000000000000000000000000000000000000000000000000000000000000000000000000000000000000000000000000000000000000000000000000000000000000000000000000000000000000000000000000000000000000000000000000000000000000000000000000000000000000000000000000000000000000000000000000000000000000000000000000000000000000000000000000000000000000000000000000000000000000000000000000000000000000000000000000000000000000000000000000000000000000000000000000000000000000000000000000000000000000000000000000000000000000000000000000000000000000000000000000000000000000000000000000000000000000000000000000000000000000000000000000000000000000000000000000000000000000000000000000000000000000000000000000000000000000000000000000000000000000000000000000000000000000000000000000000000000000000000000000000000000000000000000000000000000000000000000000000000000000000000000000000000000000000000000000000000000000000000000000000000000000000000000000000000000000000000000000000000000000000000000000000000000000000000000000000000000000000000000000000000000000000000000000000000000000000000000000000000000000000000000000000000000000000000000000000000000000000000000000000000000000000000000000000000000000000000000000000000000000000000000000000000000000000000000000000000000000000000000000000000000000000000000000000000000000000000000000000000000000000000000000000000000000000000000000000000000000000000000000000000000000000000000000000000000000000000000000000000000000000000000000000000000000000000000000000000000000000000000000000000000000000000000000000000000000000000000000000000000000000000000000000000000000000000000000000000000000000000000000000000000000000000000000000000000000000000000000000000000000000000000000000000000000000000000000000000000000000000000000000000000000000000000000000000000000000000000000000000000000000000000000000000000000000000000000000000000000000000000000000000000000000000000000000000000000000000000000000000000000000000000000000000000000000000000000000000000000000000000000000000000000000000000000000000000000000000000000000000000000000000000000000000000000000000000000000000000000000000000000000000000000000000000000000000000000000000000000000000000000000000000000000000000000000000000000
#061320:000000000000000000000000000000000000000000000000000000000000000000000000000000000000000000000000000000000000000000000000000000000000000000000000000000000000000000000000000000000000000000000000000000000000000000000000000000000000000000000000000000000000000000000000000000000000000000000000000000000000000000000000000000000000000000000000000000000000000000000000000000000000000000000000000000000000000000000000000000000000000000000000000000000000000000000000000000000000000000000000000000000000000000000000000000000000000000000000000000000000000000000000000000000000000000000000000000000000000000000000000000000000000000000000000000000000000000000000000000000000000000000000000000000000000000000000000000000000000000000000000000000000000000000000000000000000000000000000000000000000000000000000000000000000000000000000000000000000000000000000000000000000000000000000000000000000000000000000000000000000000000000000000000000000000000000000000000000000000000000000005600000000000000000000000000000000000000000000000000000000000000000000000000000000000000000000000000000000000000000000000000000000000000000000000000000000000000000000000000000000000000000000000000000000000000000000000000000000000000000000000000000000000000000000000000000000000000000000000000000000000000000000000000000000000000000000000000000000000000000000000000000000000000000000000000000000000000000000000000000000000000000000000000000000000000000000000000000000000000000000000000000000000000000000000000000000000000000000000000000000000000000000000000000000000000000000000000000000000000000000000000000000000000000000000000000000000000000000000000000000000000000000000000000000000000000000000000000000000000000000000000000000000000000000000000000000000000000000000000000000000000000000000000000000000000000000000000000000000000000000000000000000000000000000000000000000000000000000000000000000000000000000000000000000000000000000000000000000000000000000260000000000000000000000000000000000000000000000000000000000000000000000000000000000000000000000000000000000000000000000000000000000000000000000000000000000000000000000000000000000000000000000000000000000000000000000000000000000000000000000000000000000000000000000000000000000000000000000000000000000000000000000000000000000000000000000000000000000000000000000000000000000000000000000000000000000000000000000000000000000000000000000000000000000000000000000000000000000000000000000000000000000000000000000000000000000000000000000000000000000000000000000000000000000000000000000000000000000000000000000000000000000000000000000000000000000000000000000000000000000000000000000000000000000000000000000000000000000000000000000000000000000000000000000000000000000000000000000000000000000000000000000000000000000000000000000000000000000000000000000000000000000000000000000000000000000000000000000000000000000000000000000000000000000000000000000000000000000000000000000000000000000000000000000000000000000000000000000000000000000000000000000000000000000000000000000000000000000000000000000000000000000000000000000000000000000000000000000000000000000000000000000000000000000000000000000000000000000000000000000000000000000000000000000000000000000000000000000000000000000000000000000000000000000000000000000000000000000000000000000000000000000000000000000000000000000000000000000000000000000000000000000000000000000000000000000000000000000000000000000000000000000000000000000000000000000000000000000000000000000000000000000000000000000000000000000000000000000000000000000000000000000000000000000000000000000000000000000000000000000000000000000000000000000000000000000000000000000000000000000000000000000000000000000000000000000000000000000000000000000000000000000000000000000000000000000000000000000000000000000000000000000000000000000000000000000000000000000000000000000000000000000000000000000000000000000000000000000000000000000
#0603b1:13
#060381:000000000000000000000000000000000000000000000000000000000000000000000000000000000000000000000000000000000000000000000000000000000000000000000000000000000000000000000000000000000000000000000000000000000000000000000000000000000000000000000000000000000000000000000000000000000000000000000000000000000000000000000000000000000000000000000000000000000000000000000000000000000000000000000000000000000000000000000000000000000000000000000000000000000000000000000000000000000000000000000000000000000000000000000000000000000000000000000000000000000000000000000000000000000000000000000000000000000000000000000000000000000000000000000000000000000000000000000000000000000000000000000000000000000000000000000000000000000000000000000000000000000000000000000000000000000000000000000000000000000000000000000000000000000000000000000000000000000000000000000000000000000000000000000000000000000000000000000000000000000000000000000000000000000000000000000000000000000000000000000000000000000000000000000000000000000000000000000000000000000000000000000000000000000000000000000000000000000000000000000000000000000000000000000000000000000000000000000000000000000000000000000000000000000000000000000000000000000000000000000000000000000000000000000000000000000000000000000000000000000000000000000000000000000000000000000000000000000000000000000000000000000000000000000000000000000000000000000000000000000000000000000000000000000000000000000000000000000000000000000000000000000000000000000000000000000000000000000000000000000000000000000000000000000000000000000000000000000000000000000000000000000000000000000000000000000000000000000000000000000000000000000000000000000000000000000000000000000000000000000000000000000000000000000000000000000000000000000000000000000000000000000000000000000000000000000000000000000000000000000000000000000000000000000000000000000000000000000000000000000000000000000000000000000000000000000000000000000000000000000000000000000000000000000000000000000000000000000000000000000000000000000000000000000000000000000000000000000000000000000000000000000000000000000000000000000000000000000000000000000000000000000000000000000000000000000000000000000000000000000000000000000000000000000000000000000000000000000000000000000000000000000000000000000000000000000000000000000000000000000000000000000000000000000000000000000000000000000000000000000000000000000000000000000000000000000000000000000000000000000000000000000000000000000000000000000000000000000000000000000000000000000000000000000000000000000000000000000000000000000000000000000000000000000000000000000000000000000000000000000000000000000000000000000000000000000000000000000000000000000000000000000000000000000000000000000000000000000000000000000000000000000000000000000000000000000000000000000000000000000000000000000000000000000000000000000000000000000000000000000000000000000000000000000000000000000000000000000000000000000000335400000000000000000000000000000000000000000000000000000000000000000000000000000000000000000000000000000000000000000000000000000000000000000000000000000000000000000000000000000000000000000000000000000000000000000000000000000000000000000000000000000000000000000000000000000000000000000000000000000000000000000000000000000000000000000000000000000000000000000000000000000000000000000000000000000000000000000000000000000000000000000000000000000000000000000000000000000000000000000000000000000000000000000000000000000000000000000000000000000000000000000000000000000000000000000000000000000000000000000000000000000000000000000000000000000000000000000000000000000000000000000000000000000000000000000000000000000000000000000000000000000000000000000000000000000000000000000000000000000000000000000000000000000000000000000000000000000000000000000000000000000000000000000000000000000000000000000000000000000000000000000000000000000000000000000000000000000000000000000000
#061381:345500000000000000000000000000000000000000000000000000000000000000000000000000000000000000000000000000000000000000000000000000000000000000000000000000000000000000000000000000000000000000000000000000000000000000000000000000000000000000000000000000000000000000000000000000000000000000000000000000000000000000000000000000000000000000000000000000000000000000000000000000000000000000000000000000000000000000000000000000000000000000000000000000000000000000000000000000000000000000000000000000000000000000000000000000000000000000000000000000000000000000000000000000000000000000000000000000000000000000000000000000000000000000000000000000000000000000000000000000000000000000000000000000000000000000000000000000000000000000000000000000000000000000000000000000000000000000000000000000000000000000000000000000000000000000000000000000000000000000000000000000000000000000000000000000000000000000000000000000000000000000000000000000000000000000000000000000000000000000000000355600000000000000000000000000000000000000000000000000000000000000000000000000000000000000000000000000000000000000000000000000000000000000000000000000000000000000000000000000000000000000000000000000000000000000000000000000000000000000000000000000000000000000000000000000000000000000000000000000000000000000000000000000000000000000000000000000000000000000000000000000000000000000000000000000000000000000000000000000000000000000000000000000000000000000000000000000000000000000000000000000000000000000000000000000000000000000000000000000000000000000000000000000000000000000000000000000000000000000000000000000000000000000000000000000000000000000000000000000000000000000000000000000000000000000000000000000000000000000000000000000000000000000000000000000000000000000000000000000000000000000000000000000000000000000000000000000000000000000000000000000000000000000000000000000000000000000000000000000000000000000000000000000000000000000000000000000000000000000000000260000000000000000000000000000000000000000000000000000000000000000000000000000000000000000000000000000000000000000000000000000000000000000000000000000000000000000000000000000000000000000000000000000000000000000000000000000000000000000000000000000000000000000000000000000000000000000000000000000000000000000000000000000000000000000000000000000000000000000000000000000000000000000000000000000000000000000000000000000000000000000000000000000000000000000000000000000000000000000000000000000000000000000000000000000000000000000000000000000000000000000000000000000000000000000000000000000000000000000000000000000000000000000000000000000000000000000000000000000000000000000000000000000000000000000000000000000000000000000000000000000000000000000000000000000000000000000000000000000000000000000000000000000000000000000000000000000000000000000000000000000000000000000000000000000000000000000000000000000000000000000000000000000000000000000000000000000000000000000000000000000000000000000000000000000000000000000000000000000000000000000000000000000000000000000000000000000000000000000000000000000000000000000000000000000000000000000000000000000000000000000000000000000000000000000000000000000000000000000000000000000000000000000000000000000000000000000000000000000000000000000000000000000000000000000000000000000000000000000000000000000000000000000000000000000000000000000000000000000000000000000000000000000000000000000000000000000000000000000000000000000000000000000000000000000000000000000000000000000000000000000000000000000000000000000000000000000000000000000000000000000000000000000000000000000000000000000000000000000000000000000000000000000000000000000000000000000000000000000000000000000000000000000000000000000000000000000000000000000000000000000000000000000000000000000000000000000000000000000000000000000000000000000000000000000000000000000000000000000000000000000000000000000000000000000000000000000000000000000000000
#062351:00000013
#062321:00000000000000000000000000000033
#063351:0033000023000000
#063321:00000000003300000000000000000000
#0643b1:00130000
#0643a1:0000003300000000
#064391:0033
#064381:0000000000330000
#064371:00000023
#064320:00000013
#065320:23
#065381:13230000
#065350:00132300
#0653b1:00001323
#068351:0013002300000000
#068321:00000014
#068351:000000000000000000003434
#069351:343434000000000000000000
#069321:00240000
#0693a0:00140024
#069370:000000003434343434000000
#069321:00000014
#070361:0024000000000000
#0703a1:00000014
#071361:0024000000000000
#0743a1:14240000
#074320:00142400
#074381:00001434
#0753b1:33230000
#074340:00000014
#075320:33230000
#078330:0012000000000000
#078360:0000002200000000
#0803a0:00000012
#0813a0:22
#081361:12220000
#081380:00122200
#081341:00001222
#081380:00000012
#0823a0:0032320000000000
#082380:00000022
#082341:00120000
#082361:00000032
#083361:00220000
#086381:0012000000000000
#0863b1:0000002200000000
#086361:0000000012000022
#086331:00000000000000000000005200000000
#087361:00000012
#087351:0000000000000032
#088341:22
#088381:00120000
#088391:0000003200000000
#0883a1:0022
#094321:0013000000000000
#094351:0000002300000000
#096351:0013000000000000
#096321:0000002300000000
#096381:00000013
#0973b1:23
#097351:00130000
#097321:0023
#097381:00000013
#0983b1:0033330000000000
#098381:00000023
#097350:00000013
#098320:0033330000000000
#098350:00000033
#099350:00230000
#102380:0013000000000000
#1023b0:0000002300000000
#102321:0013000000000000
#102351:0000002300000000
#104321:00000013
#105321:23
#105380:13230000
#105351:00132300
#1053b0:0013
#1063b0:33
#106380:0023
#106321:13
#106351:0023
#107321:00000016
#108341:0052
#109321:00260000
#1093a1:00000014
#109391:000000000034
#109381:000000000000000000000034
#110371:3434
#110381:003400000034003400000034
#110391:003434003434
#1103a1:00340034
#111371:3424
#111381:003400000034000000000000
#111391:003434000000
#1113a1:00340000
#110350:00000014
#110340:000000000034
#110330:000000000000000000000034
#111320:3424
#111330:003400000034000000000000
#111340:003434000000
#111350:00340000
#111320:00000014
#111330:000000000034
#111340:000000000000000000000034
#112350:3434
#112340:003400000034003400000000
#112330:003434003400
#112320:00340034
#113350:3424
#113320:00340000
#113340:000000000034000000000000
#112371:00000014
#1133a1:3424
#113371:00340000
#113391:000000000034000000000000
#1133a1:00000014
#113391:000000000034
#113381:000000000000000000000034
#114371:34
#114381:003400000000000000000000
#114391:003400000000
#1143a1:00240000
#114320:00140024
#114330:003434
#114340:000000000034003400000000
#114350:0034
#114371:00000014
#114381:000000000034
#114391:000000000000000000000034
#1153a1:24
#115350:1424
#115340:003400000034000000000000
#115330:003434000000
#115320:00340000
#115371:00140000
#115381:003400
#115391:000000000034000000000000
#1153a1:0024
#119381:00000016
#1233b1:0000003300000000
#127371:0000000000000023000000000000000000000000000000000000000000000000
#123360:0000001300000000
#127320:0000000000000023000000000000000000000000000000000000000000000000
#0359b0:13
#035980:00000023000000000000000000000000
#035950:00130000
#035920:00000000000000230000000000000000
#061950:0000000000000013
#061930:000000000000000000000000000000000000000000000000000000000000000000000000000000000000000000000000000000000000000000000000000000000000000000000000000000000000000000000000000000000000000000000000000000000000000000000000000000000000000000000000000000000000000000000000000000000000000000000000000000000000000000000000000000000000000000000000000000000000000000000000000000000000000000000000000000000000000000000000000000000000000000000000000000000000000000000000000000000000000000000000000000000000000000000000000000000000000000000000000000000000000000000000000000000000000000000000000000000000000000000000000000000000000000000000000000000000000000000000000000000000000000000000000000000000000000000000000000000000000000000000000000000000000000000000000000000000000000000000000000000000000000000000000000000000000000000000000000000000000000000000000000000000000000000000000000000000000000000000000000000000000000000000000000000000000000000000000000000000000000000000000000000000000000000000000000000000000000000000000000000000000000000000000000000000000000000000000000000000000000000000000000000000000000000000000000000000000000000000000000000000000000000000000000000000000000000000000000000000000000000000000000000000000000000000000000000000000000000000000000000000000000000000000000000000000000000000000000000000000000000000000000000000000000000000000000000000000000000000000000000000000000000000000000000000000000000000000000000000000000000000000000000000000000000000000000000000000000000000000000000000000000000000000000000000000000000000000000000000000000000000000000000000000000000000000000000000000000000000000000000000000000000000000000000000000000000000000000000000000000000000000000000000000000000000000000000000000000000000000000000000000000000000000000000000000000000000000000000000000000000000000000000000000000000000000000000000000000000000000000000000000000000000000000000000000000000000000000000000000000000000000000000000000000000000000000000000000000000000000000000000000000000000000000000000000000000000000000000000000000000000000000000000000000000000000000000000000000000000000000000000000000000000000000000000000000000000000000000000000000000000000000000000000000000000000000000000000000000000000000000000000000000000000000000000000000000000000000000000000000000000000000000000000000000000000000000000000000000000000000000000000000000000000000000000000000000000000000000000000000000000000000000000000000000000000000000000000000000000000000000000000000000000000000000000000000000000000000000000000000000000000000000000000000000000000000000000000000000000000000000000000000000000000000000000000000000000000000000000000000000000000000000000000000000000000000000000000000000000000000000000000000000000000000000000000000000000000000000000000000000000000000000000000000000000000000000000000000000000000000000000000000000000000000000000000000000000000000000000000000000000000000000000000000000000000000000000000000000000000000000000000000000000000000000000000000000000000000000000000000000000000000000000000000000000000000000000000000000000000000000000000000000000000000000000000000000000000000000000000000000000000000000000000000000000000000000000000000000000000000000000000000000000000000000000000000000000000000000000000000000000000000000000000000000000000000000000000000000000000000000000000000000000000000000000000000000000000000000000000000000000000000000000000000000000000000000000000000000000000000000000000000000000000000000000000000000000000000000000000000000000000000000000000000000000000000000000000000000000000000000000000000000000000000000000000000000000000000000000000000000000000000000000000000000000000000000000000000000000000000000000000000000000000000000000000000000000000000000000000000000000000000000000000000000000000000000000000000000000000000000000000000000000000000000000000000000000000000000000000000000053
#062930:23
#0639b0:00000013
#063970:000000000000000000000000000000000000000000000000000000000000000000000000000000000000000000000000000000000000000000000000000000000000000000000000000000000000000000000000000000000000000000000000000000000000000000000000000000000000000000000000000000000000000000000000000000000000000000000000000000000000000000000000000000000000000000000000000000000000000000000000000000000000000000000000000000000000000000000000000000000000000000000000000000000000000000000000000000000000000000000000000000000000000000000000000000000000000000000000000000000000000000000000000000000000000000000000000000000000000000000000000000000000000000000000000000000000000000000000000000000000000000000000000000000000000000000000000000000000000000000000000000000000000000000000000000000000000000000000000000000000000000000000000000000000000000000000000000000000000000000000000000000000000000000000000000000000000000000000000000000000000000000000000000000000000000000000000000000000000000000000000000000000000000000000000000000000000000000000000000000000000000000000000000000000000000000000000000000000000000000000000000000000000000000000000000000000000000000000000000000000000000000000000000000000000000000000000000000000000000000000000000000000000000000000000000000000000000000000000000000000000000000000000000000000000000000000000000000000000000000000000000000000000000000000000000000000000000000000000000000000000000000000000000000000000000000000000000000000000000000000000000000000000000000000000000000000000000000000000000000000000000000000000000000000000000000000000000000000000000000000000000000000000000000000000000000000000000000000000000000000000000000000000000000000000000000000000000000000000000000000000000000000000000000000000000000000000000000000000000000000000000000000000000000000000000000000000000000000000000000000000000000000000000000000000000000000000000000000000000000000000000000000000000000000000000000000000000000000000000000000000000000000000000000000000000000000000000000000000000000000000000000000000000000000000000000000000000000000000000000000000000000000000000000000000000000000000000000000000000000000000000000000000000000000000000000000000000000000000000000000000000000000000000000000000000000000000000000000000000000000000000000000000000000000000000000000000000000000000000000000000000000000000000000000000000000000000000000000000000000000000000000000000000000000000000000000000000000000000000000000000000000000000000000000000000000000000000000000000000000000000000000000000000000000000000000000000000000000000000000000000000000000000000000000000000000000000000000000000000000000000000000000000000000000000000000000000000000000000000000000000000000000000000000000000000000000000000000000000000000000000000000000000000000000000000000000000000000000000000000000000000000000000000000000000000000000000000000000000000000000000000000000000000000000000000000000000000000000000000000000000000000000000000000000000000000000000000000000000000000000000000000000000000000000000000000000000000000000000000000000000000000000000000000000000000000000000000000000000000000000000000000000000000000000000000000000000000000000000000000000000000000000000000000000000000000000000000000000000000000000000000000000000000000000000000000000000000000000000000000000000000000000000000000000000000000000000000000000000000000000000000000000000000000000000000000000000000000000000000000000000000000000000000000000000000000000000000000000000000000000000000000000000000000000000000000000000000000000000000000000000000000000000000000000000000000000000000000000000000000000000000000000000000000000000000000000000000000000000000000000000000000000000000000000000000000000000000000000000000000000000000000000000000000000000000000000000000000000000000000000000000000000000000000000000000000000000000000000000000000000000000000000000000000000000000000000000000000000000000000053
#064970:23
#064921:13
#064961:000000000000000000000000000000000000000000000000000000000000000000000000000000000000000000000000000000000000000000000000000000000000000000000000000000000000000000000000000000000000000000000000000000000000000000000000000000000000000000000000000000000000000000000000000000000000000000000000000000000000000000000000000000000000000000000000000000000000000000000000000000000000000000000000000000000000000000000000000000000000000000000000000000000000000000000000000000000000000000000000000000000000000000000000000000000000000000000000000000000000000000000000000000000000000000000000000000000000000000000000000000000000000000000000000000000000000000000000000000000000000000000000000000000000000000000000000000000000000000000000000000000000000000000000000000000000000000000000000000000000000000000000000000000000000000000000000000000000000000000000000000000000000000000000000000000000000000000000000000000000000000000000000000000000000000000000000000000000000000000053230000000000000000000000000000000000000000000000000000000000000000000000000000000000000000000000000000000000000000000000000000000000000000000000000000000000000000000000000000000000000000000000000000000000000000000000000000000000000000000000000000000000000000000000000000000000000000000000000000000000000000000000000000000000000000000000000000000000000000000000000000000000000000000000000000000000000000000000000000000000000000000000000000000000000000000000000000000000000000000000000000000000000000000000000000000000000000000000000000000000000000000000000000000000000000000000000000000000000000000000000000000000000000000000000000000000000000000000000000000000000000000000000000000000000000000000000000000000000000000000000000000000000000000000000000000000000000000000000000000000000000000000000000000000000000000000000000000000000000000000000000000000000000000000000000000000000000000000000000000000000000000000000000000000000000000000000000000000000000000000000000000000000000000000000000000000000000000000000000000000000000000000000000000000000000000000000000000000000000000000000000000000000000000000000000000000000000000000000000000000000000000000000000000000000000000000000000000000000000000000000000000000000000000000000000000000000000000000000000000000000000000000000000000000000000000000000000000000000000000000000000000000000000000000000000000000000000000000000000000000000000000000000000000000000000000000000000000000000000000000000000000000000000000000000000000000000000000000000000000000000000000000000000000000000000000000000000000000000000000000000000000000000000000000000000000000000000000000000000000000000000000000000000000000000000000000000000000000000000000000000000000000000000000000000000000000000000000000000000000000000000000000000000000000000000000000000000000000000000000000000000000000000000000000000000000000000000000000000000000000000000000000000000000000000000000000000000000000000000000000000000000000000000000000000000000000000000000000000000000000000000000000000000000000000000000000000000000000000000000000000000000000000000000000000000000000000000000000000000000000000000000000000000000000000000000000000000000000000000000000000000000000000000000000000000000000000000000000000000000000000000000000000000000000000000000000000000000000000000000000000000000000000000000000000000000000000000000000000000000000000000000000000000000000000000000000000000000000000000000000000000000000000000000000000000000000000000000000000000000000000000000000000000000000000000000000000000000000000000000000000000000000000000000000000000000000000000000000000000000000000000000000000000000000000000000000000000000000000000000000000000000000000000000000000000000000000000000000000000000000000000000000000000000000000000000000000000000000000000000000000000000000000000000000000000000000000000000000000000000000000000000000000000000000000000000000000000000000000000000000
#068981:0000000000130000
#0689a1:000000000000000000000000000000000000000000000000000000000000000000000000000000000000000000000000000000000000000000000000000000000000000000000000000000000000000000000000000000000000000000000000000000000000000000000000000000000000000000000000000000000000000000000000000000000000000000000000000000000000000000000000000000000000000000000000000000000000000000000000000000000000000000000000000000000000000000000000000000000000000000000000000000000000000000000000000000000000000000000000000000000000000000000000000000000000000000000000000000000000000000000000000000000000000000000000000000000000000000000000000000000000000000000000000000000000000000000000000000000000000000000000000000000000000000000000000000000000000000000000000000000000000000000000000000000000000000000000000000000000000000000000000000000000000000000000000000000000000000000000000000000000000000000000000000000000000000000000000000000000000000000000000000000000000000000000000000000000000000000000000000000000000000000000000000000000000000000000000000000000000000000000000000000000000000000000000000000000000000000000000000000000000000000000000000000000000000000000000000000000000000000000000000000000000000000000000000000000000000000000000000000000000000000000000000000000000000000000000000000000000000000000000000000000000000000000000000000000000000000000000000000000000000000000000000000000000000000000000000000000000000000000000000000000000000000000000000000000000000000000000000000000000000000000000000000000000000000000000000000000000000000000000000000000000000000000000000000000000000000000000000000000000000000000000000000000000000000000000000000000000000000000000000000000000000000000000000000000000000000000000000000000000000000000000000000000000000000000000000000000000000000000000000000000000000000000000000000000000000000000000000000000000000000000000000000000000000000000000000000000000000000000000000000000000000000000000000000000000000000000000000000000000000000000000000000000000000000000000000000000000000000000000000000000000000000000000000000000000000000000000000000000000000000000000000000000000000000000000000000000000000000000000000000000000000000000000000000000000000000000000000000000000000000000000000000000000000000000000000000000000000000000000000000000000000000000000000000000000000000000000000000000000000000000000000000000000000000000000000000000000000000000000000000000000000000000000000000000000000000000000000000000000000000000000000000000000000000000000000000000000000000000000000000000000000000000000000000000000000000000000000000000000000000000000000000000000000000000000000000000000000000000000000000000000000000000000000000000000000000000000000000000000000000000000000000000000000000000000000000000000000000000000000000000000000000000000000000000000000000000000000000000000000000000000000000000000000000000000000000000000000000000000000000000000000000000000000000000000000000053230000000000000000000000000000000000000000000000000000000000000000000000000000000000000000000000000000000000000000000000000000000000000000000000000000000000000000000000000000000000000000000000000000000000000000000000000000000000000000000000000000000000000000000000000000000000000000000000000000000000000000000000000000000000000000000000000000000000000000000000000000000000000000000000000000000000000000000000000000000000000000000000000000000000000000000000000000000000000000000000000000000000000000000000000000000000000000000000000000000000000000000000000000000000000000000000000000000000000000000000000000000000000000000000000000000000000000000000000000000000000000000000000000000000000000000000000000000000000000000000000000000000000000000000000000000000000000000000000000000000000000000000000000000000000000000000000000000000000000000000000000000000000000000000000000000000000000000000000000000000000000000000000000000000000000000000000000000000000000000000
#127971:0000000000000013000000000000000000000000000000000000000000000000
#1279b1:0000000000000000000000230000000000000000000000000000000000000000
#127920:0000000000000013000000000000000000000000000000000000000000000000
#127960:0000000000000000000000230000000000000000000000000000000000000000
#1329d0:000000000000000000000000000000000000000000000000000000000000000000000000000000000000000000000000000000000000000000000000000000000000000000000000000000000000000000000000000000000000000000000000000000000000000000000000000000000000000000000000000000000000000000000000000000000000000000000000000000000000000000000000000000000000000000000000000000000000000000000000000000000000000000000000000000000000000000000000000000000000000000000000000000000000000000000000000000000000000000000000000000000000000000000000000000000000000000000000000000000000000000000000000000000000000000000000000000000000000000000000000000000000000000000000000000000000000000000000000000000000000000000000000000000000000000000000000000000000000000000000000000000000000000000000000000000000000000000000000000000000000000000000000000000000000000000000000000000000000000000000000000000000000000000000000000000000000000000000000000000000000000000000000000000000000000000000000000000000000000000000000000000000000000000000000000000000000000000000000000000000000000000000000000000000000000000000000000000000000000000000000000000000000000000000000000000000000000000000000000000000000000000000000000000000000000000000000000000000000000000000000000000000000000000000000000000000000000000000000000000000000000000000000000000000000000000000000000000000000000000000000000000000000000000000000000000000000000000000000000000000000000000000000000000000000000000000000000000000000000000000000000000000000000000000000000000000000000000000000000000000000000000000000000000000000000000000000000000000000000000000000000000000000000000000000000000000000000000000000000000000000000000000000000000000000000000000000000000000000000000000000000000000000000000000000000000000000000000000000000000000000000000000000000000000000000000000000000000000000000000000000000000000000000000000000000000000000000000000000000000000000000000000000000000000000000000000000000000000000000000000112100000000000000000000000000000000000000000000000000000000000000000000000000000000000000000000000000000000000000000000000000000000000000000000000000000000000000000000000000000000000000000000000000000000000000000000000000000000000000000000000000000000000000000000000000000000000000000000000000000000000000000000000000000000000000000000000000000000000000000000000000000000000000000000000000000000000000000000000000000000000000000000000000000000000000000000000000000000000000000000000000000000000000000000000000000000000000000000000000000000000000000000000000000000000000000000000000000000000000000000000000000000000000000000000000000000000000000000000000000000000000000000000000000000000000000000000000000000000000000000000000000000000000000000000000000000000000000000000000000000000000000000000000000000000000000000000000000000000000000000000000000000000000000000000000000000000000000000000000000000000000000000000000000000000000000000000000000000000000000000000000000000000000000000000000000000000000000000000000000000000000000000000000000000000000000000000000000000000000000000000000000000000000000000000000000000000000000000000000000000000000000000000000000000000000000000000000000000000000000000000000000000000000000000000000000000000000000000000000000000000000000000000000000000000000000000000000000000000000000000000000000000000000000000000000000000000000000000000000000000000000000000000000000000000000000000000000000000000000000000000000000000000000000000000000000000000000000000000000000000000000000000000000000000000000000000000000000000000000000000000000000000000000000000000000000000000000000000000000000000000000000000000000000000000000000000000000000000000000000000000000000000000000000000000000000000000000000000000000000000000000000000000000000000000000000000000000000000000000000000000000000000000000000000000000000000000000000000000000000000000000000000000000000000000000000000000000000000000000000000
