This file was generated by Ched 2.7.0.0.
#TITLE ""
#ARTIST ""
#DESIGNER ""
#DIFFICULTY 0
#PLAYLEVEL
#SONGID ""
#WAVE ""
#WAVEOFFSET 0
#JACKET ""
#REQUEST "ticks_per_beat 480"
#00002: 4
#BPM01: 192
#00008: 01
#TIL00: ""
#VOLUME: ""
#HISPEED 00
#MEASUREHS 00
#01118:14
#01110:41
#06814:14
#0691a:14
#06912:0014
#01218:14
#01314:14
#01414:14
#0151a:14
#01812:14
#02014:14
#03118:14
#03512:2616
#0351f:21
#0771a:0014
#01712:14
#0161a:14
#01918:14
#0191f:11
#02214:14
#02118:14
#02412:14
#0231a:14
#02612:14
#0251a:14
#02814:14
#02718:14
#03012:14
#0291a:14
#03618:1616
#03610:41
#03712:1616
#03818:1616
#04112:16
#04118:0016
#04212:16
#04218:0016
#04418:16
#04412:0016
#04612:16
#04618:0016
#05018:16
#05012:0016
#05118:2616
#05212:1616
#05318:1616
#05412:1616
#05718:16
#05712:0016
#05818:16
#05812:0016
#06212:16
#06218:0016
#06618:16
#06612:0016
#06718:14
#07418:14
#07512:14
#0751a:0014
#07314:14
#07310:41
#07214:14
#07218:0014
#07812:16
#07818:0016
#08012:16
#07912:26
#04710:41
#05510:41
#06410:41
#03158:54
#08052:66
#0033a0:14
#0043a0:34
#0053a0:34
#0063a0:24
#007320:14
#008320:34
#009320:34
#010320:24
#031380:14
#0343a0:24
#039320:1626
#040380:1626
#043320:1626
#045380:1626
#047320:1626
#048380:1626
#049320:1626
#055380:1626
#056320:1626
#059380:16
#060360:36
#061380:3626
#063320:16
#064340:36
#065320:3626
#0703a0:14
#0713a0:24
#076320:14
#077320:24
#079320:16
#080320:36
#088320:24
