This file was generated by Ched 2.7.0.0.
#TITLE ""
#ARTIST ""
#DESIGNER ""
#DIFFICULTY 0
#PLAYLEVEL
#SONGID ""
#WAVE ""
#WAVEOFFSET 0
#JACKET ""
#REQUEST "ticks_per_beat 480"
#00002: 4
#BPM01: 192
#00008: 01
#TIL00: ""
#VOLUME: ""
#HISPEED 00
#MEASUREHS 00
#00912:0012
#0091c:12
#00913:52
#0101c:5212
#01012:12
#00713:0012
#0071b:12
#00714:52
#0081b:5212
#00813:12
#00514:0012
#0051a:12
#00515:52
#0061a:5212
#00614:12
#00315:0012
#00319:12
#00419:5212
#00415:12
#01216:1313
#01214:00000013
#01112:5213
#01114:00000013
#01110:41
#0131b:0013
#01319:00000013
#01417:1313
#01419:00000013
#01515:0013
#01512:00000013
#0161b:00130013
#01618:0013
#01712:00130013
#01715:0013
#0211b:00130013
#02112:0013
#02116:00000013
#02117:0013
#02217:0013130000000000
#02218:0000000000000013
#02218:0000000000000013
#02215:00000013
#02215:00000013
#02212:00130000
#03118:16
#03112:16
#03218:00000013150000000000000000000012
#03213:00150000
#03215:00000013000000000000000000000000
#03216:00000000000000000000000000000012
#03318:14
#03314:14
#03614:0013
#03612:00000013
#03619:0000000023000013
#03616:00130000
#0361b:23230000
#03617:00000023
#03610:41
#04215:00000013
#04218:0000000000000013
#0421a:00130000
#04214:13
#0421b:0013
#04219:23
#04212:0023
#04113:00000013
#04112:00132300
#0411b:0013
#0771a:0014
#07715:00160016
#0771b:23
#07712:0023
#08012:14
#08016:28
#07817:00130000
#07816:00000013
#0781b:23
#07812:2323
#07814:00230000
#07819:00000023
#05118:1600000000140000
#05115:00150000
#05112:26232300
#05114:00000023
#05312:16
#05314:0000000000140000
#05316:00150000
#05318:26
#0531b:00232300
#05319:00000023
#04312:13
#04315:0000130000000013
#0431b:13
#04318:00130000
#0441b:2300131300000000
#04412:13
#04416:0000001300000000
#04612:2300131300000000
#0461b:13
#04617:0000001300000000
#04519:0000000000000013
#0451b:00131300
#04516:0000001300000000
#04512:13000013
#04517:23
#04717:00130000
#04716:00000013
#0471b:23
#04712:0023
#04710:41
#04817:00130000
#04816:00002313
#0481b:23
#03718:16
#03712:26252423
#05212:00130000
#0521b:0013
#05216:230000231400
#05217:000000230000000000001500
#0541b:00130023
#05412:0013
#05416:00230013
#05417:2323
#05517:0000131300000000
#05516:0000000000001313
#05510:41
#05617:0000131300000000
#05612:0000001300000000
#0561b:00000013
#05712:00130000
#05715:00000013
#0571b:0013
#05716:0023
#0391b:0000131300000000
#03912:0000000000001313
#0401b:0000131300000000
#04017:00000013
#04016:0000001300000000
#03814:0013
#03812:23000013
#0381b:00130000
#03817:00000023
#03816:00230000
#03819:0023
#04912:13
#0491b:0000001300000000
#04917:23
#04916:0024
#05013:0000000000000013
#0501a:0000000000000013
#05015:0013
#05018:0013
#05012:23
#0501b:23
#05914:00130000
#05912:0000000013001323
#05916:23
#0591b:23
#0601b:13
#06019:00130000
#06017:0000000013001323
#06112:13131300
#06118:00000013
#06117:0023
#06219:13000013
#06215:00130000
#06216:0013
#06214:23
#0621b:0023
#06319:00130000
#0631b:0000000013001323
#06317:23
#06312:23
#06412:13
#06414:00130000
#06416:0023
#06410:41
#06515:00120000
#06516:0000000000000014
#06513:00000014
#06514:0013
#06519:00121314
#02016:1313
#0201b:1313
#02012:00230013
#02017:00130000
#03512:16
#03518:26
#03519:00250000
#0351a:0024
#0351b:00000023
#0351f:21
#0271b:00130013
#02717:2313
#02716:00130000
#02712:1313
#02917:00130000
#02916:1313
#0291b:00001313
#02812:00130013
#02816:1313
#02817:00130000
#0281b:1313
#03017:0013230000000000
#0301b:00000013
#03012:13130000
#02317:00130000
#0231b:23001313
#02312:00130000
#02316:13000013
#01916:00130000
#01912:63001313
#0191b:00130000
#01917:13000013
#0191f:11
#01817:0013
#01816:00000013
#01812:0013
#01815:13000000000000000000000000530000
#01818:00000000230000000053000000000000
#01819:0000000000530000
#0181a:00000000000000000000005300000000
#0181b:00000053
#01814:0000000000000053
#01813:00000000000000000000000000000053
#05814:13000013
#05818:00130000
#05817:0013
#05819:23
#05812:0023
#06914:0012
#0691a:1214
#06916:00140014
#06912:24
#06712:16
#0671a:2414
#06718:0000000000000014
#06816:00000014
#0681a:2414
#07012:14
#07016:0013
#07014:00000013
#07019:0014001400140014001400140014001400140014001400140014001400140014
#0701a:24141414141414141414141414141414
#07217:00131300
#07216:13000013
#07212:0013
#07112:13000013
#07116:00130000
#0711b:00131300
#07117:00000013
#0751a:2412
#07514:12
#07516:00140014
#07512:0014
#07318:16
#07312:2414
#07310:41
#07416:00000014
#07412:2414
#0761a:14
#07617:0013
#07619:00000013
#07613:0014001400140014001400140014001400140014001400140014001400140014
#07612:24141414141414141414141414141414
#06618:0000131313000014
#06614:00000014
#06615:00000000001300130000000000000000
#06619:25
#06612:25
#02512:00130000
#0251b:00001313
#02516:0013
#02417:1313
#02412:1313
#0241b:00230013
#02416:00130000
#02617:0013000000000000
#0261b:00000013
#02612:13130000
#03418:52
#03416:52
#08812:52
#03358:64
#03354:54
#03258:00000023650000000000000000000022
#03253:00550000
#03255:00000023000000000000000000000000
#03256:00000000000000000000000000000022
#03158:66
#03152:56
#08056:18
#08052:64
#0785b:6343
#07857:00230000
#07856:00000023
#07852:3353
#05158:5600000000540000
#05155:00250000
#05152:16
#05352:66
#05354:0000000000640000
#05358:16
#05356:00250000
#04352:5333
#04355:00230000
#0435b:6343
#04358:00230000
#0445b:1300006300000000
#04452:53000013
#04456:0000006300000000
#04457:00000013
#04652:1300005300000000
#0465b:63000013
#04657:0000005300000000
#04656:00000013
#04552:53
#0455b:0063
#04557:13
#0475b:13
#04752:0013
#03758:56
#03752:16
#05657:0000005300000000
#05652:0000005300000000
#0565b:00000063
#05656:00000013
#05556:0000000000000063
#05557:0000005300000000
#05552:0000001300000000
#0555b:0000000000000013
#05456:00000063
#0545b:00000013
#05452:13
#05457:13
#03852:13000053
#03857:00000013
#03854:0013
#0385b:13130000
#0395b:0000006300000000
#03952:0000000000000053
#03956:0000001300000000
#03957:0000000000000013
#0405b:0000006300000000
#04057:00000053
#04056:0000006300000000
#04052:00000013
#04952:53
#04957:13
#04956:0014
#05055:0063
#05058:0053
#05052:13
#0505b:13
#06556:13
#0655b:13
#02156:00000063
#0215b:00000013
#02252:00530000
#02257:00530000
#02056:6363
#02052:00130053
#0205b:0063
#02057:00530013
#0415b:0013
#04254:13
#0425b:0013
#03552:66
#03558:16
#05257:000000000055
#0525b:1353
#05256:130024
#02756:00630000
#02752:5353
#02757:13
#02857:00530013
#0285b:6363
#02852:00000053
#02956:2363
#0295b:00000063
#03052:00530000
#03057:00130000
#05956:13
#06357:13
#02352:00530000
#02356:63
#0235b:13000063
#0195b:00630000
#01957:53
#01952:13000053
#0775a:0014
#07752:14
#06152:0013
#06259:13
#06256:0013
#0575b:0013
#05854:13
#05857:0013
#01858:00130000
#01855:13
#0485b:13
#04856:0013
#06659:15
#06652:15
#06954:0012
#0695a:12
#06752:66
#0675a:1464
#07152:53
#07156:00230000
#0715b:0063
#07157:00000023
#0715a:14
#07257:0053
#07256:63
#07059:0054005400540054005400540054005400540054005400540054005400540054
#0705a:64646464646464646464646464646464
#0755a:0012
#07554:12
#07358:56
#07352:1454
#07653:0064006400640064006400640064006400640064006400640064006400640064
#07652:54545454545454545454545454545454
#06852:0012
#0745c:0012
#07952:33
#02457:5353
#0245b:00130063
#02452:0053
#02456:00630013
#0255b:00000063
#02556:0063
#02652:00530000
#0365b:13
#03652:13
#0113b0:13333333
#0123b0:33333333
#0133b0:23
#013321:13333333
#014321:33333333
#015321:23
#0153b0:13333333
#0163b0:23
#016351:13333333
#017351:23
#017380:13333333
#018380:23
#019370:1323
#0193b0:00330000
#019320:00000013
#020360:33
#020320:00230000
#020371:00130023
#0203b1:0033
#020360:0013
#020320:00000033
#021360:00230000
#021360:00000013
#022320:00330000
#022360:0023
#022371:00130000
#0223b1:0023
#023361:1323
#023321:00330000
#0233b1:00000013
#024371:33
#0243b1:00230000
#024360:00130023
#024320:0033
#024371:0013
#0243b1:00000033
#025371:00230000
#025361:0013
#025321:00000023
#0253b0:00000013
#026370:23
#026320:00130000
#026360:00000023
#027320:1333
#027360:00330023
#0283b0:1333
#028370:00330023
#028321:00000013
#029361:53
#029321:00230000
#029361:0013
#029321:00000023
#0293b0:00000013
#030370:23
#030320:00130000
#030360:00000023
#031380:16
#032380:00000053350000000000000000000052
#033380:34
#034380:22
#031321:16
#032351:00000053000000000000000000000000
#032331:00350000
#032361:00000000000000000000000000000052
#033341:34
#034361:22
#035321:16
#036321:23
#037381:16
#0383b1:23
#038321:00000013
#039361:0000002300000000
#0393b0:0000001300000000
#039370:0000000000000023
#039321:0000000000000013
#040361:0000003300000000
#040321:00000023
#0403b0:0000001300000000
#040370:00000033
#0413b0:00230000
#043320:1323
#043350:00530000
#0433b1:1323
#043381:00530000
#044321:13000023
#044361:0000003300000000
#0443b0:0000001300000000
#044370:00000023
#045320:13
#045360:00230000
#0453b0:0013
#045370:00000023
#0463b0:13000023
#046370:0000003300000000
#046321:0000001300000000
#046361:00000023
#047321:1323
#0473b0:0013
#0483b0:23
#048321:13
#048361:0023
#0483b0:0013
#049370:23
#049321:13
#049361:0000002400000000
#050381:00133300
#0503b1:00000023
#050350:0013
#050320:00000023
#051380:1600000000540000
#051350:00550000
#0523b0:23
#0523b0:0013
#052360:000034
#052370:000000000035
#053380:26
#053321:16
#053361:00550000
#053341:0000000000540000
#054321:23
#054361:00000013
#055321:0000002300000000
#055370:0000001300000000
#0553b0:0000000000000023
#055361:0000000000000013
#056321:0000003300000000
#056361:0000000000332300
#056370:0000001300000000
#0563b0:0000000000333300
#057370:00230000
#0593b0:13535353535353535353535323000000
#0593a0:0053005300530053005300530053005300530053005300530000000000000000
#059320:00000000000000000000000000001353
#059330:0000000000000000000000000000000000000000000000000000000000530053
#060320:53535353535353535353535323000000
#060330:0053005300530053005300530053005300530053005300530000000000000000
#060370:00000000000000000000000000001353
#060380:0000000000000000000000000000000000000000000000000000000000530053
#061370:53535353230000000000000000000000
#061380:0053005300530053000000000000000000000000000000000000000000000000
#063320:13535353535353535353535323000000
#063330:0053005300530053005300530053005300530053005300530000000000000000
#0633b0:00000000000000000000000000001353
#0633a0:0000000000000000000000000000000000000000000000000000000000530053
#0643b0:53535353535353532300000000000000
#0643a0:0053005300530053005300530053005300000000000000000000000000000000
#064361:00000000000000001353535353535353
#064351:0000000000000000000000000000000000530053005300530053005300530053
#065361:23
#0643b0:00000000000000000000000013535353
#0643a0:0000000000000000000000000000000000000000000000000053005300530053
#0653b0:23
#067320:16
#068320:0022
#0673a1:0014
#067361:00000024
#0703a0:14545454545454545454545454545454
#070390:0054005400540054005400540054005400540054005400540054005400540054
#0713a0:24
#071321:1323
#071361:00530000
#0713b0:0013
#071370:00000053
#0723b0:23
#072361:13
#072321:00230000
#072371:0013
#0723b1:00000023
#073381:16
#0743c1:0022
#073320:0014
#073360:00000024
#076321:14545454545454545454545454545454
#076331:0054005400540054005400540054005400540054005400540054005400540054
#077321:24
#0783b1:1323
#078371:00330000
#078320:0013
#078360:00000033
#079320:23
#079381:14
#080361:28
#080320:14
#088320:22
#003990:120000000000000000000000000000000000000000000000000000000000000000000000000000000000000000000000000000000000000000000000000000000000000000000000000000000000000000000000000000000000000000000000000000000000000000000000000000000000000000000000000000000000000000000000000000000000000000000000000000000000000000000000000000000000000000000000000000000000000000000000000000000000000000000000000000000000000000000000000000000000000000000000000000000000000000000000000000000000000000000000000000000000000000000000000000000000000000000000000000000000000000000000000000000000000000000000000000000000000000000000000000000000000000000000000000000000000000000000000000000000000000000000000000000000000000000000000000000000000000000000000000000000000000000000000000000000000000000000000000000000000000000000000000000000000000000000000000000000000000000000000000000000000000000000000000000000000000000000000000000000000000000000000000000000000000000000000000000000000000000000000000000000000000000000000000000000000000000000000000000000000000000000000000000000000000000000000000000000000000000000000000000000000000000000000000000000000000000000000000000000000000000000000000000000000000000000000000000000000000000000000000000000000000000000000000000000000000000000000000000000000000000000000000000000000000000000000000000000000000000000000000000000000000000000000000000000000000000000000000000000000000000000000000000000000000000000000000000000000000000000000000000000000000000000000000000000000000000000000000000000000000000000000000000000000000000000000000000000000000000000000000000000000000000000000000000000000000000000000000000000000000000000000000000000000000000000000000000000000000000000000000000000000000000000000000000000000000000000000000000000000000000000000000000000000000000000000000000000000000000000000000000000000000000000000000000000000000000000000000000000000000000000000000000000000000000000000000000000000000000000000000000000000000000000000000000000000000000000000000000000000000000000000000000000000000000000000000000000000000000000000000000000000000000000000000000000000000000000000000000000000000000000000000000000000000000000000000000000000000000000000000000000000000000000000000000000000000000000000000000000000000000000000000000000000000000000000000000000000000000000000000000000000000000000000000000000000000000000000000000000000000000000000000000000000000000000000000000000000000000000000000000000000000000000000000000000000000000000000000000000000000000000000000000000000000000000000000000000000000000000000000000000000000000000000000000000000000000000000000000000000000000000000000000000000000000000000000000000000000000000000000000000000000000000000000000000000000000000000000000000000000000000000000000000000000000000000000000000000000000000000000000000000000000000000000000000000000000000000000000000000000000000000000000000000000000000000000000000000000000000000000000000000000000000000000000000000000000000000000000000000000000000000000000000000000000000000000000000000000000000000000000000000000000000000000000000000000000000000000000000000000000000000000000000000000000000000000000000000000000000000000000000000000000000000000000000000000000000000000000000000000000000000000000000000000000000000000000000000000000000000000000000000000000000000000000000000000000000000000000000000000000000000000000000000000000000000000000000000000000000000000000000000000000000000000000000000000000000000000000000000000000000000000000000000000000000000000000000000000000000000000000000000000000000000000000000000000000000000000000000000000000000000000000000000000000000000000000000000000000000000000000000000000000000000000000000000000000000000000000000000000000000000000000000000000000000000000000000000000000000000000000000000000000000000000000000000000000000000000000000000000000000000000000000000000000000000000000000000000000052
#004990:22
#004951:120000000000000000000000000000000000000000000000000000000000000000000000000000000000000000000000000000000000000000000000000000000000000000000000000000000000000000000000000000000000000000000000000000000000000000000000000000000000000000000000000000000000000000000000000000000000000000000000000000000000000000000000000000000000000000000000000000000000000000000000000000000000000000000000000000000000000000000000000000000000000000000000000000000000000000000000000000000000000000000000000000000000000000000000000000000000000000000000000000000000000000000000000000000000000000000000000000000000000000000000000000000000000000000000000000000000000000000000000000000000000000000000000000000000000000000000000000000000000000000000000000000000000000000000000000000000000000000000000000000000000000000000000000000000000000000000000000000000000000000000000000000000000000000000000000000000000000000000000000000000000000000000000000000000000000000000000000000000000000000000000000000000000000000000000000000000000000000000000000000000000000000000000000000000000000000000000000000000000000000000000000000000000000000000000000000000000000000000000000000000000000000000000000000000000000000000000000000000000000000000000000000000000000000000000000000000000000000000000000000000000000000000000000000000000000000000000000000000000000000000000000000000000000000000000000000000000000000000000000000000000000000000000000000000000000000000000000000000000000000000000000000000000000000000000000000000000000000000000000000000000000000000000000000000000000000000000000000000000000000000000000000000000000000000000000000000000000000000000000000000000000000000000000000000000000000000000000000000000000000000000000000000000000000000000000000000000000000000000000000000000000000000000000000000000000000000000000000000000000000000000000000000000000000000000000000000000000000000000000000000000000000000000000000000000000000000000000000000000000000000000000000000000000000000000000000000000000000000000000000000000000000000000000000000000000000000000000000000000000000000000000000000000000000000000000000000000000000000000000000000000000000000000000000000000000000000000000000000000000000000000000000000000000000000000000000000000000000000000000000000000000000000000000000000000000000000000000000000000000000000000000000000000000000000000000000000000000000000000000000000000000000000000000000000000000000000000000000000000000000000000000000000000000000000000000000000000000000000000000000000000000000000000000000000000000000000000000000000000000000000000000000000000000000000000000000000000000000000000000000000000000000000000000000000000000000000000000000000000000000000000000000000000000000000000000000000000000000000000000000000000000000000000000000000000000000000000000000000000000000000000000000000000000000000000000000000000000000000000000000000000000000000000000000000000000000000000000000000000000000000000000000000000000000000000000000000000000000000000000000000000000000000000000000000000000000000000000000000000000000000000000000000000000000000000000000000000000000000000000000000000000000000000000000000000000000000000000000000000000000000000000000000000000000000000000000000000000000000000000000000000000000000000000000000000000000000000000000000000000000000000000000000000000000000000000000000000000000000000000000000000000000000000000000000000000000000000000000000000000000000000000000000000000000000000000000000000000000000000000000000000000000000000000000000000000000000000000000000000000000000000000000000000000000000000000000000000000000000000000000000000000000000000000000000000000000000000000000000000000000000000000000000000000000000000000000000000000000000000000000000000000000000000000000000000000000000000000000000000000000000000000000000000000000000000000000000000000000000000000000000000000000000000000000000000000000000000000000000000000000052
#005951:22
#0059a0:120000000000000000000000000000000000000000000000000000000000000000000000000000000000000000000000000000000000000000000000000000000000000000000000000000000000000000000000000000000000000000000000000000000000000000000000000000000000000000000000000000000000000000000000000000000000000000000000000000000000000000000000000000000000000000000000000000000000000000000000000000000000000000000000000000000000000000000000000000000000000000000000000000000000000000000000000000000000000000000000000000000000000000000000000000000000000000000000000000000000000000000000000000000000000000000000000000000000000000000000000000000000000000000000000000000000000000000000000000000000000000000000000000000000000000000000000000000000000000000000000000000000000000000000000000000000000000000000000000000000000000000000000000000000000000000000000000000000000000000000000000000000000000000000000000000000000000000000000000000000000000000000000000000000000000000000000000000000000000000000000000000000000000000000000000000000000000000000000000000000000000000000000000000000000000000000000000000000000000000000000000000000000000000000000000000000000000000000000000000000000000000000000000000000000000000000000000000000000000000000000000000000000000000000000000000000000000000000000000000000000000000000000000000000000000000000000000000000000000000000000000000000000000000000000000000000000000000000000000000000000000000000000000000000000000000000000000000000000000000000000000000000000000000000000000000000000000000000000000000000000000000000000000000000000000000000000000000000000000000000000000000000000000000000000000000000000000000000000000000000000000000000000000000000000000000000000000000000000000000000000000000000000000000000000000000000000000000000000000000000000000000000000000000000000000000000000000000000000000000000000000000000000000000000000000000000000000000000000000000000000000000000000000000000000000000000000000000000000000000000000000000000000000000000000000000000000000000000000000000000000000000000000000000000000000000000000000000000000000000000000000000000000000000000000000000000000000000000000000000000000000000000000000000000000000000000000000000000000000000000000000000000000000000000000000000000000000000000000000000000000000000000000000000000000000000000000000000000000000000000000000000000000000000000000000000000000000000000000000000000000000000000000000000000000000000000000000000000000000000000000000000000000000000000000000000000000000000000000000000000000000000000000000000000000000000000000000000000000000000000000000000000000000000000000000000000000000000000000000000000000000000000000000000000000000000000000000000000000000000000000000000000000000000000000000000000000000000000000000000000000000000000000000000000000000000000000000000000000000000000000000000000000000000000000000000000000000000000000000000000000000000000000000000000000000000000000000000000000000000000000000000000000000000000000000000000000000000000000000000000000000000000000000000000000000000000000000000000000000000000000000000000000000000000000000000000000000000000000000000000000000000000000000000000000000000000000000000000000000000000000000000000000000000000000000000000000000000000000000000000000000000000000000000000000000000000000000000000000000000000000000000000000000000000000000000000000000000000000000000000000000000000000000000000000000000000000000000000000000000000000000000000000000000000000000000000000000000000000000000000000000000000000000000000000000000000000000000000000000000000000000000000000000000000000000000000000000000000000000000000000000000000000000000000000000000000000000000000000000000000000000000000000000000000000000000000000000000000000000000000000000000000000000000000000000000000000000000000000000000000000000000000000000000000000000000000000000000000000000000000000000000000000000000000000000000000000000000000000000000052
#0069a0:22
#006941:120000000000000000000000000000000000000000000000000000000000000000000000000000000000000000000000000000000000000000000000000000000000000000000000000000000000000000000000000000000000000000000000000000000000000000000000000000000000000000000000000000000000000000000000000000000000000000000000000000000000000000000000000000000000000000000000000000000000000000000000000000000000000000000000000000000000000000000000000000000000000000000000000000000000000000000000000000000000000000000000000000000000000000000000000000000000000000000000000000000000000000000000000000000000000000000000000000000000000000000000000000000000000000000000000000000000000000000000000000000000000000000000000000000000000000000000000000000000000000000000000000000000000000000000000000000000000000000000000000000000000000000000000000000000000000000000000000000000000000000000000000000000000000000000000000000000000000000000000000000000000000000000000000000000000000000000000000000000000000000000000000000000000000000000000000000000000000000000000000000000000000000000000000000000000000000000000000000000000000000000000000000000000000000000000000000000000000000000000000000000000000000000000000000000000000000000000000000000000000000000000000000000000000000000000000000000000000000000000000000000000000000000000000000000000000000000000000000000000000000000000000000000000000000000000000000000000000000000000000000000000000000000000000000000000000000000000000000000000000000000000000000000000000000000000000000000000000000000000000000000000000000000000000000000000000000000000000000000000000000000000000000000000000000000000000000000000000000000000000000000000000000000000000000000000000000000000000000000000000000000000000000000000000000000000000000000000000000000000000000000000000000000000000000000000000000000000000000000000000000000000000000000000000000000000000000000000000000000000000000000000000000000000000000000000000000000000000000000000000000000000000000000000000000000000000000000000000000000000000000000000000000000000000000000000000000000000000000000000000000000000000000000000000000000000000000000000000000000000000000000000000000000000000000000000000000000000000000000000000000000000000000000000000000000000000000000000000000000000000000000000000000000000000000000000000000000000000000000000000000000000000000000000000000000000000000000000000000000000000000000000000000000000000000000000000000000000000000000000000000000000000000000000000000000000000000000000000000000000000000000000000000000000000000000000000000000000000000000000000000000000000000000000000000000000000000000000000000000000000000000000000000000000000000000000000000000000000000000000000000000000000000000000000000000000000000000000000000000000000000000000000000000000000000000000000000000000000000000000000000000000000000000000000000000000000000000000000000000000000000000000000000000000000000000000000000000000000000000000000000000000000000000000000000000000000000000000000000000000000000000000000000000000000000000000000000000000000000000000000000000000000000000000000000000000000000000000000000000000000000000000000000000000000000000000000000000000000000000000000000000000000000000000000000000000000000000000000000000000000000000000000000000000000000000000000000000000000000000000000000000000000000000000000000000000000000000000000000000000000000000000000000000000000000000000000000000000000000000000000000000000000000000000000000000000000000000000000000000000000000000000000000000000000000000000000000000000000000000000000000000000000000000000000000000000000000000000000000000000000000000000000000000000000000000000000000000000000000000000000000000000000000000000000000000000000000000000000000000000000000000000000000000000000000000000000000000000000000000000000000000000000000000000000000000000000000000000000000000000000000000000000000000000000000000000000000000000000000000000000000052
#007941:22
#0079b0:120000000000000000000000000000000000000000000000000000000000000000000000000000000000000000000000000000000000000000000000000000000000000000000000000000000000000000000000000000000000000000000000000000000000000000000000000000000000000000000000000000000000000000000000000000000000000000000000000000000000000000000000000000000000000000000000000000000000000000000000000000000000000000000000000000000000000000000000000000000000000000000000000000000000000000000000000000000000000000000000000000000000000000000000000000000000000000000000000000000000000000000000000000000000000000000000000000000000000000000000000000000000000000000000000000000000000000000000000000000000000000000000000000000000000000000000000000000000000000000000000000000000000000000000000000000000000000000000000000000000000000000000000000000000000000000000000000000000000000000000000000000000000000000000000000000000000000000000000000000000000000000000000000000000000000000000000000000000000000000000000000000000000000000000000000000000000000000000000000000000000000000000000000000000000000000000000000000000000000000000000000000000000000000000000000000000000000000000000000000000000000000000000000000000000000000000000000000000000000000000000000000000000000000000000000000000000000000000000000000000000000000000000000000000000000000000000000000000000000000000000000000000000000000000000000000000000000000000000000000000000000000000000000000000000000000000000000000000000000000000000000000000000000000000000000000000000000000000000000000000000000000000000000000000000000000000000000000000000000000000000000000000000000000000000000000000000000000000000000000000000000000000000000000000000000000000000000000000000000000000000000000000000000000000000000000000000000000000000000000000000000000000000000000000000000000000000000000000000000000000000000000000000000000000000000000000000000000000000000000000000000000000000000000000000000000000000000000000000000000000000000000000000000000000000000000000000000000000000000000000000000000000000000000000000000000000000000000000000000000000000000000000000000000000000000000000000000000000000000000000000000000000000000000000000000000000000000000000000000000000000000000000000000000000000000000000000000000000000000000000000000000000000000000000000000000000000000000000000000000000000000000000000000000000000000000000000000000000000000000000000000000000000000000000000000000000000000000000000000000000000000000000000000000000000000000000000000000000000000000000000000000000000000000000000000000000000000000000000000000000000000000000000000000000000000000000000000000000000000000000000000000000000000000000000000000000000000000000000000000000000000000000000000000000000000000000000000000000000000000000000000000000000000000000000000000000000000000000000000000000000000000000000000000000000000000000000000000000000000000000000000000000000000000000000000000000000000000000000000000000000000000000000000000000000000000000000000000000000000000000000000000000000000000000000000000000000000000000000000000000000000000000000000000000000000000000000000000000000000000000000000000000000000000000000000000000000000000000000000000000000000000000000000000000000000000000000000000000000000000000000000000000000000000000000000000000000000000000000000000000000000000000000000000000000000000000000000000000000000000000000000000000000000000000000000000000000000000000000000000000000000000000000000000000000000000000000000000000000000000000000000000000000000000000000000000000000000000000000000000000000000000000000000000000000000000000000000000000000000000000000000000000000000000000000000000000000000000000000000000000000000000000000000000000000000000000000000000000000000000000000000000000000000000000000000000000000000000000000000000000000000000000000000000000000000000000000000000000000000000000000000000000000000000000000000000000000000000000000000000052
#0089b0:22
#008931:120000000000000000000000000000000000000000000000000000000000000000000000000000000000000000000000000000000000000000000000000000000000000000000000000000000000000000000000000000000000000000000000000000000000000000000000000000000000000000000000000000000000000000000000000000000000000000000000000000000000000000000000000000000000000000000000000000000000000000000000000000000000000000000000000000000000000000000000000000000000000000000000000000000000000000000000000000000000000000000000000000000000000000000000000000000000000000000000000000000000000000000000000000000000000000000000000000000000000000000000000000000000000000000000000000000000000000000000000000000000000000000000000000000000000000000000000000000000000000000000000000000000000000000000000000000000000000000000000000000000000000000000000000000000000000000000000000000000000000000000000000000000000000000000000000000000000000000000000000000000000000000000000000000000000000000000000000000000000000000000000000000000000000000000000000000000000000000000000000000000000000000000000000000000000000000000000000000000000000000000000000000000000000000000000000000000000000000000000000000000000000000000000000000000000000000000000000000000000000000000000000000000000000000000000000000000000000000000000000000000000000000000000000000000000000000000000000000000000000000000000000000000000000000000000000000000000000000000000000000000000000000000000000000000000000000000000000000000000000000000000000000000000000000000000000000000000000000000000000000000000000000000000000000000000000000000000000000000000000000000000000000000000000000000000000000000000000000000000000000000000000000000000000000000000000000000000000000000000000000000000000000000000000000000000000000000000000000000000000000000000000000000000000000000000000000000000000000000000000000000000000000000000000000000000000000000000000000000000000000000000000000000000000000000000000000000000000000000000000000000000000000000000000000000000000000000000000000000000000000000000000000000000000000000000000000000000000000000000000000000000000000000000000000000000000000000000000000000000000000000000000000000000000000000000000000000000000000000000000000000000000000000000000000000000000000000000000000000000000000000000000000000000000000000000000000000000000000000000000000000000000000000000000000000000000000000000000000000000000000000000000000000000000000000000000000000000000000000000000000000000000000000000000000000000000000000000000000000000000000000000000000000000000000000000000000000000000000000000000000000000000000000000000000000000000000000000000000000000000000000000000000000000000000000000000000000000000000000000000000000000000000000000000000000000000000000000000000000000000000000000000000000000000000000000000000000000000000000000000000000000000000000000000000000000000000000000000000000000000000000000000000000000000000000000000000000000000000000000000000000000000000000000000000000000000000000000000000000000000000000000000000000000000000000000000000000000000000000000000000000000000000000000000000000000000000000000000000000000000000000000000000000000000000000000000000000000000000000000000000000000000000000000000000000000000000000000000000000000000000000000000000000000000000000000000000000000000000000000000000000000000000000000000000000000000000000000000000000000000000000000000000000000000000000000000000000000000000000000000000000000000000000000000000000000000000000000000000000000000000000000000000000000000000000000000000000000000000000000000000000000000000000000000000000000000000000000000000000000000000000000000000000000000000000000000000000000000000000000000000000000000000000000000000000000000000000000000000000000000000000000000000000000000000000000000000000000000000000000000000000000000000000000000000000000000000000000000000000000000000000000000000000000000000000000000000000000000000000000000000052
#009931:22
#0099c0:120000000000000000000000000000000000000000000000000000000000000000000000000000000000000000000000000000000000000000000000000000000000000000000000000000000000000000000000000000000000000000000000000000000000000000000000000000000000000000000000000000000000000000000000000000000000000000000000000000000000000000000000000000000000000000000000000000000000000000000000000000000000000000000000000000000000000000000000000000000000000000000000000000000000000000000000000000000000000000000000000000000000000000000000000000000000000000000000000000000000000000000000000000000000000000000000000000000000000000000000000000000000000000000000000000000000000000000000000000000000000000000000000000000000000000000000000000000000000000000000000000000000000000000000000000000000000000000000000000000000000000000000000000000000000000000000000000000000000000000000000000000000000000000000000000000000000000000000000000000000000000000000000000000000000000000000000000000000000000000000000000000000000000000000000000000000000000000000000000000000000000000000000000000000000000000000000000000000000000000000000000000000000000000000000000000000000000000000000000000000000000000000000000000000000000000000000000000000000000000000000000000000000000000000000000000000000000000000000000000000000000000000000000000000000000000000000000000000000000000000000000000000000000000000000000000000000000000000000000000000000000000000000000000000000000000000000000000000000000000000000000000000000000000000000000000000000000000000000000000000000000000000000000000000000000000000000000000000000000000000000000000000000000000000000000000000000000000000000000000000000000000000000000000000000000000000000000000000000000000000000000000000000000000000000000000000000000000000000000000000000000000000000000000000000000000000000000000000000000000000000000000000000000000000000000000000000000000000000000000000000000000000000000000000000000000000000000000000000000000000000000000000000000000000000000000000000000000000000000000000000000000000000000000000000000000000000000000000000000000000000000000000000000000000000000000000000000000000000000000000000000000000000000000000000000000000000000000000000000000000000000000000000000000000000000000000000000000000000000000000000000000000000000000000000000000000000000000000000000000000000000000000000000000000000000000000000000000000000000000000000000000000000000000000000000000000000000000000000000000000000000000000000000000000000000000000000000000000000000000000000000000000000000000000000000000000000000000000000000000000000000000000000000000000000000000000000000000000000000000000000000000000000000000000000000000000000000000000000000000000000000000000000000000000000000000000000000000000000000000000000000000000000000000000000000000000000000000000000000000000000000000000000000000000000000000000000000000000000000000000000000000000000000000000000000000000000000000000000000000000000000000000000000000000000000000000000000000000000000000000000000000000000000000000000000000000000000000000000000000000000000000000000000000000000000000000000000000000000000000000000000000000000000000000000000000000000000000000000000000000000000000000000000000000000000000000000000000000000000000000000000000000000000000000000000000000000000000000000000000000000000000000000000000000000000000000000000000000000000000000000000000000000000000000000000000000000000000000000000000000000000000000000000000000000000000000000000000000000000000000000000000000000000000000000000000000000000000000000000000000000000000000000000000000000000000000000000000000000000000000000000000000000000000000000000000000000000000000000000000000000000000000000000000000000000000000000000000000000000000000000000000000000000000000000000000000000000000000000000000000000000000000000000000000000000000000000000000000000000000000000000000000000000000000000000000000000000000000000000000052
#0109c0:22
#010921:120000000000000000000000000000000000000000000000000000000000000000000000000000000000000000000000000000000000000000000000000000000000000000000000000000000000000000000000000000000000000000000000000000000000000000000000000000000000000000000000000000000000000000000000000000000000000000000000000000000000000000000000000000000000000000000000000000000000000000000000000000000000000000000000000000000000000000000000000000000000000000000000000000000000000000000000000000000000000000000000000000000000000000000000000000000000000000000000000000000000000000000000000000000000000000000000000000000000000000000000000000000000000000000000000000000000000000000000000000000000000000000000000000000000000000000000000000000000000000000000000000000000000000000000000000000000000000000000000000000000000000000000000000000000000000000000000000000000000000000000000000000000000000000000000000000000000000000000000000000000000000000000000000000000000000000000000000000000000000000000000000000000000000000000000000000000000000000000000000000000000000000000000000000000000000000000000000000000000000000000000000000000000000000000000000000000000000000000000000000000000000000000000000000000000000000000000000000000000000000000000000000000000000000000000000000000000000000000000000000000000000000000000000000000000000000000000000000000000000000000000000000000000000000000000000000000000000000000000000000000000000000000000000000000000000000000000000000000000000000000000000000000000000000000000000000000000000000000000000000000000000000000000000000000000000000000000000000000000000000000000000000000000000000000000000000000000000000000000000000000000000000000000000000000000000000000000000000000000000000000000000000000000000000000000000000000000000000000000000000000000000000000000000000000000000000000000000000000000000000000000000000000000000000000000000000000000000000000000000000000000000000000000000000000000000000000000000000000000000000000000000000000000000000000000000000000000000000000000000000000000000000000000000000000000000000000000000000000000000000000000000000000000000000000000000000000000000000000000000000000000000000000000000000000000000000000000000000000000000000000000000000000000000000000000000000000000000000000000000000000000000000000000000000000000000000000000000000000000000000000000000000000000000000000000000000000000000000000000000000000000000000000000000000000000000000000000000000000000000000000000000000000000000000000000000000000000000000000000000000000000000000000000000000000000000000000000000000000000000000000000000000000000000000000000000000000000000000000000000000000000000000000000000000000000000000000000000000000000000000000000000000000000000000000000000000000000000000000000000000000000000000000000000000000000000000000000000000000000000000000000000000000000000000000000000000000000000000000000000000000000000000000000000000000000000000000000000000000000000000000000000000000000000000000000000000000000000000000000000000000000000000000000000000000000000000000000000000000000000000000000000000000000000000000000000000000000000000000000000000000000000000000000000000000000000000000000000000000000000000000000000000000000000000000000000000000000000000000000000000000000000000000000000000000000000000000000000000000000000000000000000000000000000000000000000000000000000000000000000000000000000000000000000000000000000000000000000000000000000000000000000000000000000000000000000000000000000000000000000000000000000000000000000000000000000000000000000000000000000000000000000000000000000000000000000000000000000000000000000000000000000000000000000000000000000000000000000000000000000000000000000000000000000000000000000000000000000000000000000000000000000000000000000000000000000000000000000000000000000000000000000000000000000000000000000000000000000000000000000000000000000000000000000000000000000000000000000000000000000000052
#011921:22
#018971:0013
#0189b1:00000023
#018960:00000013
#019920:23
