This file was generated by Ched 2.7.0.0.
#TITLE ""
#ARTIST ""
#DESIGNER ""
#DIFFICULTY 0
#PLAYLEVEL
#SONGID ""
#WAVE ""
#WAVEOFFSET 0
#JACKET ""
#REQUEST "ticks_per_beat 480"
#00002: 4
#BPM01: 192
#00008: 01
#TIL00: ""
#VOLUME: ""
#HISPEED 00
#MEASUREHS 00
#03612:00140000
#0361a:00000014
#03616:1414
#03610:41
#01118:1414
#01110:41
#05012:13
#0501b:13
#05015:00130013
#05018:0013
#08015:16
#06716:0014
#0671a:24
#06812:14
#06816:0014
#0691a:14
#06916:0014
#01218:1414
#01314:1414
#01414:1414
#0151a:1414
#01612:1414
#01718:14
#01714:0014
#01812:14
#0181a:14
#01818:0014
#01814:00000014
#02016:14
#0201a:0014
#02314:0014
#02318:00000014
#0231a:24
#02414:1414
#02418:00140014
#02712:00140000
#02716:0014
#0271a:24000014
#02814:1414
#02818:00140014
#01912:0014
#0191f:11
#0191a:24
#02216:14
#02212:0014
#0211a:0014
#02112:24
#02518:0014
#02514:00000014
#02512:24
#02618:1414
#02614:00140014
#0291a:00140000
#02916:0014
#02912:24000014
#03018:14
#03014:00140000
#03118:16
#0321a:00140000
#03318:14
#03518:00140000
#03514:0014
#0351a:00000014
#03512:24
#0351f:21
#03812:00140000
#0381a:00000014
#03816:1414
#03718:00140000
#03714:0014
#0371a:00000014
#03712:24
#03915:14
#03919:00140000
#03914:0014
#03918:00000014
#04013:14
#04017:00140000
#04012:0014
#04016:00000014
#04114:0014
#04118:00000014
#0411a:24
#04212:14
#0421a:00140000
#04214:0014
#04218:00000014
#04418:1414
#04414:00140014
#04314:14
#04518:14
#04614:1414
#04618:00140014
#04712:14
#04710:41
#0481a:14
#04912:14
#0491a:14
#0521a:00140000
#05212:00000014
#05216:1414
#05114:00140000
#05118:0014
#05112:00000014
#0511a:24
#0541a:00140000
#05412:00000014
#05416:1414
#05314:00140000
#05318:0014
#05312:00000014
#0531a:24
#05517:14
#05513:00140000
#05518:0014
#05514:00000014
#05510:41
#05619:14
#05615:00140000
#0561a:0014
#05616:00000014
#05718:0014
#05714:00000014
#05712:24
#0581a:14
#05812:00140000
#05818:0014
#05814:00000014
#0591a:14
#05917:00000034
#05918:0034
#05919:00340000
#06016:14
#06019:00000034
#06018:0034
#06017:00340000
#06114:0014
#06118:00000014
#06212:14
#0621a:00140000
#06214:0014
#06218:00000014
#06312:14
#06315:00000034
#06314:0034
#06313:00340000
#06416:14
#06413:00000034
#06414:0034
#06415:00340000
#06410:41
#06618:1414
#06614:00140014
#07012:14
#07014:0014
#07118:0014
#07214:0014
#07316:0014
#07312:24
#07310:41
#0741a:14
#07416:0014
#07512:14
#07516:0014
#0761a:14
#07618:0014
#07712:0014
#0781a:14
#07812:00150016
#07819:0015
#07918:26
#0675a:14
#07352:14
#08055:56
#0195a:14
#0275a:14
#02152:14
#0235a:14
#02552:14
#02952:14
#03158:56
#0325a:00640000
#03358:54
#03552:14
#03752:14
#0415a:14
#04354:64
#04352:0014
#04558:54
#0455a:0014
#04752:54
#04754:0014
#0485a:64
#04858:0014
#04952:54
#04954:0014
#0495a:64
#04958:0014
#0535a:14
#05752:14
#0595a:64
#06056:54
#0615a:14
#06352:54
#06456:64
#06552:14
#07052:54
#07054:0064
#07152:14
#07158:0054
#0725a:14
#07254:0064
#0765a:64
#07658:0054
#0775a:14
#0515a:14
#07958:66
#0033a0:14
#004380:24
#005320:14
#006340:24
#007380:14
#0083a0:24
#009340:14
#010320:24
#031380:16
#0323a0:00340000
#033380:34
#0343a0:24
#043340:14
#043320:0024
#045380:14
#0453a0:0024
#047320:14
#047340:0024
#0483a0:14
#048380:0024
#049320:14
#049340:0024
#0493a1:14
#049381:0024
#0593a1:14
#059391:00340000
#059381:0034
#059371:00000034
#060361:34
#060371:00340000
#060381:0034
#060391:00000034
#0613a1:24
#063321:14
#063331:00340000
#063341:0034
#063351:00000034
#064361:34
#064351:00340000
#064341:0034
#064331:00000034
#065321:24
#070321:14
#070341:0034
#071321:24
#071381:0014
#0723a1:24
#072341:0014
#073321:24
#0763a1:14
#076381:0034
#0773a1:24
#079381:16
#080351:36
#0883b1:23
