This file was generated by Ched 2.7.0.0.
#TITLE ""
#ARTIST ""
#DESIGNER ""
#DIFFICULTY 0
#PLAYLEVEL
#SONGID ""
#WAVE ""
#WAVEOFFSET 0
#JACKET ""
#REQUEST "ticks_per_beat 480"
#00002: 4
#BPM01: 140
#00008: 01
#TIL00: ""
#VOLUME: ""
#HISPEED 00
#MEASUREHS 00
#00518:14
#00510:41
#00618:14
#00714:14
#00814:14
#0091a:14
#0101a:14
#01112:14
#01212:14
#02112:0016
#02118:26
#02110:41
#02218:16
#02212:0016
#02512:0016
#02518:16
#02618:16
#02612:0016
#02918:1414
#02910:41
#03114:1414
#0331a:14
#03312:0014
#0341a:14
#03412:0014
#03818:14
#03914:14
#04012:14
#0451a:14
#0451f:11
#04614:14
#04718:14
#04812:14
#04918:14
#05014:14
#05418:1616
#05410:41
#05712:1616
#05818:1616
#06114:14
#06113:0014
#06318:14
#06319:0014
#06514:14
#06518:0014
#06612:14
#0661a:0014
#05312:2616
#0531f:21
#0371a:24
#03710:41
#05119:24
#01310:41
#001380:16
#002380:26
#003320:16
#004320:26
#0133a0:14
#0143a0:24
#015320:14
#016320:24
#017380:14
#018380:24
#019340:14
#020340:24
#023380:1626
#024320:1626
#027380:1626
#028320:1626
#030380:1424
#032340:1424
#035380:1424
#036340:1424
#041380:14
#0423a0:24
#043340:14
#044320:24
#051390:14
#052380:26
#055320:1626
#056380:1626
#059320:1626
#060380:1626
#062320:1424
#0643a0:1424
#067340:1424
#068380:14003424
