This file was generated by Ched 2.7.0.0.
#TITLE ""
#ARTIST ""
#DESIGNER ""
#DIFFICULTY 0
#PLAYLEVEL
#SONGID ""
#WAVE ""
#WAVEOFFSET 0
#JACKET ""
#REQUEST "ticks_per_beat 480"
#00002: 4
#BPM01: 140
#00008: 01
#TIL00: ""
#VOLUME: ""
#HISPEED 00
#MEASUREHS 00
#05014:0014000000000014
#05016:00140014
#05018:0000001400140000
#0501a:0014
#0501b:13
#05012:1424
#00512:1413
#0051a:14
#00518:0013001300130000
#00515:00130013
#00510:41
#0081a:0014
#00812:14000000000000000000001300000000
#0081b:00000013000000000000000000000000
#00817:1300001300000000
#00816:00000014000000001300001400000000
#00912:0013000000000000
#00918:00130000
#00915:0000001300000000
#0091b:00000013
#00916:0000000000131300
#01015:00130000
#0101b:0013000000000000
#01018:0000001300000000
#01012:00000013
#01017:0000000000131300
#01112:0013000000000000
#01118:00130000
#01115:0000001300000000
#0211b:13131300
#02118:0013000000000000
#02115:00130000
#02112:0000001300002400
#02116:0024
#02110:41
#02413:00000014
#02419:00000014
#02416:1414000000000000
#0241a:00140000
#02417:0000001400000000
#02412:0014
#0451b:0000000000001313
#04515:1300000013130000
#04518:00000000000000000013000000000000
#04512:0000140000001313
#0451a:0000001400000000
#0451f:11
#04615:00131300
#04618:0000001300000000
#0461b:0013
#04612:0013000000001414
#04616:0000000000000014
#0061b:1313
#00615:0013001300130000
#00618:00130013
#00718:0013001300001300
#00712:1313
#00715:0000130000130000
#0071b:0000000000000013
#01318:00001300130000000000000000000013
#01315:00000013000000000000000000001300
#01312:0000001313130000
#0131b:0000001313130000
#01310:41
#01515:00001300130000000000000000000013
#01518:00000013000000000000000000001300
#0151b:0000001313130000
#01512:0000001313130000
#0171b:0013130000000013
#01712:00000013000000000000000000000000
#01714:0000001313130000
#01719:0000001313130000
#01815:0013230000130000
#01818:0023130000130000
#01812:0000001323000000
#0181b:0000001323000000
#01814:00000013
#01819:00000013
#02316:1414000000000000
#02312:00140000
#02318:0000000000130000
#02315:00000000000014000000001300000000
#0231a:0000000000001414
#02812:00140013
#02818:00000013
#02816:1414000000000000
#02815:0000001400000000
#0281a:0014
#02912:00000013000013001300000000000000
#0291b:13000000000000000000001300001300
#02916:13
#02917:0013
#02910:41
#03012:00000013000013002400000000000000
#0301b:13
#03016:13
#03017:0024
#03415:0000000000000013
#0341a:00000014
#03416:24242400
#0351b:1300130000000013
#03515:0000001300131300
#03512:13130000
#03518:00001300000013000000001300000000
#03612:13
#0361b:0013130000000000
#03614:0024
#03618:0024
#04712:0000000000001313
#04718:0000000013130000
#04715:00000000000000000013000000000000
#0471b:0000000000001313
#0481b:0013130000000000
#04816:00130000
#04812:00002326
#04818:0000000000230026
#04917:0000000000130013
#04912:16142414
#0491b:00130000
#05118:00130000000000000000000000000000
#05113:0013000000000000
#05119:00000013000000000000000000000000
#05114:00130000
#0511a:00000000001300000000000000000000
#05115:0000001300000000
#0511b:00000000000000130000000000000000
#05116:000000000000000000000000000000000000000000000000140000340000340000340000340034003400340034003400
#05112:24
#0531a:14
#05318:0014000000002300
#05316:00140000
#05314:0000001400000000
#05312:2600000014000013
#05317:0013
#0531b:0000000000130000
#05315:00000023
#0531f:21
#0611b:13000000000000000000001300000000
#06117:00000013000000001300000000000000
#06116:00000000000000000000001300000000
#06112:00000023000000002300000000000000
#0621b:13
#06217:00000013000000002400000000000000
#06216:23
#06212:00000023000000002400000000000000
#06615:1300000013000013
#06618:1313
#0661a:0013000000000000
#06612:0013001300000000
#06617:00130000
#06614:00130000
#0661b:0000001300000000
#0671b:1300130000000013
#06715:0000001300131313
#06712:13130000
#06718:00001300000013000000001300000000
#06818:1313000000000000
#06816:00001424
#0681a:0014
#06812:00000024
#05712:1400000000130000
#05714:0014000000000000
#05716:00141300
#05718:0000001400002300
#0571a:0014
#0571b:0000000000000013
#05715:00000023
#0651a:1400000024140000
#06518:0014000000000000
#06516:00140013
#06514:0000001400000000
#0651b:0000130000000013
#06512:2400000024140000
#06519:00000013
#06513:0000000000000013
#00113:12
#00118:0012000000000000
#0011b:00005212
#00117:00000012
#00119:00520000
#0011a:0000005200000000
#00213:1212000000000000
#00217:12000012
#0021b:0012
#00219:0000000000120000
#00215:0000005200000012
#00214:00520000
#00216:0052
#00313:12
#00317:0012000000001200
#0031b:00000012
#00318:00520000
#00319:0000005200000000
#0031a:0052
#00413:12
#00417:1200000000220000
#0041b:0022000000000000
#0041a:00220000
#00419:0000002200000000
#00418:0022
#00416:00000022
#00415:0000000000000022
#01212:00000013000000001400000000000000
#0121a:14
#01216:00000014000013000000001400000000
#0121b:00000000000000000000001300000000
#01217:0013
#0141b:0013
#01412:0013
#01415:1300000000130000
#01414:00000013
#01419:00000013
#01418:0000000000130000
#01417:00230000
#0161b:1300000000130000
#01612:0000230000130000
#01613:00000013
#0161a:00000013
#01618:0013
#01615:0013
#01915:0013130000000013
#01918:00000013000000000000000013000000
#0191b:0000001313130000
#01912:0000001313130000
#02018:0024000016000000
#02016:00240015
#0201a:24
#02014:0000002400000000
#02012:0024
#02212:0000240000001414
#0221a:2424
#02512:24131300
#02515:0013000000000000
#02518:00130000
#0251b:0000001300000000
#0251a:24000024
#02516:0024
#02716:1414000000000000
#0271a:00140000
#02715:0000000000130000
#02717:0000001400000000
#02718:00000000000000000000001300000000
#02712:0000000000001414
#0261a:0000240000001414
#02612:2424
#0311b:00000013000013001300000000000000
#03112:13000000000000000000001300001300
#03117:1300000000330000
#03116:0013
#0321b:00000013000013000000000000000000
#03212:13
#03217:13
#0321a:0024
#03215:0024
#03216:0033000000000000
#03314:0000001300000000
#03316:00001324
#03319:0013000000000000
#03317:00130000
#03312:24130000
#0331a:2424
#03718:13
#0371c:0000121200000000
#03719:0000000000121200
#03710:41
#03912:0000121200000000
#03915:0000000000121200
#04219:0012000000000000
#0411c:0000000000121200
#0411a:0000121200000000
#04012:0012000000000000
#0381c:0012000000000000
#04415:0012000000000000
#04312:0000000000121200
#04314:0000121200000000
#0541b:0013000000130000
#05412:0000001300001414
#05418:2323
#05415:00230000
#05410:41
#0551b:13
#05516:1300001400000000
#05512:0014140000000000
#05518:0000000000130000
#05515:00000000000000000000001300000000
#0551a:0000000024001414
#05517:00140000
#05616:0000001400000000
#0561a:0014140000000000
#05615:0000140000240000
#05612:1324
#05617:13
#05618:00000024
#05812:0013000000130000
#0581b:0000001300000000
#0581a:0000000000001414
#05815:2323
#05818:00230000
#05912:1300000024001414
#05917:13
#0591a:0014140000000000
#05915:0000140000130000
#05918:00000000000000000000001300000000
#05916:0000001400000000
#06016:1300001400000000
#06012:0014140000000000
#06017:0000140000240000
#0601b:13
#0601a:0024
#06014:00000024
#06312:13000000000000000000001300000000
#06316:00000013000000001300000000000000
#06317:13000000000000000000331300000000
#0631b:00000023000000002300000000000000
#06412:13
#06416:00003313000000000000000000000000
#06417:23
#0641b:00000023000000000000000000000000
#0641a:0024
#06415:0024
#0085a:0054
#00852:54000000000000000000005300000000
#00856:00000064000000000000005400000000
#02052:0064
#02058:0046
#02056:00000025
#0215b:0063
#02152:36000064
#0455b:0000000000000053
#04558:13
#04555:13
#0465b:0053
#04656:0000000000000054
#04652:0000000000000054
#01552:1300000000130000
#0155b:1300000000130000
#01457:00530000
#0145b:0063
#01452:0053
#01454:00000063
#01459:00000063
#01458:0000000000230000
#01455:6300000000230000
#01758:13
#01755:13
#01752:0000000000000013
#0175b:0000000000000013
#01652:0000530000230000
#0165b:6300000000230000
#01653:00000063
#0165a:00000053
#01658:0063
#01655:0053
#0195b:13
#01952:13
#0185b:0053
#01852:0063
#01855:0000000000230000
#01858:0000000000230000
#01854:00000063
#01859:00000053
#03055:00000000000000000000001400000000
#0305a:00000000000000000000001400000000
#0305b:53
#03257:00000000000000000000001400000000
#03252:63000000000000000000001400000000
#0295b:53
#02952:0063
#03555:0000002300000000
#03552:00630000
#03558:0000002300000000
#0355b:00530000
#03652:53
#03654:0014
#0365b:00630000
#03658:0014
#04756:0014000000000000
#0475a:0014000000000000
#04752:0000000000000063
#05156:0054
#05252:1c
#0615b:53000000000000000000005300000000
#06157:00000053000000000000000000000000
#06156:00000000000000000000006300000000
#06152:14000063000000006300000000000000
#0625b:53
#06257:00000053000000000000000000000000
#06252:00000063000000000000000000000000
#0625a:00000000000000000000001400000000
#06255:00000000000000000000001400000000
#06755:0000002300000000
#06752:00630000
#06758:0000002300000000
#0675b:00530000
#0685a:0054
#06856:00005414
#06852:00000014
#00555:00000063
#00658:00000053
#0095b:00000063
#00956:00000063
#01052:00000053
#01057:00000053
#01252:0064
#0125a:64
#01256:00000054000000000000006400000000
#0125b:00000000000000000000006300000000
#01352:1400000000130000
#01357:13
#0135b:0000000000130000
#02352:00643400
#02355:0000002400000000
#0225a:5454
#02252:00640000
#0245a:00544400
#02457:0000002400000000
#02452:0034
#02552:0053
#0255a:00000054
#0275a:00544400
#02757:0000002400000000
#02852:00643400
#02855:0000002400000000
#0285a:0044
#02652:6464
#0265a:00540000
#03152:63
#0315b:0053
#03456:54645400
#03356:00006364
#03758:13
#0375c:0000001200000000
#03759:00000052
#03952:0000001200000000
#03955:13000062
#04158:13
#0415c:00000062
#0415a:0000001200000000
#04355:13
#04352:00000052
#04354:0000001200000000
#04259:0022000000000000
#0425c:0042
#04052:0022000000000000
#04055:0012
#0385c:0022000000000000
#03859:0012
#04455:0022000000000000
#04452:0032
#0485b:00630000
#05352:3600000000000023
#0535b:0000000000230000
#05357:0063
#05355:00000063
#05358:00000013
#05455:13631300
#0545b:0023000000230000
#05458:53135313
#05452:0000002300000000
#05656:0000002400000000
#0565a:00544400
#05658:00000064
#05556:0000002400000000
#05552:00643400
#0575a:14
#05756:0053
#05752:0000000000230000
#0575b:0000000000000023
#05758:00000053
#05755:00000013
#05852:0023000000230000
#0585b:0000002300000000
#05855:63136313
#05858:13531300
#06056:0000002400000000
#06052:00643400
#06054:00000054
#05956:0000002400000000
#0595a:00544400
#06352:63000000000000000000006300000000
#06356:00000063000000000000000000000000
#06357:00000000000000000000005300000000
#0635b:00000053000000005300000000000000
#06452:63000000000000000000001400000000
#06456:00000063000000000000000000000000
#0645b:00000053000000000000000000000000
#06457:00000000000000000000001400000000
#0655a:0000000000240000
#06552:0000000000240000
#06556:00000063
#06559:00000063
#0655b:0000000000000023
#06553:0000000000000023
#06658:6363
#06655:6363
#0665a:0023000000000000
#06652:0023002300000000
#06657:00630000
#06654:00630000
#0665b:0000002300000000
#005350:00000013
#006320:23
#006380:00000013
#0073b0:23
#008320:1400002400000000
#008360:00000034000000000000000000000000
#0083a0:0014
#008360:00000000000000000000003400000000
#0093a0:24
#008321:00000000000000000000001300000000
#009361:23
#0093b1:00001333
#010371:23
#009360:00000013
#010320:23
#010320:00001333
#011360:23
#010371:00000013
#0113b1:23
#0113b1:0000000013230000
#011350:0000000000132300
#011381:0000000000001323
#011320:0000000000000013
#012320:23
#0123a1:1400002400000000
#012361:00000034000000000000000000000000
#012321:0014
#012361:00000000000000000000003400000000
#013321:24
#0123b0:00000000000000000000001300000000
#013370:23
#014350:1300000000530000
#014320:00333300
#014340:00000053
#015320:23
#014371:00130000
#0143b1:0033
#014381:0000000000530000
#014391:00000053
#0153b1:23
#0163b1:1300000000530000
#016381:00333300
#0163a1:00000053
#017381:23
#016320:0000130000530000
#016350:0033
#016330:00000053
#017350:23
#017320:0000000000001323
#0183b0:0013
#018380:0000000000530000
#018390:00000053
#0193b0:23
#018321:0013
#018351:0000000000530000
#018341:00000053
#019321:23
#020321:0014
#020361:00000055
#021321:26
#0213b1:0013
#021361:00000024
#021320:00000014
#022360:24
#0223a1:14
#022361:00240000
#022320:00140000
#022360:0024
#0223a1:0014
#022361:00000024
#023321:00142400
#023351:0000005400000000
#0243a1:00142400
#024371:0000005400000000
#025321:0013
#025361:00000024
#0253a0:00000014
#026360:24
#026321:14
#026361:00240000
#0263a0:00140000
#026360:0024
#026321:0014
#026361:00000024
#0273a1:00142400
#027371:0000005400000000
#028321:00142400
#028351:0000005400000000
#0293b1:13
#029371:00000033000023000000000000000000
#029321:0013
#029361:00000000000000000000003300002300
#0303b1:13
#030371:00000033000023000000000000000000
#030321:0014
#030351:00000000000000000000002400000000
#030370:0014
#0303a0:00000000000000000000002400000000
#031320:13
#031360:00000033000023000000000000000000
#0313b0:0013
#031370:00000000000000000000333300002300
#032320:13
#032360:00003333000023000000000000000000
#0323a0:0014
#032370:00000000000000000000002400000000
#032351:0014
#032321:00000000000000000000002400000000
#033361:0013
#033321:00000024
#033360:00000014
#0343a0:24
#034361:14
#034321:00240000
#034360:00140000
#0343a0:0024
#034361:0014
#034321:00000024
#035321:00132300
#035351:0000005300000000
#0353b0:00132300
#035380:0000005300000000
#036320:13
#036340:0054000024000000
#0363b1:00130000
#036381:0000005424000000
#037351:130000000000000000000000000000000000000000000053005300000000000000000000000000000000000000000000
#037331:0035
#038351:000000000000000000000000000000000000000000000053005300000000000000000000000000000000000000000000
#038331:0035
#039351:23
#037390:00000012
#0383c0:0052000000000000
#038390:0022
#039380:130000000000000000000000000000000000000000000053355300000000000000000000000000000000000000000000
#040380:000000000000000000000000000000000000000000000053355300000000000000000000000000000000000000000000
#041380:23
#039351:00000012
#040321:0052000000000000
#040351:0022
#041351:130000000000000000000000000000000000000000000053355300000000000000000000000000000000000000000000
#042351:000000000000000000000000000000000000000000000053355300000000000000000000000000000000000000000000
#043351:23
#0413c0:00000012
#042390:0052000000000000
#0423c0:0022
#043380:130000000000000000000000000000000000000000000053005300000000000000000000000000000000000000000000
#043360:0035
#044380:000000000000000000000000000000000000000000000053005300000000000000000000000000000000000000000000
#044360:0035
#045380:23
#043321:00000012
#044351:0052000000000000
#044321:0022
#0453b0:0000000000000013
#046370:0023000000000000
#0463b0:0013
#046360:00000024
#046360:0000000000000014
#0473a0:0024000000000000
#046321:0000000000000014
#047361:0024000000000000
#047321:0000000000000013
#048361:0023000000000000
#0483b1:00130000
#048371:0023
#048320:0000000013230000
#048381:0000000000132300
#048320:0000000000001626
#048381:0000000000000016
#049381:26
#051361:000000000000000000000000000000000000000000000000140000340000340000340000340034003400340034003400
#052321:2c
#053371:0013
#0533b1:0000000000530000
#053381:00000023
#053350:00000013
#053320:0000000000000053
#054350:23
#054381:13230000
#0543b1:0053000000000000
#054350:00132300
#054320:0000005300000000
#054381:00001323
#0543b1:0000000000530000
#055321:00142400
#055361:0000005400000000
#0563a1:00142400
#056361:0000005400000000
#056381:00000014
#0563a1:00000000000000000000000000540000
#0573a1:24
#057361:0013
#057321:0000000000530000
#057351:00000023
#057380:00000013
#0573b0:0000000000000053
#058380:23
#058351:13230000
#058321:0053000000000000
#058380:00132300
#0583b0:0000005300000000
#058351:00001323
#058321:0000000000530000
#0593a1:00142400
#059361:0000005400000000
#060321:00142400
#060361:0000005400000000
#060341:00000014
#060321:00000000000000000000000000540000
#061321:24
#0613b0:1300002300000000
#061370:00000033000000000000000000000000
#061321:00000013000000000000000000000000
#061361:0000002300000000
#061321:0000000013000023
#061361:00000000000000000000003300000000
#0613b0:00000000000000000000001300000000
#061370:0000000000000023
#0623b0:1300002300000000
#062370:00000033000000000000000000000000
#062321:00000013000000000000000000000000
#062361:0000002300000000
#062371:0014
#0623a1:00000000000000000000002400000000
#062320:0014
#062350:00000000000000000000002400000000
#063320:1300002300000000
#063360:00000033000000000000000000000000
#0633b1:00000013000000000000000000000000
#063371:0000002300000000
#0633b1:0000000013000023
#063371:00000000000000000000333300000000
#063320:00000000000000000000001300000000
#063360:0000000000000023
#064320:1300002300000000
#064360:00003333000000000000000000000000
#0643b1:00000013000000000000000000000000
#064371:0000002300000000
#0643a1:0014
#064371:00000000000000000000002400000000
#064350:0014
#064320:00000000000000000000002400000000
#0653a0:0000000014540000
#065390:00000033
#0653b0:0000000000000053
#066380:3333
#0663a0:0053000000002400
#066370:00330000
#0663b0:0000005300000000
#065321:0000000014540000
#065361:00000033
#065331:0000000000000053
#066351:3333
#066321:0053005300002400
#066341:00330000
#067321:00132300
#067351:0000005300000000
#0673b0:00132300
#067380:0000005300000000
#068320:13000024
#068360:0034
#068381:00130000
#0683a1:0034
#068361:00000024
#001980:0012000000000000
#0019b0:000000000000000000000000000000000000000000000000000000000000000000000000000000000000000000000000000000000000000000000000000000000000000000000000000000000000000000000000000000000000000000000000000000000000000000000000000000000000000000000000000000000000000000000000000000000000000000000000000000000000000000000000000000000000000000000000000000000000000000000000000000000000000000000000000000000000000000000000000000000000000000000000000000000000000000000000000000000000000000000000000000000000000000000000000000000000000000000000000000000000000000000000000000000000000000000000000000000000000000000000000000000000000000000000000000000000000000000000000000000000000000000000000000000000000000000000000000000000000000000000000000000000000000000000000000000000000000000000000000000000000000000000000000000000000000000000000000000000000000000000000000000000000000000000000000000000000000000000000000000000000000000000000000000000000000000000000000000000000000000000000000000000000000000000000000000000000000000000000000000000000000000000000000000000000000000000000000000000000000000000000000000000000000000000000000000000000000000000000000000000000000000000000000000000000000000000000000000000000000000000000000000000000000000000000000000000000000000000000000000000000000000000000000000000000000000000000000000000000000000000000000000000000000000000000000000000000000000000000000000000000000000000000000000000000000000000000000000000000000000000000000000000000000000000000000000000000000000000000000000000000000000000000000000000000000000000000000000000000000000000000000000000000000000000000000000000000000000000000000000000000000000000000000000000000000000000000000000000000000000000000000000000000000000000000000000000000000000000000000000000000000000000000000000000000000000000000000000000000000000000000000000000000000000000000000000000000000000000000000000000000000000000000000000000000000000000000000000000000000000052220000000000000000000000000000000000000000000000000000000000000000000000000000000000000000000000000000000000000000000000000000000000000000000000000000000000000000000000000000000000000000000000000000000000000000000000000000000000000000000000000000000000000000000000000000000000000000000000000000000000000000000000000000000000000000000000000000000000000000000000000000000000000000000000000000000000000000000000000000000000000000000000000000000000000000000000000000000000000000000000000000000000000000000000000000000000000000000000000000000000000000000000000000000000000000000000000000000000000000000000000000000000000000000000000000000000000000000000000000000000000000000000000000000000000000000000000000000000000000000000000000000000000000000000000000000000000000000000000000000000000000000000000000000000000000000000000000000000000000000000000000000000000000000000000000000000000000000000000000000000000000000000000000000000000000000000000000000000000000000000000000000000000000000000000000000000000000000000000000000000000000000000000000000000000000000000000000000000000000000000000000000000000000000000000000000000000000000000000000000000000000000000000000000000000000000000000000000000000000000000000000000000000000000000000000000000000000000000000000000000000000000000000000000000000000000000000000000000000000000000000000000000000000000000000000000000000000000000000000000000000000000000000000000000000000000000000000000000000000000000000000000000000000000000000000000000000000000000000000000000000000000000000000000000000000000000000000000000000000000000000000000000000000000000000000000000000000000000000000000000000000000000000000000000000000000000000000000000000000000000000000000000000000000000000000000000000000000000000000000000000000000000000000000000000000000000000000000000000000000000000000000000000000000000000000000000000000000000000000000000000000000000000000000000000000000000000000000000000000000000
#002930:0012000000000000
#002960:000000000000000000000000000000000000000000000000000000000000000000000000000000000000000000000000000000000000000000000000000000000000000000000000000000000000000000000000000000000000000000000000000000000000000000000000000000000000000000000000000000000000000000000000000000000000000000000000000000000000000000000000000000000000000000000000000000000000000000000000000000000000000000000000000000000000000000000000000000000000000000000000000000000000000000000000000000000000000000000000000000000000000000000000000000000000000000000000000000000000000000000000000000000000000000000000000000000000000000000000000000000000000000000000000000000000000000000000000000000000000000000000000000000000000000000000000000000000000000000000000000000000000000000000000000000000000000000000000000000000000000000000000000000000000000000000000000000000000000000000000000000000000000000000000000000000000000000000000000000000000000000000000000000000000000000000000000000000000000000000000000000000000000000000000000000000000000000000000000000000000000000000000000000000000000000000000000000000000000000000000000000000000000000000000000000000000000000000000000000000000000000000000000000000000000000000000000000000000000000000000000000000000000000000000000000000000000000000000000000000000000000000000000000000000000000000000000000000000000000000000000000000000000000000000000000000000000000000000000000000000000000000000000000000000000000000000000000000000000000000000000000000000000000000000000000000000000000000000000000000000000000000000000000000000000000000000000000000000000000000000000000000000000000000000000000000000000000000000000000000000000000000000000000000000000000000000000000000000000000000000000000000000000000000000000000000000000000000000000000000000000000000000000000000000000000000000000000000000000000000000000000000000000000000000000000000000000000000000000000000000000000000000000000000000000000000000000000000000000000052220000000000000000000000000000000000000000000000000000000000000000000000000000000000000000000000000000000000000000000000000000000000000000000000000000000000000000000000000000000000000000000000000000000000000000000000000000000000000000000000000000000000000000000000000000000000000000000000000000000000000000000000000000000000000000000000000000000000000000000000000000000000000000000000000000000000000000000000000000000000000000000000000000000000000000000000000000000000000000000000000000000000000000000000000000000000000000000000000000000000000000000000000000000000000000000000000000000000000000000000000000000000000000000000000000000000000000000000000000000000000000000000000000000000000000000000000000000000000000000000000000000000000000000000000000000000000000000000000000000000000000000000000000000000000000000000000000000000000000000000000000000000000000000000000000000000000000000000000000000000000000000000000000000000000000000000000000000000000000000000000000000000000000000000000000000000000000000000000000000000000000000000000000000000000000000000000000000000000000000000000000000000000000000000000000000000000000000000000000000000000000000000000000000000000000000000000000000000000000000000000000000000000000000000000000000000000000000000000000000000000000000000000000000000000000000000000000000000000000000000000000000000000000000000000000000000000000000000000000000000000000000000000000000000000000000000000000000000000000000000000000000000000000000000000000000000000000000000000000000000000000000000000000000000000000000000000000000000000000000000000000000000000000000000000000000000000000000000000000000000000000000000000000000000000000000000000000000000000000000000000000000000000000000000000000000000000000000000000000000000000000000000000000000000000000000000000000000000000000000000000000000000000000000000000000000000000000000000000000000000000000000000000000000000000000000000000000000000000000000000
#003970:0012000000000000
#0039a0:000000000000000000000000000000000000000000000000000000000000000000000000000000000000000000000000000000000000000000000000000000000000000000000000000000000000000000000000000000000000000000000000000000000000000000000000000000000000000000000000000000000000000000000000000000000000000000000000000000000000000000000000000000000000000000000000000000000000000000000000000000000000000000000000000000000000000000000000000000000000000000000000000000000000000000000000000000000000000000000000000000000000000000000000000000000000000000000000000000000000000000000000000000000000000000000000000000000000000000000000000000000000000000000000000000000000000000000000000000000000000000000000000000000000000000000000000000000000000000000000000000000000000000000000000000000000000000000000000000000000000000000000000000000000000000000000000000000000000000000000000000000000000000000000000000000000000000000000000000000000000000000000000000000000000000000000000000000000000000000000000000000000000000000000000000000000000000000000000000000000000000000000000000000000000000000000000000000000000000000000000000000000000000000000000000000000000000000000000000000000000000000000000000000000000000000000000000000000000000000000000000000000000000000000000000000000000000000000000000000000000000000000000000000000000000000000000000000000000000000000000000000000000000000000000000000000000000000000000000000000000000000000000000000000000000000000000000000000000000000000000000000000000000000000000000000000000000000000000000000000000000000000000000000000000000000000000000000000000000000000000000000000000000000000000000000000000000000000000000000000000000000000000000000000000000000000000000000000000000000000000000000000000000000000000000000000000000000000000000000000000000000000000000000000000000000000000000000000000000000000000000000000000000000000000000000000000000000000000000000000000000000000000000000000000000000000000000000000000000000052220000000000000000000000000000000000000000000000000000000000000000000000000000000000000000000000000000000000000000000000000000000000000000000000000000000000000000000000000000000000000000000000000000000000000000000000000000000000000000000000000000000000000000000000000000000000000000000000000000000000000000000000000000000000000000000000000000000000000000000000000000000000000000000000000000000000000000000000000000000000000000000000000000000000000000000000000000000000000000000000000000000000000000000000000000000000000000000000000000000000000000000000000000000000000000000000000000000000000000000000000000000000000000000000000000000000000000000000000000000000000000000000000000000000000000000000000000000000000000000000000000000000000000000000000000000000000000000000000000000000000000000000000000000000000000000000000000000000000000000000000000000000000000000000000000000000000000000000000000000000000000000000000000000000000000000000000000000000000000000000000000000000000000000000000000000000000000000000000000000000000000000000000000000000000000000000000000000000000000000000000000000000000000000000000000000000000000000000000000000000000000000000000000000000000000000000000000000000000000000000000000000000000000000000000000000000000000000000000000000000000000000000000000000000000000000000000000000000000000000000000000000000000000000000000000000000000000000000000000000000000000000000000000000000000000000000000000000000000000000000000000000000000000000000000000000000000000000000000000000000000000000000000000000000000000000000000000000000000000000000000000000000000000000000000000000000000000000000000000000000000000000000000000000000000000000000000000000000000000000000000000000000000000000000000000000000000000000000000000000000000000000000000000000000000000000000000000000000000000000000000000000000000000000000000000000000000000000000000000000000000000000000000000000000000000000000000000000000000000000000
