This file was generated by Ched 2.7.0.0.
#TITLE ""
#ARTIST ""
#DESIGNER ""
#DIFFICULTY 0
#PLAYLEVEL
#SONGID ""
#WAVE ""
#WAVEOFFSET 0
#JACKET ""
#REQUEST "ticks_per_beat 480"
#00002: 4
#BPM01: 163
#00008: 01
#TIL00: ""
#VOLUME: ""
#HISPEED 00
#MEASUREHS 00
#0581a:1414
#05918:1414
#05914:00140000
#06318:14
#06314:00140000
#0631a:0014
#06414:14
#06418:00140000
#06412:0014
#06514:00140000
#06518:0014
#06512:00000014
#0651a:24
#0651f:21
#07312:14
#0731a:00140000
#07314:0014
#07318:00000014
#00212:14
#00218:0014
#00314:14
#0031a:0014
#00412:14
#0041a:0014
#00514:1414
#00518:00140000
#0061a:14
#00614:0014
#00718:14
#00712:0014
#0081a:14
#00812:0014
#00918:1414
#00914:00140000
#01014:14
#01010:41
#01118:14
#01214:14
#0141a:14
#01512:14
#0161a:14
#01712:1414
#0171a:00140000
#01814:00140000
#0181a:2414
#01810:41
#01912:1414
#01918:00140000
#02018:14
#02014:00140014
#0201a:0014
#02118:14
#02218:00140000
#02212:1414
#0231a:1414
#02314:00140000
#02414:14
#02418:00140014
#02412:0014
#02514:14
#0261a:14
#02612:00140014
#02618:0014
#02812:14
#0281a:00140014
#02814:0014
#0381a:14
#03814:0014
#03810:41
#03918:14
#03912:0014
#0401a:14
#04012:0014
#04118:1414
#04114:00140014
#0421a:14
#04212:0014
#04318:14
#04314:0014
#04418:14
#04412:00140000
#0441a:0014
#04414:00000014
#04614:14
#04610:41
#04718:14
#04814:14
#0501a:14
#05112:14
#0521a:14
#05312:1414
#0531a:00140000
#0541a:1414
#0541f:11
#05518:1414
#05514:00140000
#05612:1414
#05714:1414
#05718:00140000
#06618:14
#06610:41
#06714:14
#06718:00140000
#06712:0014
#06818:14
#06814:00140000
#0681a:0014
#06918:00140000
#06914:0014
#0691a:00000014
#06912:24
#07014:14
#07118:14
#07114:00140000
#0711a:0014
#07112:00000014
#07218:14
#0721a:0034343400000000
#07618:0014000014000000
#07614:00140000
#07612:00000024
#00018:16
#00012:0016
#02912:26
#06212:24
#0621a:24
#07412:26
#07414:00260000
#07416:0026
#07418:00000026
#00118:26
#07512:26
#01318:2424
#01314:00240024
#0491a:24
#04914:00240000
#04918:0024
#04912:00000024
#03010:41
#00158:0016
#01054:54
#01158:64
#01254:54
#0145a:54
#01552:64
#0165a:54
#02158:54
#02554:64
#02952:0016
#04654:54
#04758:64
#04854:54
#0505a:54
#05152:64
#0525a:54
#06152:14
#06658:54
#0665a:0014
#07054:64
#07052:0014
#07258:64
#0725a:0014
#07658:0014
#0275a:0014
#0625a:0014
#06252:0014
#001380:1626
#010340:14
#010320:0024
#011380:14
#0113a0:0024
#012340:14
#012320:0024
#0143a0:14
#014380:0024
#015320:14
#015340:0024
#0163a0:14
#016380:0024
#021380:14
#0213a0:0024
#025340:14
#025320:0024
#0273a0:1434343424000000
#029320:1626
#030380:14
#0303a0:0034
#031380:34
#0313a0:0024
#032340:14
#032320:0034
#033340:34
#033320:0024
#0343a0:14
#034380:0034
#0353a0:34
#035380:0024
#036320:14
#036340:0034
#037320:24
#045380:1424
#046340:14
#046320:0024
#047380:14
#0473a0:0024
#048340:14
#048320:0024
#0503a0:14
#050380:0024
#051320:14
#051340:0024
#0523a0:14
#052380:0024
#060340:14
#061320:24
#0623a0:1434343424000000
#062321:1434343424000000
#066381:14
#0663a1:0024
#070341:14
#070321:0024
#072381:14
#0723a1:0034343424000000
