This file was generated by Ched 2.7.0.0.
#TITLE ""
#ARTIST ""
#DESIGNER ""
#DIFFICULTY 0
#PLAYLEVEL
#SONGID ""
#WAVE ""
#WAVEOFFSET 0
#JACKET ""
#REQUEST "ticks_per_beat 480"
#00002: 4
#BPM01: 144
#00008: 01
#TIL00: ""
#VOLUME: ""
#HISPEED 00
#MEASUREHS 00
#03115:0000001300130000
#03118:0013130000001300
#0311b:0013
#03112:0000000000000013
#04818:0000000000130000
#04815:00000013
#04812:0000002400000013
#0481a:0024000000000000
#04816:00240000
#05414:0014000000000000
#05418:00240000
#05818:0014000000001400
#05814:0000140000140000
#0581a:0000001400000000
#05812:0000000000000014
#07218:0013
#07215:0000000000131300
#00012:0000000000130000
#00018:0000000000130000
#0001b:0000000000000013
#00015:0000000000000013
#0011b:0013000000130000
#00115:0013000000000000
#00112:0000000000130000
#0021b:0000000000130000
#00215:0000000000130000
#00212:0000000000000013
#00218:0000000000000013
#00315:0013000013001300
#0031b:0013000000000013
#00318:0000001300130000
#00418:0000000000130000
#00412:0000000000130000
#0041b:0000000000000013
#00415:0000000000000013
#00512:0013000000000013
#00518:00130000
#0051b:0013
#00515:0000001300000000
#0061b:0000000000130000
#00615:0000000000130000
#00612:0000000000000013
#00618:0000000000000013
#00718:0013001300000000
#00715:00131313
#0071b:0000000000000013
#00818:0000000000130000
#00812:0000000000130000
#0081b:0000000000000013
#00815:0000000000000013
#00912:0013001300000000
#00918:00130000
#00915:0000000000130013
#0091b:00001313
#0101a:14
#01017:00000000000034143400000000000000
#01019:0034000000003400
#01018:0000340000340000
#01115:0000001300130000
#01118:00001313
#01112:0000000000000013
#01215:0000130000130000
#01218:00001313
#01212:0000000000000013
#0121b:0000000000000013
#0121a:24
#01210:41
#01315:0013001300001300
#01318:0000130013000013
#01312:0000000000130000
#0141b:13000013
#01412:13
#01415:00130000
#01418:0013
#01414:0000000000000024
#01518:0000001300130000
#01515:00001313
#0151b:0000000000000013
#01514:0024000000000000
#01618:00141414
#01612:24
#01614:0000000000000024
#01715:0000001300130000
#01718:0024000013001300
#01712:0000000000000013
#0181b:13
#01814:0014000014000000
#01818:0000140000140000
#01812:0000000000000024
#0181a:0000000000000024
#01918:0000001300130000
#01915:00001313
#0191b:0000000000000013
#0191a:0024000000000000
#01912:0024000000000000
#0201a:00140000
#02015:0013
#02018:0000000000130000
#02012:24000014
#02010:41
#02118:1300001300130000
#02112:00140000
#02115:00001313
#0211a:0000000000000024
#02218:0000140000140000
#02214:0014
#02212:2400000000000024
#0221a:0000000000000024
#02418:0000001300130000
#02415:00001313
#0241a:0000000000000014
#0251b:00131313
#02515:0000000000000013
#0251f:11
#02512:24
#0261b:1300001300000000
#02615:0013130000130000
#02618:00001313
#02612:0000000000000014
#0271a:14
#02712:00131313
#02718:0000000000130013
#02815:1300130000130013
#0281b:0013001300000000
#02812:0013
#02818:00000013
#02912:00130000
#02915:0000000013000013
#02918:00000013
#0291a:24
#0301b:13000013
#03012:0013000000130000
#03018:00131300
#03015:0000001300000013
#0321a:14
#03214:0000002424002400
#03218:0000000000240024
#0331b:00130013
#03312:2613
#03315:0000000000000013
#0331f:21
#03418:1300130000130000
#03415:0013001300001300
#0341b:0013
#03412:0000000000000013
#03410:41
#0351a:14
#03512:00130000
#0351b:0013
#03518:00000013
#03515:0000000000130013
#03618:00131313
#03612:0000001300000000
#03615:0000000000130000
#0361b:0000000000000013
#03712:1413
#0371b:00130013
#03715:0000000000000013
#03818:13000013
#03815:0000001300000013
#03812:0013
#0381b:0053000000130000
#0391b:0013000000001300
#03912:0000130000130013
#03918:0000001313000000
#03915:00000000000000130000000000000000
#04015:1300001300000000
#04018:0013000013000000
#0401b:00130000
#0401a:00000024
#04012:00000024
#04117:00140000
#0411a:24
#04112:2424
#0421b:0013000000000013
#04215:0000130000130000
#04218:0000001300001300
#04212:0013
#04312:1414
#0431a:00140000
#04318:0000000000131300
#04315:0000000000000013
#0441b:1313
#04412:0013000000000013
#04418:0000130000130000
#04415:0000001300001300
#0451a:1414
#04512:00140014
#04518:0000000000000013
#04615:1300001300000000
#0461b:0013001300000000
#04612:00000013
#04618:0000000000000013
#04712:13001313
#0471b:0013001300000013
#04715:0000130000000013
#04718:0000000000130000
#04915:0013
#04918:2600260000130000
#0491b:0000000000000013
#04912:0026000000000013
#04910:00410000
#05018:0013000013000000
#05015:00130000
#05012:0000000000130000
#0501b:0000000000000013
#05112:1300000000000013
#05118:0013001300000000
#05115:00130000
#05212:0013
#05218:0000002300130000
#05215:00230013
#0521b:0023000000000013
#05315:00140000
#05312:24
#0531a:0024
#05515:0013000000130000
#05518:0000130000000013
#05512:24
#0551a:24
#05510:41
#05612:0013000000000000
#0561b:0000001300000000
#05615:0000000000130000
#05618:0000000000000013
#06012:0014000000140000
#0601a:0000001400000000
#06016:0000000000000014
#0621a:0014000000000014
#06216:00140014
#06212:0000001400140000
#06415:0000000000130013
#06418:00000013
#0641a:0024002400000000
#06412:00240000
#06515:0013000000001300
#06518:0000000000130013
#0651a:24
#06510:41
#06615:0000001300000013
#06618:00001313
#06612:0000000000130000
#0671b:13
#06718:00130013
#06715:0013000000000013
#06712:0000000000130000
#0681b:0013001300000000
#06815:00130000
#06812:0000000000130013
#06818:00000013
#06915:0013000000000013
#06918:00130013
#06912:0000000000140000
#0691a:24
#0701b:0013001300000000
#07015:00130000
#07012:0000000000130013
#07018:00000013
#0711b:13000013
#07118:0013000000130000
#07115:00131300
#07112:0000001300000026
#02312:0024000000000000
#0231a:0024000000000000
#05712:24
#05716:0024000000000000
#0571a:00240000
#0591a:24
#05916:0024000000000000
#05912:00240000
#0611a:24
#06116:0024000000000000
#06112:00240000
#06312:24
#06316:0024000000000000
#0631a:00240000
#04852:0000001400000000
#0585a:0000001400000000
#07152:0000000000000016
#0055b:0053
#0105a:6400000000000014
#01057:00000000000000240000000000000000
#0125a:14
#01652:14
#02052:14
#02352:0014000000000000
#0235a:0014000000000000
#02552:14
#0275a:14
#0295a:14
#03055:0000000000000013
#0325a:14
#03352:16
#0355a:14
#03555:0000000000000053
#03752:14
#03858:63
#04058:0013
#04157:00240000
#0415a:64
#04152:0054
#04155:0000000000000014
#04352:14
#0455a:14
#0465b:0013005300000000
#04655:0000005300000000
#04958:0000160000130000
#05055:00130000
#05158:0000005300000000
#0515b:0000000000130000
#05152:0000000000000013
#05355:00240000
#05352:54
#0535a:0064
#05357:0000000000000014
#05558:0000530000000013
#05555:0000000000130000
#05652:0013000000000000
#0565b:0000001300000000
#05655:0000000000130000
#05658:0000000000000013
#0575a:00640000
#05752:0000000000000014
#05952:00540000
#0595a:0000000000000014
#06052:0014000000140000
#0605a:0000001400000000
#06152:00540000
#06155:0000000000000014
#0615a:0000000000000014
#0635a:00640000
#06357:0000000000000014
#06352:0000000000000014
#0655a:14
#06558:0000000000000013
#06758:00130000
#06755:0000000000000013
#0685b:0000001300000000
#06958:00130000
#06955:0000000000000013
#0705b:0000001300000000
#000380:13230000
#000321:13230000
#002351:13230000
#0023b0:13230000
#004320:13230000
#004381:13230000
#0053b1:0013
#005381:00000023
#0063b1:13230000
#006350:13230000
#008380:13230000
#008321:13230000
#0103a1:1400000000000024
#010391:0034000000003400
#010381:0000340000340000
#010371:00000000000034543400000000000000
#035351:0000000000000013
#036321:0023000000000000
#038381:13
#0383b1:0033230000000000
#0413a1:1424
#041371:00540000
#041320:0014
#041350:0000000000003424
#046350:0000001300000000
#046320:0000000000230000
#0463b1:0000001300000000
#046381:0000000000230000
#051381:0000001300000000
#0513b1:0000000000230000
#053321:1424
#053351:00540000
#0533a0:0014
#053370:0000000000003424
#055380:00130000
#0553b0:0023
#0573a0:00140000
#057370:0000000000240000
#057321:0000000000140024
#059321:00140000
#059351:0000000000240000
#0593a0:0000000000140024
#061320:00140000
#061350:0000000000340024
#0613a1:0000000000140024
#0633a1:00140000
#063371:0000000000340024
#063320:0000000000140024
