This file was generated by Ched 2.7.0.0.
#TITLE ""
#ARTIST ""
#DESIGNER ""
#DIFFICULTY 0
#PLAYLEVEL
#SONGID ""
#WAVE ""
#WAVEOFFSET 0
#JACKET ""
#REQUEST "ticks_per_beat 480"
#00002: 4
#BPM01: 190
#00008: 01
#TIL00: ""
#VOLUME: ""
#HISPEED 00
#MEASUREHS 00
#02312:1313
#02319:0000001300000000
#02314:0000000000130000
#02316:0000000000001313
#0231b:1300130000001313
#02317:0013
#0171b:13
#01718:0013001300130013
#01715:00130013
#01712:1313
#01818:13
#01816:0000131300000000
#0181b:0000000000130000
#01812:1300000000000013
#0191b:0013001300130013
#01916:00130013
#01913:0013
#02115:0013000000000000
#02118:00130000
#0211a:0000002400000000
#02112:0000000000000024
#02218:0013000000130013
#02215:00130013
#0221b:0000001300000000
#02212:0000002400000000
#0251b:0013
#02519:0000000000130000
#02512:00130013
#02517:00130013
#02516:0013
#0291b:0013000000000000
#02915:0000130000000013
#02918:0000001300001300
#02912:0000000023230000
#03015:0013000000000000
#03012:1300002300000000
#03018:00230014
#03014:0000000000000014
#0301b:2300002300000000
#05118:0013000013000000
#05115:00130000
#0511b:0000001300001300
#05112:2513
#05116:0000000000000013
#05110:41
#05216:13131300
#0521b:0013001313000000
#05218:00000013
#05212:0000000000000013
#0521a:0000000000000024
#05319:0000000000130000
#05312:00240013
#0531b:0013001300000000
#05314:0013
#05317:0000000000000013
#0551b:2313
#05512:0000130000001313
#05519:0013000000000000
#05517:00130000
#05514:0000001300000000
#05516:2313
#0561b:0013000013000000
#05615:0000130000131300
#05618:00000000000013000000001300000000
#05612:0013
#05715:0000000000131300
#05718:24000000000000002400001300000000
#0571b:0000000000000013
#05714:00240000
#05815:1324
#05812:00130024
#05817:00130024
#0581b:0023000000000000
#07518:0000000000130013
#07515:00000013
#07516:00140000
#0751b:5313
#0751f:11
#07512:14
#07616:1300000000000013
#0761b:13130013
#07612:0013
#0771b:1313
#07718:0013000000000000
#07715:00130000
#07712:1400001300001300
#07716:0014
#0781b:13000023
#07812:0000001313000000
#07817:0013
#07816:00000023
#08018:0013000000000000
#08015:1300001300000000
#08017:0013
#08016:00000013
#0801b:00130000
#08012:00131300
#0821b:1333333300000000
#08212:00000000000000002300003300003300
#08515:0000001300001300
#08518:0013000000130013
#0851b:00131300
#08512:24131300
#0851a:24
#0851f:21
#0091b:0000001300000000
#00912:2400000013000013
#00915:00001300130000000000001300000000
#00918:00000013000000000000130013000000
#0091a:24
#00910:41
#01016:0013
#01017:00000013
#0101b:1300001300000000
#01015:0013130000000000
#01018:00000013000000000000000000000000
#01112:0000001300131300
#01119:0013
#0111b:0013130000000013
#01114:13
#01116:00000013000000000000000000000000
#01117:00000000000000000000001300000000
#01214:13
#01212:0000001313000000
#01217:0013
#01216:00000013000000000000000013000000
#0121b:00001300130000000000333300000000
#01418:00000013000000000000000000000000
#01415:0013130000000000
#0141b:1300001300000000
#01416:0013
#01417:00000013
#0131b:1300001300000000
#01315:00001300130000000000001300000000
#01318:00000013000000000000130013000000
#01312:1300000013000013
#01518:00000053000000000000130013000000
#01515:13000000000053000000001300001300
#01514:00530000005300530000000000000000
#01512:00000053000000000000000000000000
#01513:0053530053000000
#0151a:00530000005300530000000000000000
#01519:0053530053000000
#0151b:5300005300000000
#02018:1300000000130000
#02016:0000131300000000
#02015:00000013
#02013:13
#0201a:0000000000000024
#02010:0000000000000041
#0261b:1300000000000013
#02617:0000001300000000
#02612:0000131300000000
#02616:0000000000000013
#02718:0013000000001300
#0271b:0000001300000013
#02712:0013
#02715:0000130000130000
#02812:1300000000000024
#02816:0000001300000000
#0281b:0000131300000000
#02818:13
#0281a:0000000000000024
#0331b:1313
#03312:0014001400140014
#03317:00130013
#03310:41
#03417:0033130000001313
#03412:00230013
#0341b:2300003300000000
#03416:0000003300000000
#03512:1313
#0351a:0014001400140014
#03516:00130013
#03616:0033130000000000
#03615:0000000000001313
#0361b:00230013
#03612:2300003300000000
#03617:0000003300000000
#0371b:1313
#03712:0014001400140014
#03717:00130013
#0381b:23130023
#03818:0013001300000000
#03815:0000001300000000
#03812:00230023
#04518:13
#04512:13
#04519:00130000
#04515:0013
#04513:00000013
#04618:13000012
#04612:0013
#04616:000000000000000000000012
#0461b:00130000
#04715:00130000
#04718:000000000013000000140000
#04714:000000000000000000000014
#0471b:23
#04712:0024
#04813:00150000
#04818:000000000015000026000000
#04819:25
#04812:000000260026
#05915:0013000013000000
#05918:00130000
#05912:0000001300001313
#0591b:0013
#05917:0000000000000013
#0591a:24
#06015:0013001300001300
#06018:00130000
#06017:0013
#06012:0000000013000024
#0601b:0000000000000013
#0661b:13
#06614:00240000
#06613:0024
#06612:00000024
#06615:24
#07916:1313
#0791b:130000000033000000000000
#07917:00130013
#08118:0013000000230000
#08115:0000001300002300
#0811b:2323
#08112:0000230000000023
#0541b:0013333300000000
#05416:0013000000000000
#05413:00000024
#05418:00000026
#05412:0000333300000000
#00114:12120000
#00118:0012001200000000
#00116:00001212
#0011a:0000000000120012
#00214:1200000012000012
#0021a:0012000012000000
#00216:0000001200001200
#00218:0000120000120000
#0031a:1212000000000000
#00316:0000121200000000
#00318:0000000012120000
#00314:0000000000001212
#0041a:12000000000000000012000000000000
#00418:0012000000000000
#00416:00120000
#00414:0000001200000000
#0041b:0000000012120000
#0041c:00000000000000000000001200000000
#00514:12120000
#00518:0012001200000000
#00516:00001212
#0051a:0000000000120012
#00614:12
#00618:12
#00615:00120000
#00619:00120000
#0061a:0012
#00617:00000012
#00718:1200000012121200
#00716:00000000120000000012001200000000
#00719:00520000000000000000000000000000
#0071a:0052000000000000
#0071b:00000052000000000000000000000000
#00715:00000000005200000000000000000000
#00714:0000005200000000
#00713:00000000000000520000000000000000
#01615:0013230000000000
#01618:00000013000013000000000000000000
#01612:2323
#0161b:2323
#01616:00000024
#02417:0013000000002400
#02412:0013000000002400
#02416:0000333300000000
#0241b:0000333300000000
#02415:0000000000000000000000000000000000000000000000000034343434343434
#0241a:0000000000000000000000000000000000000000000000000034343434343434
#03118:1400140000130000
#03114:0014001400000000
#03115:0000000000130000
#0311b:0000000000003323
#03112:0000000000003323
#05012:0013
#05018:00000013000013000000000000000000
#05015:0013130000000000
#0501b:1300000000232323
#06114:0000000000130000
#0611b:00000013
#06112:0013001300000000
#06119:0013
#06116:0000000000000013
#0611a:00240000
#06212:0013333300002600
#06217:0013000000000000
#06219:00000024
#0621b:0000333300000000
#06210:00000041
#06314:0013000000000000
#06316:00130000
#06319:0000001300000000
#0631b:0000130000001313
#06312:2313
#06317:2313
#06412:0013000013000000
#06418:0000130000131300
#06415:00000000000013000000001300000000
#0641b:0013
#06515:00000000000000001300001300000000
#06518:0000140000131300
#06512:0024000000000013
#06514:14
#0651a:0000002400000000
#07312:0000000000000000000000000000000014343434343434343434343434343434
#0731a:0000000000000000000000000000000014343434343434343434343434343434
#07319:2424240000000000
#07313:2424240000000000
#07417:00000013
#07415:002300
#0741b:00230000
#07412:0024
#07418:000000000000000000000000000000000000000023000000000000000000000000000000000000530000000000000000
#07419:0000000000000053
#0741a:00000000000000000000000000000053
#08618:00130000
#08612:0013001300002600
#0861b:0013001300000000
#08615:00130000
#08619:00000024
#0901a:14140000
#09018:0014000000000000
#09017:0000001400000000
#09019:0014
#09016:0000000000140000
#09014:00240000
#09013:0024
#09012:00000024
#09015:24
#08714:0013000000000000
#08716:00130000
#08719:0000001300000000
#0871b:0000130000001313
#08712:2313
#08717:2313
#08710:41
#08812:0013000013000000
#08818:0000130000131300
#08815:00000000000013000000001300000000
#0881b:0013
#08915:00000000000000001300001300000000
#08918:0000240000131300
#08912:0024000000000013
#0891a:0000002400000000
#08914:24
#0001c:00000012
#00018:0000000000000000000000000000000000000000000000000032323232323232
#00812:24002324
#0081a:24000024
#00818:0023230000000000
#00815:00000023000023000000000000000000
#0081b:0023
#0831a:2424000000000000
#08318:0000000026260000
#08312:0026000024240000
#08418:23
#0841a:0024
#08419:00230000
#08412:0024
#08415:23
#08414:00230000
#03215:00000022
#03212:0026000000000000
#03214:00260000
#03216:0000002600000000
#03218:0026
#03219:00000022
#04012:25
#04014:00250000
#04017:0025
#04019:00000025
#06718:2323230000000000
#06715:0024
#06712:2424240000002400
#0671a:0024
#06717:00000024
#07016:23
#07018:00230000
#07015:0000002300000000
#04918:26
#04912:00220022
#06917:00000023
#06912:00260023
#06919:2424000000000000
#06913:2424000000000000
#06918:00260000
#0691a:0024
#06915:0024
#09719:2525250000000000
#09712:2525250026000000
#09718:00002623
#09715:00000023
#0391a:0024002400240024
#09817:002600
#09812:00260000
#09818:0026
#09813:000000000026000000000000
#04115:23
#04118:23
#04119:0033
#06815:2323230000002400
#0681a:2424240000002400
#06817:0024
#06812:0024
#07118:2323230000000000
#07112:2424240000002400
#07117:00000024
#0711a:0024
#07115:0024
#07215:2323230000002400
#07212:0024
#0721a:2424240000002400
#09118:2323230000000000
#0911a:00002424
#09112:2424240000000000
#09115:0000000000240000
#09416:23
#09418:00230000
#09415:0000002300000000
#09412:0023
#0941b:0023
#09317:00000023
#09312:00260023
#09319:2424000000000000
#09313:2424000000000000
#09318:00260000
#0931a:0024
#09315:0024
#09215:2323230000000000
#0921a:2424240000000000
#09212:00002424
#09217:0000000000240000
#09518:2323230000000000
#0951a:00002424
#09512:2424240000000000
#09515:0000000000240000
#09615:2323230000000000
#0961a:2424240000000000
#09612:00002424
#09617:0000000000240000
#04419:0033
#04414:33330000
#04319:3333
#04214:00333300
#04219:33
#00852:00000014
#0085a:00000014
#01858:53
#01856:0000006300000000
#0185b:0000000000630000
#01852:0000000000000053
#01857:0000000000000013
#0205a:0000000000000014
#02058:53
#02056:0000006300000000
#02852:6300000000130014
#02856:0000006300000000
#0285b:0000006300000000
#02857:0000000000130000
#0285a:0000000000000014
#04052:15
#04054:00150000
#04057:0015
#04059:00000015
#05152:1553
#05256:1363
#0525a:0000000000000014
#05252:0000000000000063
#0555b:0063
#05552:0000000000000053
#05557:0000000000000013
#05855:6314
#0585b:0053000000000000
#05852:00230014
#05857:00230014
#0585a:0014
#07052:00000013
#0705b:00000013
#07056:63
#07656:53
#0765b:00530000
#07652:0063
#0785b:63000013
#07857:0063
#07856:00000013
#07852:0063
#08057:0053
#08056:00000053
#08258:0016
#0825b:63
#08252:0063
#08358:0000000000160000
#0835a:0014000000000000
#08352:0016000000140000
#08452:0014
#0845a:0014
#08458:13
#08459:00130000
#08455:13
#08454:00130000
#01056:0063
#01057:00000053
#01257:0053
#01256:00000013
#0125b:00000013
#0215a:0000001400000000
#02152:0000000000000014
#02252:0000001400000000
#02352:53
#02356:0000000000000053
#0235b:0000000000000013
#0265b:5300000000130000
#02657:0000005300000000
#02652:0000005300000000
#02656:0000000000130063
#03352:0034003400340034
#03457:00530000
#0345b:6313
#03456:0013
#03452:00530000
#0355a:0044004400440044
#03656:00630000
#03652:5313
#03657:0013
#0365b:00630000
#03752:0034003400340034
#0385b:63534363
#03852:00533300
#03858:0023002300000000
#03855:0000002300000000
#04558:53
#04559:00230000
#04555:0063
#04553:00000023
#04658:53
#0465b:00230000
#0475b:13
#04752:0014
#04859:15
#04852:000000160016
#04858:000016
#04958:16
#0595b:0063
#05957:0000000000000053
#05952:0000000000000013
#06252:0063000000003600
#0625b:0013
#06256:0013
#06257:0063000000000000
#0665b:53
#06654:00340000
#06653:0034
#06652:00000034
#06658:00000043
#06755:0014
#06752:00000014
#0675a:0014
#06757:00000014
#06957:00000053
#06952:00160000
#06958:00160000
#0695a:0014
#06955:0014
#07452:0014
#07454:14
#07458:14
#0775b:0053
#07752:00000063
#07956:5353
#07957:00630063
#08158:0023000000000000
#08155:0000002300000000
#0815b:63
#08152:00530000
#08652:0000002300003600
#08658:00631300
#0865b:0023002300000000
#08655:00631300
#09752:0016
#09758:00001653
#09755:00000063
#0395a:0044004400440044
#05452:0013
#0545b:0053000000000000
#05457:0013
#05458:00000046
#05456:0063000000000000
#09852:13
#0985b:13
#09858:0016
#0045b:0000000062621200
#0045a:00000000000000000022000000000000
#0045c:00000000000000000000002200000000
#00758:00000012
#01652:0013
#0165b:0013
#02457:0053000000002400
#02452:0053000000002400
#0245b:0013
#02456:0013
#02555:14
#0255a:14
#02552:00000063
#0145b:13
#01456:0063
#01457:00000063
#03058:00000014
#03054:0000000000000014
#03052:0000001300000000
#03158:1400140000530000
#03154:0014001400000000
#03155:0000000000630000
#0315b:0000000000000013
#03152:0000000000000013
#03258:0016
#0445a:00000014
#04455:00000013
#05352:00140000
#05357:0000000000000063
#05655:00000013
#06057:0053
#0605b:0000000000000053
#06052:0000000000000014
#0615a:00140000
#06156:0000000000000063
#06352:0053
#0635b:0000000000000063
#06356:0000000000000013
#06458:00000013
#06552:0014000000000000
#0655a:0000001400000000
#06554:64
#06558:00640000
#07152:00000014
#07157:00000014
#0715a:0014
#07155:0014
#07252:0014
#0725a:00640014
#07257:0014
#07255:00000014
#07353:00640000
#07359:00540000
#07352:0064
#0735a:0054
#0755b:13
#07556:00240000
#07552:64
#0905a:54540000
#09054:00340000
#09053:0034
#09052:00000034
#09058:0024000000004400
#09057:0000002400000000
#09059:0054
#09056:0000000000240000
#08752:0053
#0875b:0000000000000063
#08756:0000000000000013
#08858:00000013
#09456:63
#09452:00000013
#0945b:00000013
#09357:00000053
#09358:00160000
#09352:00160000
#0935a:0014
#09355:0014
#08952:0014000000000000
#0895a:0000001400000000
#0965a:00640000
#09652:00003434
#09657:0000000000440000
#09155:0000000000340000
#0915a:00004444
#09252:00003434
#09257:0000000000440000
#09555:0000000000340000
#0955a:00004444
#06857:0014
#0685a:00000014
#06852:0014
#06855:00000014
#0005c:00000062
#0575a:0014000000000000
#05758:24
#05754:00240000
#05752:0000001400000000
#08558:0000000000000063
#0003c0:00000012
#000380:0000000000000000000000000000000000000000000000000032323232323232
#001380:22
#0043b0:0000000012522200
#0043a0:00000000000000000052000000000000
#0043c0:00000000000000000000005200000000
#006360:0012
#006350:000000000000003200000032
#006340:000000003232
#006330:00000032
#007360:22
#010360:0013
#010320:00000023
#010371:00000013
#0113b1:23
#012371:0013
#0123b1:00000000000000000000333323000000
#014361:0013
#014321:00000023
#014370:00000013
#0153b0:23
#018380:13
#0183b0:0000332300000000
#018361:0000001300000000
#018321:0000000000230000
#0183b0:0000000000130000
#018370:0000000000000023
#018321:0000000000000013
#019361:0023000000000000
#020381:13
#0203b1:0000332300000000
#020360:0000001300000000
#020320:0000000000230000
#021320:0000001300000000
#021350:0000000000230000
#021381:0000000000130000
#0213b1:0000000000000023
#023321:13
#023361:00230000
#023361:0000000000000013
#024321:0033000000000000
#024361:0000333323000000
#024370:0013000000000000
#0243b0:0000333323000000
#024320:00000014
#024350:0000000000000000000000000000000000000000000000000034343434343434
#025350:24
#024371:00000014
#0243a1:0000000000000000000000000000000000000000000000000034343434343434
#0253a1:24
#025321:00000013
#026361:23
#0263b0:1300000000230000
#026370:0000333300000000
#026321:0000001300000000
#026361:0000000000230000
#026361:0000000000000013
#027321:0023000000000000
#028321:1300000000230000
#028361:0000333300000000
#0283b0:0000001300000000
#028370:0000000000230000
#031380:0000000000130000
#0313b0:0000000000003323
#031351:0000000000130000
#031321:0000000000003323
#0343b1:1300003323000000
#034371:0033330000000000
#034320:00130000
#034360:0000003323000000
#036320:1300003323000000
#036360:0033330000000000
#0363b1:00130000
#036371:0000003323000000
#0383b1:13332300
#038381:0033003300000000
#038320:00132300
#038350:0000003300000000
#0383b0:00000013
#039370:23
#039321:1323000000000000
#039351:0000132300000000
#039321:0000000013230000
#039351:0000000000001323
#041351:13
#042351:0000000000000053000000000000000000530000000000000000000000000000
#042341:00333300
#042321:0000000000000000005400000000005400000000000000000000000000000000
#043351:0000000000000000000000000000000000000000000000000000000000000053
#044341:33330000
#044321:0054000000000054000000000000000000000000000000000000000000000000
#044351:0000000000000000005300000000000000000000000000002300000000000000
#041380:1300000000000000000000000000005300000000000000000000000000000000
#041390:0033
#0413a0:0000000000000000000000000000000000540000000000000000000000000054
#042390:33
#042380:0053000000000000000000000000000000000000000000000000000000000053
#043390:3333
#0433a0:0054000000000000000000000000005400000000000000000000000000000000
#043380:0000000000000000000000000000000000530000000000000000000000000000
#044380:0000000000000000000000000000005300000000000000000000000000000000
#044390:0033
#0443a0:0000000000000000000000000000000000540000000000002400000000000000
#045380:1323
#045390:00530000
#045351:0013
#045331:00000053
#046351:23
#046380:1323
#0463b0:00530000
#051320:0013
#051360:00000023
#052360:0013
#052320:00000023
#052320:0000000000000013
#053360:0023000000000000
#053370:0000000000000013
#0543b0:0033333300000000
#054370:0023
#054361:0013000000000000
#054321:0000333323000000
#0553b1:0013
#055371:0000000000003323
#055320:0000000000000013
#056350:0023000000000000
#057380:14
#0573a0:0024000000000000
#057340:00140000
#057320:0000002400000000
#058350:1300003424000000
#058320:00530000
#0583b1:0013000000000000
#058371:00530000
#0583a1:0000003424000000
#0593b1:0013
#059371:00000023
#059371:0000000000000013
#0603b1:0023000000000000
#060371:0013
#0603b1:00000023
#0603b1:0000000000000013
#061371:0023000000000000
#061361:0000000000000013
#062321:0033333300000000
#062361:0023
#062370:0013000000000000
#0623b0:0000333323000000
#063320:0013
#063360:0000000000003323
#0633b1:0000000000000013
#064381:0023000000000000
#065341:14
#065321:0024000000000000
#065381:00140000
#0653a1:0000002400000000
#0663b1:13
#066381:00000023
#069371:00000013
#0703b1:23
#070360:13
#070320:00230000
#070320:00001323
#0703b1:00001323
#0723a1:00140000
#072371:0024
#073331:00140000
#073321:0000000000000000000000000000000034343434343434343434343434343434
#074341:24
#073390:00140000
#0733a0:0000000000000000000000000000000034343434343434343434343434343434
#074380:24
#075320:1424
#075360:00540000
#076360:13
#076320:00230000
#0763b1:00130000
#076371:0023
#076320:0013
#076360:00000023
#0773b0:0013
#077370:00000023
#077321:00000013
#078361:23
#0783b0:13
#078370:0000002300000000
#078320:0013
#078360:00000023
#078371:0013
#0783b1:00000023
#079361:13
#079321:00230000
#079370:00130000
#0793b0:000000000033230000000000
#079361:0013
#079321:00000023
#079370:00000013
#0803b0:23
#080370:0013
#0803b0:00000023
#080361:00000013
#081321:23
#0813b0:13230000
#081380:0053000000000000
#081321:00132300
#081351:0000005300000000
#0823b1:1333333300000000
#082381:0026
#082320:00000000000000001300003300003300
#083320:26
#085380:0000000000000013
#0863b0:0033003300000000
#086380:00332300
#086351:00132300
#086321:0000003300000000
#087321:0013
#087361:0000000000003323
#0873b0:0000000000000013
#088380:0023000000000000
#0903a0:14340000
#090380:0054000000002400
#090370:0000005400000000
#090390:0034
#090360:0000000000540000
#093370:00000013
#0943b0:23
#094361:13
#094321:00230000
#094321:00001323
#0943b0:00001323
#0963a0:00140000
#096370:0024
#097350:00000013
#098320:23
#097381:00000013
#0983b1:23
#007980:12
#0079b0:00000022000000000000000000000000
#007960:00120000
#007930:00000000000000220000000000000000
#015950:1300005300000000
#015920:00000053000000000000000000000000
#015930:0023
#0159b1:1300005300000000
#015981:00000053000000000000000000000000
#015991:0023
#074971:00000013
#0759b1:23
