This file was generated by Ched 2.7.0.0.
#TITLE ""
#ARTIST ""
#DESIGNER ""
#DIFFICULTY 0
#PLAYLEVEL
#SONGID ""
#WAVE ""
#WAVEOFFSET 0
#JACKET ""
#REQUEST "ticks_per_beat 480"
#00002: 4
#BPM01: 190
#00008: 01
#TIL00: ""
#VOLUME: ""
#HISPEED 00
#MEASUREHS 00
#0231b:1300000000130000
#02315:00131300
#02318:0000001300000013
#02312:00000013
#00915:00130000
#00918:0013
#00912:00000013
#0091b:23
#00910:41
#01018:13130000
#01015:0013001300000000
#01115:13
#01118:0013
#01215:13130000
#01218:0013001300000000
#01315:00130000
#01318:0013
#01312:00000013
#0131b:13
#0141b:13
#01415:13
#01418:00130000
#01412:00130000
#01515:13
#01518:0013
#0171b:1313
#01715:0013000000130000
#01718:00130013
#01712:0000001300000013
#01818:13
#01815:0000001300000000
#0181b:0000000000000013
#01912:0013000000000013
#01918:00130013
#01915:0000001300130000
#0191b:0013
#02018:1300000000130000
#02015:0000001300001300
#0201a:0000000000000024
#02010:0000000000000041
#02115:0013000000130000
#02118:00130000
#02112:0000001300000000
#0221b:0013000000000000
#02215:00130000
#02218:0000001300001300
#02212:0000000000130013
#02512:1313
#02518:0013001300130000
#02515:00130013
#0251b:0000000000000013
#02612:1300000000000013
#0261b:0000001300000000
#02712:0013
#02718:0000001300130000
#02715:00130013
#0271b:0013000000000013
#02812:1300000000000024
#0281b:0000001300000000
#0291b:0013001300000013
#02915:00130013
#02912:0013
#02918:0000000000130000
#03012:13
#03015:0013000000000000
#03018:0000130000000024
#03014:00000024
#0301b:0000002300000000
#0331b:13130000
#03315:0013001300000000
#03318:00001313
#03312:0000000000130013
#03310:41
#03418:00130000
#03414:00000013
#03419:00000013
#0341b:2333003300000000
#03615:00130000
#03614:00000013
#03619:00000013
#03612:2333003300000000
#0371b:1313
#03715:0013000000130000
#03718:00130013
#03712:0000001300000013
#0381b:00130023
#03818:2333003300000000
#03812:00000023
#04115:1313
#04118:0013000000000000
#04112:00130000
#0411b:0000001300000000
#04218:1313
#04215:0013000000000000
#0421b:00130000
#04212:0000001300000013
#04318:13000013
#04315:0013000000130000
#0431b:00131300
#04312:0000001300000013
#04415:0000000000000013
#04412:00240013
#0441a:2424
#05118:0013000000000000
#05115:00130000
#0511b:0000001300000013
#05112:2413
#05110:41
#05215:1313
#05218:0013000000000000
#05212:00130000
#0521b:0000001300000000
#0521a:0000000000000024
#05618:0013001300000000
#05612:00130000
#05615:00001313
#0561b:0000000000130000
#05715:0000000000130013
#05718:00000013
#0571a:2424
#05712:00240000
#05915:0013000000000000
#05918:00130000
#05912:0000001300000013
#0591b:0013
#0591a:24
#0601b:00130000
#06015:0000001300000000
#06018:0013
#06014:0000000000000024
#06318:0013000000000013
#06315:00130000
#0631b:0000001300000000
#06312:2413
#06415:0013001300000000
#0641b:00130000
#06418:00001313
#06412:0000000000130000
#06515:00001313
#06518:0000000000130013
#06512:24
#0651a:00240000
#06615:13
#06612:00240000
#0661a:00240000
#07415:00000013
#07412:2323
#0741b:2323
#07414:00230000
#07419:00230000
#0751b:1300000000000013
#07512:0013
#07518:0000000000130000
#07515:00000013
#0751f:11
#07612:13
#07615:0000130000000013
#07618:00000013
#0771a:14
#07718:0014000000001300
#07716:00140000
#07714:0000001400000000
#07712:0014
#07812:13000023
#07815:0013
#07912:1313
#0791b:1313
#07918:00130000
#07915:00000013
#08018:1313
#08012:0013000000000000
#0801b:00130000
#08015:0000001300000000
#0821b:13
#08515:00131313
#0851b:0000001300000000
#08518:0013000000130013
#08512:24
#0851f:21
#08715:0013000000000013
#08718:00130000
#08712:0000001300000000
#0871b:0013
#0871a:24
#08710:41
#0011a:12120000
#00116:0012000000000000
#00114:00001212
#00118:0000000000120000
#0021a:12
#00218:00120000
#00216:0012
#00214:00000012
#0041a:12
#00416:0012000000000000
#00418:00120000
#00414:0000001200000000
#0041b:0012
#00514:12120000
#00518:0012000000000000
#0051a:00001212
#00516:0000000000120000
#00614:12
#00617:00120000
#00714:1200000000000012
#0071a:0012
#00716:0000120000120000
#00718:00000012
#0241b:0033333313000000
#02417:00000023
#03117:0000000000143400
#0311a:0000001400000024
#03114:24240000
#03118:0024000000000000
#03512:13130000
#03518:0013001300000000
#03515:00001313
#0351b:0000000000130013
#04518:13
#0451b:0013
#04618:13
#05515:0013000000000013
#05518:00130000
#05512:0000001300000000
#0551b:0013
#0551a:24
#0861b:0033130000000000
#08618:0000001300000000
#08612:00000024
#08818:0013001300000000
#08812:00130000
#08815:00001313
#0881b:0000000000130000
#0531a:0000240024000014
#05312:0024002400002400
#05316:0000000000240000
#06112:0000000024000014
#06118:0024002400000000
#06114:00240000
#06116:0000000000240000
#0611a:00000024
#00818:24
#00812:00000024
#0081a:00003434340000000000000000000000
#04715:23
#04718:0024
#04813:25
#04818:0026
#04912:26
#0831a:2424
#08312:2424
#08412:00232400
#0841b:23
#0841a:0024
#08416:23
#08417:00230000
#0161b:23
#01612:23000024
#0161a:00000024
#01615:00003333330000000000000000000000
#01618:00003333330000000000000000000000
#05012:23
#0501b:23
#05015:00003333330000000000000000000000
#05018:00003333330000000000000000000000
#03215:0023000000002200
#03218:0023000000000000
#03219:00000022
#03212:0000333300000000
#0321b:0000333300000000
#04012:2424
#0401a:00240024
#06718:23230000
#06715:0023000000000000
#06712:0024
#0671a:00000024
#06814:23230000
#06819:0023000000000000
#0681a:0024
#06812:00000024
#06919:24240000
#06913:0024000000000000
#06912:0024
#0691a:00000024
#07015:23
#07018:0023000000000000
#07012:00230000
#0701b:0000002300000000
#07118:23230000
#07115:0023000000000000
#07112:0024
#0711a:00000024
#07214:23230000
#07219:0023000000000000
#0721a:0024
#07212:00000024
#07319:24240000
#07313:0024000000000000
#07312:0024
#0731a:00000024
#09012:00240000
#0901a:00240000
#09018:24
#09118:23230000
#09115:0023000000000000
#09112:0025
#09119:00000025
#09214:24240000
#09218:0024000000000000
#09219:0025
#09212:00000025
#09318:25250000
#09313:0025000000000000
#09312:0025
#09319:00000025
#09415:2323
#09418:0023000000000000
#09412:00230000
#0941b:0000002300000000
#09518:2323230000002600
#09512:0026
#09614:2424240000000000
#09618:0026
#09612:00000026
#09812:2425
#0981a:24
#09814:00230000
#09819:00232500
#09718:2525250000002600
#09712:0026
#03915:23
#03918:0023
#03914:0063000000000000
#03913:00630000
#03912:0000006300000000
#03919:0000000000630000
#0391a:00000063
#0391b:0000000000000063
#05412:00000024
#05417:0034343400000000
#05818:23
#05812:00000024
#0621a:00000024
#06215:0034343400000000
#06210:00000041
#0891a:24
#08912:00240000
#08918:00002424
#08914:0000000000240024
#0811b:2323
#08112:2300000000000023
#08115:0000000000230000
#08118:00000023
#0165b:63
#01652:53
#01655:0013
#01658:0013
#04952:16
#04858:0016
#04853:15
#04758:0014
#04755:13
#0085a:0014
#00852:00000014
#01155:63
#01158:0053
#01555:63
#01558:0053
#01858:53
#01855:0000006300000000
#02058:53
#0205a:0000000000000014
#02152:0000005300000013
#02155:0000000000530000
#02358:0000000000000063
#02652:53
#0265b:0000006300000000
#02852:5300000000000014
#0285b:0000006300000000
#03252:0013
#0325b:0013
#03458:00530000
#0345b:5313
#03655:00630000
#03652:6313
#0385b:00630000
#03858:6313
#04052:1414
#0405a:00140014
#04155:0053
#04258:0063
#05152:0053
#05255:0063
#0525a:0000000000000014
#0575a:14
#05752:00140000
#0595b:0063
#05952:0000000000000053
#06058:0053
#06054:0000000000000014
#06552:14
#0655a:00140000
#06652:00540000
#0665a:00640000
#06658:00000014
#06654:00000014
#0675a:00000014
#06752:0014
#0685a:0014
#06852:00000014
#06952:0014
#0695a:00000014
#07055:00000013
#07152:0014
#0715a:00000014
#0725a:0014
#07252:00000014
#07352:0014
#0735a:00000014
#0755b:53
#07652:6313
#07655:00630000
#07852:53000013
#07855:0053
#08058:0053
#0825b:63
#08258:0013
#08352:1414
#0835a:1414
#08452:0014
#0845a:0014
#09052:00540000
#0905a:00640000
#09054:00000014
#09058:00000014
#09152:0015
#09159:00000015
#09552:0016
#09558:00000016
#09455:00000013
#02457:00000013
#0245b:0063
#0035a:00120000
#00354:00000012
#00458:00000012
#0045b:0062
#01252:00000013
#0105b:00000013
#01455:00000013
#0145b:00000013
#03157:0000000000240000
#0315a:0000005400000014
#04558:63
#0455b:0063
#04658:63
#05058:0013
#05055:0013
#05452:00000014
#05457:0014
#0555b:0063
#05555:0000000000000013
#05655:00000013
#05858:63
#0585a:0014
#05852:00000014
#06255:0014
#0625a:00000014
#06352:0053
#06358:0000000000000013
#06458:00000013
#0865a:0014
#08652:00000014
#0865b:00630000
#08658:0000002300000000
#0875b:0063
#08755:0000000000000013
#0895a:14
#08952:00140000
#09259:0015
#09252:00000015
#09352:0015
#09359:00000015
#09658:0016
#09652:00000016
#09752:0016
#09758:00000016
#09859:0045
#09852:0035
#0305b:0000001300000000
#0535a:0000000000000064
#06152:0000000000000064
#0815b:63
#08152:53
#08558:0000000000000063
#0033a0:12003232220000000000000000000000
#003340:00000000000000001200323222000000
#0043b0:0012
#004380:00000022
#0063a0:00001222
#008380:14
#0083a0:00003434340034002400000000000000
#0103b0:00001323
#011350:13
#011320:00230000
#011380:0013
#0113b0:00000023
#012320:00001323
#0143b0:00001323
#014351:00001323
#015351:13
#015321:00230000
#015381:0013
#0153b1:00000023
#0163b1:13
#016381:00003333330033002300000000000000
#016320:13
#016350:00003333330033002300000000000000
#018380:13
#0183b0:00230000
#018350:0000001300000000
#018320:0000000000230000
#020380:13
#0203b0:00230000
#021320:0000001300000023
#021350:0000000000330000
#023380:0000000000000013
#0243b0:0033333333000000
#024370:00000023
#026320:13
#026350:00230000
#0263b0:0000001300000000
#026380:0000000000230000
#028320:13
#028350:00230000
#0283b0:0000001300000000
#028380:0000000000230000
#0313a0:0000001400000024
#031370:0000000000343400
#032350:0013000000000000
#032320:0000333323000000
#032381:0013000000000000
#0323b1:0000333323000000
#0343b1:1333003323000000
#034381:00330000
#036321:1333003323000000
#036351:00330000
#038381:1333003323000000
#0383b1:00330000
#041351:0013
#041321:00000023
#042381:0013
#0423b1:00000023
#045381:13
#0453b1:0033
#046381:33
#0463b1:0023
#046351:00000013
#047351:23
#047381:00142400
#047331:00000015
#048331:25
#048381:00162600
#048321:00000016
#049321:26
#050321:13
#050351:00003333330033002300000000000000
#0503b0:13
#050380:00003333330033002300000000000000
#051320:0013
#051350:00000023
#052350:0013
#052320:00000023
#0533a0:0000000000000014
#054370:0034343424000000
#0553b0:0013
#055380:00000023
#058380:13
#0583a0:0024
#0593b0:0013
#059380:00000023
#059320:0000000000000013
#060350:0023000000000000
#060380:0013
#0603b0:00000023
#061320:0000000000000014
#062350:0034343424000000
#063320:0013
#063350:00000023
#066320:00140000
#066340:00003424
#0663a1:00140000
#066381:00003424
#070351:00001323
#0753b1:13
#075381:00230000
#076321:1323
#076351:00330000
#078321:13000023
#078351:0000003333000000
#080381:0013
#0803b1:00000023
#081321:13
#081351:00230000
#0813b0:13
#081380:00230000
#0823b0:13
#082380:0023
#085380:0000000000000013
#0863b0:0033330000000000
#086380:0000003300000000
#0863a0:0024
#0873b0:0013
#087380:00000023
#090320:00140000
#090340:00003424
#0903a1:00140000
#090381:00003424
#094351:00001323
#039950:13
#039920:0000002300000000
#039980:0013
#0399b0:0000000000000023
