This file was generated by Ched 2.7.0.0.
#TITLE ""
#ARTIST ""
#DESIGNER ""
#DIFFICULTY 0
#PLAYLEVEL
#SONGID ""
#WAVE ""
#WAVEOFFSET 0
#JACKET ""
#REQUEST "ticks_per_beat 480"
#00002: 4
#BPM01: 180
#00008: 01
#TIL00: ""
#VOLUME: ""
#HISPEED 00
#MEASUREHS 00
#00115:0000001300130000
#00118:00130013
#00112:13
#0011b:13
#00312:13000013
#0031b:1300001300000000
#00315:00131300
#00318:0000000000130000
#00215:00000013
#00218:0000000000000013
#00518:0000001300130000
#00515:00130013
#0051b:13
#00512:13
#0071b:13000013
#00712:1300001300000000
#00718:00131300
#00715:0000000000130000
#00618:0000000000130013
#00615:00000013
#00918:0013000000002300
#00915:00130000
#00912:2400000000130000
#0091b:0000002300000000
#00910:41
#01015:1300001300000000
#0101b:0023000000002300
#01018:0023
#01012:00000023
#01115:0013000000002300
#01118:00130000
#0111b:2300000000130000
#01112:0000002300000000
#01218:1300000000130000
#0121b:0000001300000000
#01212:0023000000002300
#01215:0023
#01315:0013000000002300
#01318:00130000
#0131b:0000000000130000
#0131a:24
#01312:0000002300000000
#01418:1300001300000000
#01412:0023000000002300
#01415:0023
#0141b:00000023
#01518:0013000000002300
#01515:00130000
#01512:2300000000130000
#0151b:0000002300000000
#01615:13000013
#01612:0000001300000000
#01618:0000000023000013
#0161b:0023000000000000
#01712:14
#01718:00130000
#01715:0000000013000013
#0171b:0000000000130000
#01818:00131300
#01815:0000001300000000
#01812:0000000000000013
#01918:13130000
#01912:0013001300000000
#0191b:00001313
#01915:0000000000130013
#02018:13000013
#0201b:00130000
#02012:0000000000130000
#02015:0000000000000013
#0211b:13131300
#02115:0013001300000000
#02112:0000000000000013
#02215:00130000000000001300000000000000
#02218:00000013
#0231b:13
#02318:0013
#02312:13
#02315:0013
#02618:1300000000000013
#02615:0033330000001300
#02612:23
#0261b:0033330000000000
#02715:13131300
#02718:0013001300000013
#02812:0013
#0281b:00000013
#02915:0000130000000013
#0291b:00130013
#02918:2313
#02912:2313
#03012:0013000000000000
#03018:0000000000130013
#03015:00000013
#03118:0000001300000000
#03112:0013
#03115:13
#0311b:0000000000000023
#03218:0013000000000000
#03212:0023000000000000
#03415:1300000000130013
#03418:0033330000001300
#0341b:23
#03412:0033330000000000
#0351b:13
#03515:00131300
#03518:0000001300000013
#03612:0013
#03618:00000013
#03615:0000000000000013
#03715:0000131300130000
#0371b:0013
#03718:00000013
#03712:0000000000000013
#0371a:24
#03815:0000000000130013
#03818:13000013
#03819:0053000000000000
#0381a:00530000
#0381b:0000005300000000
#03918:13
#03915:0013
#04017:00140000
#0401a:14
#04012:00000014
#04115:00130000
#04118:0000001300001300
#04112:0000000000130013
#0411a:24
#0421b:1300000000130000
#04215:0013000000000000
#04218:00130000
#04212:0000001300000013
#04315:00130000
#04318:00230000
#04518:0013
#04512:00000013
#0451b:00000013
#04515:0000000000130000
#04513:24
#04519:24
#04510:41
#04615:1300000000130000
#04612:00130013
#0461b:00130013
#04618:0013000013000000
#04718:13000000000000000000545454000000
#04712:00130000
#0471b:00130000
#0471a:0024
#04719:00000000000000000054000000000000
#04818:0013
#04815:0000000000130000
#04812:1400000000000023
#0481b:00000023
#04813:00540000000000000000000000000000
#04814:00005454540000000000000000000000
#04915:0013
#04918:2400000000130000
#0491b:00000013
#04912:00000013
#05018:1300000000130000
#05015:0013000013000000
#05012:00130013
#0501b:00130013
#05115:1353
#05118:0013
#05114:00530000000000530000000000000000
#05113:0053005300000000
#05112:00000053535300000000000000000000
#05119:00000000000000000053000000000053
#0511a:0000000000530053
#0511b:00000000000000000000005353530000
#05215:00130013
#0521b:0013
#05218:5300000000130000
#05212:0000000000000013
#05312:00140000
#05318:26
#0531a:00000024
#05310:41
#05612:1300001300000000
#05618:0013130000000000
#05615:00000013000000000000000023000000
#0561b:0013
#06015:00000013
#06018:0000000000000013
#06112:13
#06118:00130000
#06115:0000001300000013
#0611b:0013
#06110:41
#06415:0000001300000000
#06418:13130000
#06412:0013000000000000
#06212:0013000000000000
#06218:00000013
#06215:0000000000000013
#0631b:13130013
#06315:0013000000000013
#06312:0000001300130000
#06318:0013
#0651b:13130000
#06515:0013001300000000
#06518:00001313
#06512:0000000000130013
#06818:0000001300000000
#06815:13130000
#0681b:0013000000000000
#06618:0000000000000013
#06613:33
#06614:0033000000000000
#06615:00330000
#06712:13130013
#06718:0013000000000013
#0671b:0000001300130000
#06715:0013
#06918:00140000
#06914:1414
#0691b:00000013
#06912:0000000000000013
#0691f:11
#07018:13131300
#07015:0013001300000013
#0711b:1313
#07115:0013000000130000
#07118:00130013
#07112:0000001300000013
#0721b:13
#07215:00000013
#07218:0000000000000013
#07312:13131300
#07318:0013001300000000
#0731b:0000000000000013
#07418:00130000000000001300000000000000
#07415:00000013
#07512:13
#07515:0013
#0751b:13
#07518:0013
#07815:00000013
#07818:0000000000000013
#07918:0013001300000013
#07915:00131300
#07912:24
#0791f:21
#0801b:00130000000000000000000013000000
#08012:0013
#08018:0013
#08015:00000013
#08010:41
#08118:1313
#08112:13000013
#0811b:0000130000000013
#08115:0000001300000000
#08215:0000000000130013
#08218:0013000000001300
#0831a:14
#08312:0000140000000023
#08318:0013
#08315:0000000000130000
#08415:00130000
#0841b:00230000
#08615:13000013
#08618:0033330000000013
#0861b:2300000000130000
#08612:0033330000000000
#08712:13
#08718:00130000
#08715:0000001300000000
#08717:00000000000000000000331333000000
#0871b:0023
#08812:00132400
#0881b:00130000
#08816:00000024
#08912:00130000
#08918:0000001300001300
#08915:0000000000130013
#0891a:24
#0901b:13
#09012:0013000000000000
#09015:0000130000130013
#09018:0000001300001300
#09112:13
#0911b:0013
#09118:23
#09115:0023
#09218:0013
#09215:00000013
#09212:23
#0931b:13
#09316:00120000
#09318:0000001200001200
#09314:0000000000120012
#0941a:12
#09416:0012000000000000
#09418:00120000
#02415:00000026
#02512:23
#0251b:0023
#02510:41
#0331b:23
#03312:0023
#05512:24
#0551a:0024
#05712:25
#05719:25
#0581a:24
#05812:0024
#0591a:24
#05912:0000002400000000
#05916:00000024
#0851b:23
#08512:0023
#09614:52
#0961a:52
#02455:00000016
#02452:13
#0245b:13
#00352:00000053
#00158:00000053
#0075b:00000063
#00555:00000063
#01752:14
#01755:0000000000000053
#0175b:0000000000130000
#02058:63
#0205b:00530000
#0215b:0053
#02152:0000000000000063
#02255:00230000000000000000000000000000
#0235b:23
#02358:0063
#02352:23
#02355:0053
#02552:63
#0255b:0053
#02652:63
#02655:0000001300000000
#0265b:0000001300000000
#02658:53
#02755:0053
#02758:0000000000000063
#02955:0000000000000053
#03052:0053000000000000
#03055:0000001300000000
#03152:0053
#03155:63
#0315b:0000000000000053
#03258:0063000000000000
#03252:0063000000000000
#03455:63
#0345b:53
#03452:0000001300000000
#03458:0000001300000000
#0335b:53
#03352:0063
#0355b:13
#03555:0053
#03558:0000000000000063
#03958:53
#0395b:00130000
#03955:0063
#03952:00000013
#04057:00240000
#0405a:5414
#04052:00000014
#0415a:14
#04252:0000001300000063
#0425b:0000000000130000
#04355:00630000
#04358:00630000
#04553:00140000
#04559:00140000
#04958:00140000
#05258:13
#05255:00130000
#05358:16
#05352:00540000
#05455:0014
#0545a:0014
#0565b:0013
#05759:15
#05752:15
#0595a:14
#05952:0000001400000000
#05956:00000014
#06155:0000000000000053
#0615b:0053
#06455:0000005300000000
#06452:0000000000130000
#06252:0063000000000000
#06552:0000000000000063
#06858:0000006300000000
#0685b:0000000000130000
#06954:1414
#06958:00140000
#07058:0053
#0725b:63
#07258:0000001300000000
#07352:0063
#0735b:0000000000000053
#07458:00230000000000000000000000000000
#07552:23
#07555:0053
#0755b:23
#07558:0063
#07952:14
#07955:0063
#07958:0000000000000053
#0805b:00230000000000000000000000000000
#08152:13
#08158:1313
#0815b:0000000000000063
#0835a:14
#08352:0000140000000063
#08455:00530000
#0845b:00530000
#08655:63
#0865b:53
#08652:0000001300000000
#08658:0000001300000000
#0855b:53
#08552:0063
#08752:13
#0875b:0000000053000013
#08757:00000000000000000000002300000000
#0895a:14
#08958:0000001300000000
#09152:53000013
#0915b:00136300
#09155:00135300
#09158:63000013
#08258:0053000000000000
#001380:00000013
#0023b0:00332300
#003320:00000013
#004350:00332300
#005350:00000013
#006320:00332300
#0073b0:00000013
#008380:00332300
#017350:0000000000000013
#018320:0023000000000000
#020380:1323
#0203b0:00330000
#0213b0:0013
#021380:00000023
#021320:0000000000000013
#022350:00530000000000000000000000000000
#022320:00230000
#0233b0:13
#023380:0033
#0243b0:23
#023321:13
#023351:0033
#024321:23
#025321:13
#025351:0023
#0253b0:0013
#026380:33
#0263b0:0033332300000000
#026321:13
#026351:0033332300000000
#027351:0013
#027321:00000023
#027381:0000000000000013
#0283b1:00230000
#029351:0000000000000013
#030321:0033000000000000
#030351:0000002300000000
#031351:13
#031321:00230000
#031321:0013
#031351:00000023
#0313b1:0000000000000013
#032381:0033000000000000
#0323b1:00000023
#032320:0013000000000000
#032350:00000023
#0333b0:13
#033380:0023
#033321:0013
#034351:33
#034321:0033332300000000
#0343b0:13
#034380:0033332300000000
#035350:0013
#035320:00000023
#035380:0000000000000013
#0363b0:00230000
#039380:13
#0393b0:00230000
#039350:0013
#039320:00000023
#0403a0:1424
#040370:00540000
#042320:0000000000000013
#043350:00330000
#044320:23
#043381:00130000
#0443b1:23
#045391:14240000
#045330:14240000
#049380:14240000
#053320:00140000
#053350:0000000034343400
#054350:0024
#0543a1:00142400
#055321:14240000
#055370:14240000
#0553a0:00001424
#055351:00001424
#0583a1:14240000
#058350:14240000
#058320:00001424
#058371:00001424
#0613b1:0013
#061381:00000023
#061351:0000000000000013
#062321:0033000000000000
#062351:0000002300000000
#064351:0000001300000000
#064321:0000000000230000
#065321:0000000000000013
#066331:33
#066341:0033000000000000
#066351:0000332300000000
#068381:0000001300000000
#0683b1:0000000000230000
#070381:0013
#0703b1:00000023
#0723b1:13
#072381:0000332300000000
#073321:0013
#073351:00000023
#0733b1:0000000000000013
#074381:00530000000000000000000000000000
#0743b1:00230000
#075321:13
#075351:0033
#076321:23
#0753b0:13
#075380:0033
#0763b0:23
#079350:0013
#079320:00000023
#079380:0000000000000013
#0803b0:00530000000000000000000000000000
#080380:00230000
#0813b0:0000000000000013
#082380:0033000000000000
#0823b0:0000002300000000
#083320:0000000000000013
#084350:00330000
#084320:00000023
#0843b1:00130000
#084381:00000023
#0853b1:13
#085381:0023
#085320:0013
#086350:33
#086320:0033332300000000
#0863b1:13
#086381:0033332300000000
#0873b1:0000000013000023
#087371:00000000000000000000335333000000
#091321:13
#091351:00230000
#091380:13
#0913b0:00230000
#0913b0:0013
#091380:00000023
#091351:0013
#091321:00000023
#092321:1323
#094341:0000001200220000
#0943a1:0000000000000012
#0963a1:22
#095340:00120000
#096340:22
#038980:13
#0389b0:0000002300000000
#0479a0:000000000000000000000000000000000000000000000000000000000000000000000000000000000000000000000000000000000000000000000000000000000000000000000000000000000000000000000000000000000000000000000000000000000000000000000000000000000000000000000000000000000000000000000000000000000000000000000000000000000000000000000000000000000000000000000000000000000000000000000000000000000000000000000000000000000000000000000000000000000000000000000000000000000000000000000000000000000000000000000000000000000000000000000000000000000000000000000000000000000000000000000000000000000000000000000000000000000000000000000000000000000000000000000000000000000000000000000000000000000000000000000000000000000000000000000000000000000000000000000000000000000000000000000000000000000000000000000000000000000000000000000000000000000000000000000000000000000000000000000000000000000000000000000000000000000000000000000000000000000000000000000000000000000000000000000000000000000000000000000000000000000000000000000000000000000000000000000000000000000000000000000000000000000000000000000000000000000000000000000000000000000000000000000000000000000000000000000000000000000000000000000000000000000000000000000000000000000000000000000000000000000000000000000000000000000000000000000000000000000000000000000000000000000000000000000000000000000000000000000000000000000000000000000000000000000000000000000000000000000000000000000000000000000000000000000000000000000000000000000000000000000000000000000000000000000000000000000000000000000000000000000000000000000000000000000000000000000000000000000000000000000000000000000000000000000000000000000000000000000000000000000000000000000000000000000000000000000000000000000000000000000000000000000000000000000000000000000000000000000000000000000000000000000000000000000000000000000000000000000000000000000000000000000000000000000000000000000000000000000000000000000000000000000000000000000000000000000000000000000000001400000000000000000000000000000000000000000000000000000000000000000000000000000000000000000000000000000000000000000000000000000000000000000000000000000000000000000000000000000000000000000000000000000000000000000000000000000000000000000000000000000000000000000000000000000000000000000000000000000000000000000000000000000000000000000000000000000000000000000000000000000000000000000000000000000000000000000000000000000000000000000000000000000000000000000000000000000000000000000000000000000000000000000000000000000000000000000000000000000000000000000000000000000000000000000000000000000000000000000000000000000000000000000000000000000000000000000000000000000000000000000000000000000000000000000000000000000000000000000000000000000000000000000000000000000000000000000000000000000000000000000000000000000000000000000000000000000000000000000000000000000000000000000000000000000000000000000000000000000000000000000000000000000000000000000000000000000000000000000000000000000000000000000000000000000000000000000000000000000000000000000000000000000000000000000000000000000000000000000000000000000000000000000000000000000000000000000000000000000000000000000000000000000000000000000000000000000000000000000000000000000000000000000000000000000000000000000000000000000000000000000000000000000000000000000000000000000000000000000000000000000000000000000000000000000000000000000000000000000000000000000000000000000000000000000000000000000000000000000000000000000000000000000000000000000000000000000000000000000000000000000000000000000000000000000000000000000000000000000000000000000000000000000000000000000000000000000000000000000000000000000000000000000000000000000000000000000000000000000000000000000000000000000000000000000000000000000000000000000000000000000000000000000000000000000000000000000000000000000000000000000000000000000000000000000000000000000000000000000000000000000000000000000000000000000000000000000000000000000000
#047980:000000000000000000000000000000000000000000000000000000000000000000000000000000000000000000000000000000000000000000000000000000000000000000000000000000000000000000000000000000000000000000000000000000000000000000000000000000000000000000000000000000000000000000000000000000000000000000000000000000000000000000000000000000000000000000000000000000000000000000000000000000000000000000000000000000000000000000000000000000000000000000000000000000000000000000000000000000000000000000000000000000000000000000000000000000000000000000000000000000000000000000000000000000000000000000000000000000000000000000000000000000000000000000000000000000000000000000000000000000000000000000000000000000000000000000000000000000000000000000000000000000000000000000000000000000000000000000000000000000000000000000000000000000000000000000000000000000000000000000000000000000000000000000000000000000000000000000000000000000000000000000000000000000000000000000000000000000000000000000000000000000000000000000000000000000000000000000000000000000000000000000000000000000000000000000000000000000000000000000000000000000000000000000000000000000000000000000000000000000000000000000000000000000000000000000000000000000000000000000000000000000000000000000000000000000000000000000000000000000000000000000000000000000000000000000000000000000000000000000000000000000000000000000000000000000000000000000000000000000000000000000000000000000000000000000000000000000000000000000000000000000000000000000000000000000000000000000000000000000000000000000000000000000000000000000000000000000000000000000000000000000000000000000000000000000000000000000000000000000000000000000000000000000000000000000000000000000000000000000000000000000000000000000000000000000000000000000000000000000000000000000000000000000000000000000000000000000000000000000000000000000000000000000000000000000000000000000000000000000000000000000000000000000000000000000000000000000000000000000000000000000000000000000000000000000000000000000000000000000000000000000000000000000000000000000000000000000000000000000000000000000000000000000000000000000000000000000000000000000000000000000000000000000000000000000000000000000000000000000000000000000000000000000000000000000000000000000000000000000000000000000000000000000000000000000000000000000000000000000000000000000000000000000000000000000000000000000000000000000000000000000000000000000000000000000000000000000000000000000000000005400000000000000000000000000000000000000000000000000000000000000000000000000000000000000000000000000000000000000000000000000000000000000000000000000000000000000000000000000000000000000000000000000000000000000000000000000000000000000000000000000000000000000000000000000000000000000000000000000000000000000000000000000000000000000000000000000000000000000000000000000000000000000000000000000000000000000000000000000000000000000000000000000000000000000000000000000000000000000540000542400000000000000000000000000000000000000000000000000000000000000000000000000000000000000000000000000000000000000000000000000000000000000000000000000000000000000000000000000000000000000000000000000000000000000000000000000000000000000000000000000000000000000000000000000000000000000000000000000000000000000000000000000000000000000000000000000000000000000000000000000000000000000000000000000000000000000000000000000000000000000000000000000000000000000000000000000000000000000000000000000000000000000000000000000000000000000000000000000000000000000000000000000000000000000000000000000000000000000000000000000000000000000000000000000000000000000000000000000000000000000000000000000000000000000000000000000000000000000000000000000000000000000000000000000000000000000000000000000000000000000000000000000000000000000000000000000000000000000000000000000000000000000000000000000000000000000000000000000000000000000000000000000000000000000000000000000000000000000000000
#048920:14
#048940:000000000000000000000000000000000000000000000000000000000000000000000000000000000000000000000000000000000000000000000000000000000000000000000000000000000000000000000000000000000000000000000000000000000000000000000000000000000000000000000000000000000000000000000000000000000000000000000000000000000000000000000000000000000000000000000000000000000000000000000000000000000000000000000000000000000000000000000000000000000000000000000000000000000000000000000000000000000000000000000000540000000000000000000000000000000000000000000000000000000000000000000000000000000000000000000000000000000000000000000000000000000000000000000000000000000000000000000000000000000000000000000000000000000000000000000000000000000000000000000000000000000000000000000000000000000000000000000000000000000000000000000000000000000000000000000000000000000000000000000000000000000000000000000000000000000000000000000000000000000000000000000000000000000000000000000000000000000000000054000054240000000000000000000000000000000000000000000000000000000000000000000000000000000000000000000000000000000000000000000000000000000000000000000000000000000000000000000000000000000000000000000000000000000000000000000000000000000000000000000000000000000000000000000000000000000000000000000000000000000000000000000000000000000000000000000000000000000000000000000000000000000000000000000000000000000000000000000000000000000000000000000000000000000000000000000000000000000000000000000000000000000000000000000000000000000000000000000000000000000000000000000000000000000000000000000000000000000000000000000000000000000000000000000000000000000000000000000000000000000000000000000000000000000000000000000000000000000000000000000000000000000000000000000000000000000000000000000000000000000000000000000000000000000000000000000000000000000000000000000000000000000000000000000000000000000000000000000000000000000000000000000000000000000000000000000000000000000000000000000000000000000000000000000000000000000000000000000000000000000000000000000000000000000000000000000000000000000000000000000000000000000000000000000000000000000000000000000000000000000000000000000000000000000000000000000000000000000000000000000000000000000000000000000000000000000000000000000000000000000000000000000000000000000000000000000000000000000000000000000000000000000000000000000000000000000000000000000000000000000000000000000000000000000000000000000000000000000000000000000000000000000000000000000000000000000000000000000000000000000000000000000000000000000000000000000000000000000000000000000000000000000000000000000000000000000000000000000000000000000000000000000000000000000000000000000000000000000000000000000000000000000000000000000000000000000000000000000000000000000000000000000000000000000000000000000000000000000000000000000000000000000000000000000000000000000000000000000000000000000000000000000000000000000000000000000000000000000000000000000000000000000000000000000000000000000000000000000000000000000000000000000000000000000000000000000000000000000000000000000000000000000000000000000000000000000000000000000000000000000000000000000000000000000000000000000000000000000000000000000000000000000000000000000000000000000000000000000000000000000000000000000000000000000000000000000000000000000000000000000000000000000000000000000000000000000000000000000000000000000000000000000000000000000000000000000000000000000000000000000000000000000000000000000000000000000000000000000000000000000000000000000000000000000000000000000000000000000000000000000000000000000000000000000000000000000000000000000000000000000000000000000000000000000000000000000000000000000000000000000000000000000000000000000000000000000000000000000000000000000000000000000000000000000000000000000000000000000000000000000000000000000000000000000000000000000000000000000000000000000000000000000000000000000000000000000000000000000000000000000000
#051950:130000000000000000000000000000000000000000000000000000000000000000000000000000000000000000000000000000000000000000000000000000000000000000000000000000000000000000000000000000000000000000000000000000000000000000000000000000000000000000000000000000000000000000000000000000000000000000000000000000000000000000000000000000000000000000000000000000000000000000000000000000000000000000000000000000000000000000000000000000000000000000000000000000000000000000000000000000000000000000000000000000000000000000000000000000000000000000000000000000000000000000000000000000000000000000000000000000000000000000000000000000000000000000000000000000000000000000000000000000000000000000000000000000000000000000000000000000000000000000000000000000000000000000000000000000000000000000000000000000000000000000000000000000000000000000000000000000000000000000000000000000000000000000000000000000000000000000000000000000000000000000000000000000000000000000000000000000000000000000000000000000000000000000000000000000000000000000000000000000000000000000000000000000000000000000000000000000000000000000000000000000000000000000000000000000000000000000000000000000000000000000000000000000000000000000000000000000000000000000000000000000000000000000000000000000000000000000000000000000000000000000000000000000000000000000000000000000000000000000000000000000000000000000000000000000000000000000000000000000000000000000000000000000000000000000000000000000000000000000000000000000000000000000000000000000000000000000000000000000000000000000000000000000000000000000000000000000000000000000000000000000000000000000000000000000000000000000000000000000000000000000000000000000000000000000000000000000000000000000000000000000000000000000000000000000000000000000000000000000000000000000000000000000000000000000000000000000000000000000000000000000000000000000000000000000000000000000000000000000000000000000000000000000000000000000000000000000000000000000535353230000000000000000000000000000000000000000000000000000000000000000000000000000000000000000000000000000000000000000000000000000000000000000000000000000000000000000000000000000000000000000000000000000000000000000000000000000000000000000000000000000000000000000000000000000000000000000000000000000000000000000000000000000000000000000000000000000000000000000000000000000000000000000000000000000000000000000000000000000000000000000000000000000000000000000000000000000000000000000000000000000000000000000000000000000000000000000000000000000000000000000000000000000000000000000000000000000000000000000000000000000000000000000000000000000000000000000000000000000000000000000000000000000000000000000000000000000000000000000000000000000000000000000000000000000000000000000000000000000000000000000000000000000000000000000000000000000000000000000000000000000000000000000000000000000000000000000000000000000000000000000000000000000000000000000000000000000000000000000000000000000000000000000000000000000000000000000000000000000000000000000000000000000000000000000000000000000000000000000000000000000000000000000000000000000000000000000000000000000000000000000000000000000000000000000000000000000000000000000000000000000000000000000000000000000000000000000000000000000000000000000000000000000000000000000000000000000000000000000000000000000000000000000000000000000000000000000000000000000000000000000000000000000000000000000000000000000000000000000000000000000000000000000000000000000000000000000000000000000000000000000000000000000000000000000000000000000000000000000000000000000000000000000000000000000000000000000000000000000000000000000000000000000000000000000000000000000000000000000000000000000000000000000000000000000000000000000000000000000000000000000000000000000000000000000000000000000000000000000000000000000000000000000000000000000000000000000000000000000000000000000000000000000000000000000000000000000000000000000000000
#051920:00000053005300000000000000000000
#051981:000000000000000000000000000000000000000000000000000000000000000000000000000000000000000000000000000000000000000000000000000000000000000000000000000000000000000000000000000000000000000000000000000000000000000000000000000000000000000000000000000000000000000000000000000000000000000000000000000000000000000000000000000000000000000000000000000000000000000000000000000000000000000000000000000000000000000000000000000000000000000000000000000000000000000000000000000000000000000000000000000000000000000000000000000000000000000000000000000000000000000000000000000000000000000000000000000000000000000000000000000000000000000000000000000000000000000000000000000000000000000000000000000000000000000000000000000000000000000000000000000000000000000000000000000000000000000000000000000000000000000000000000000000000000000000000000000000000000000000000000000000000000000000000000000000000000000000000000000000000000000000000000000000000000000000000000000000000000000000000000000000000000000000000000000000000000000000000000000000000000000000000000000000000000000000000000000000000000000000000000000000000000000000000000000000000000000000000000000000000000000000000000000000000000000000000000000000000000000000000000000000000000000000000000000000000000000000000000000000000000000000000000000000000000000000000000000000000000000000000000000000000000000000000000000000000000000000000000000000000000000000000000000000000000000000000000000000000000000000000000000000000000000000000000000000000000000000000000000000000000000000000000000000000000000000000000000000000000000000000000000000000000000000000000000000000000000000000000000000000000000000000000000000000000000000000000000000000000000000000000000000000000000000000000000000000000000000000000000000000000000000000000000000000000000000000000000000000000000000000000000000000000000000000000000000000000000000000000000000000000000000000000000000000000000000000000000000000000000000000000130000000000000000000000000000000000000000000000000000000000000000000000000000000000000000000000000000000000000000000000000000000000000000000000000000000000000000000000000000000000000000000000000000000000000000000000000000000000000000000000000000000000000000000000000000000000000000000000000000000000000000000000000000000000000000000000000000000000000000000000000000000000000000000000000000000000000000000000000000000000000000000000000000000000000000000000000000000000000000000000000000000000000000000000000000000000000000000000000000000000000000000000000000000000000000000000000000000000000000000000000000000000000000000000000000000000000000000000000000000000000000000000000000000000000000000000000000000000000000000000000000000000000000000000000000000000000000000000000000000000000000000000000000000000000000000000000000000000000000000000000000000000000000000000000000000000000000000000000000000000000000000000000000000000000000000000000000000000000000000000000000000000000000000000000000000000000000000000000000000000000000000000000000000000000000000000000000000000000000000000000000000000000000000000000000000000000000000000000000000000000000000000000000000000000000000000000000000000000000000000000000000000000000000000000000000000000000000000000000000000000000000000000000000000000000000000000000000000000000000000000000000000000000000000000000000000000000000000000000000000000000000000000000000000000000000000000000000000000000000000000000000000000000000000000000000000000000000000000000000000000000000000000000000000000000000000000000000000000000000000000000000000000000000000000000000000000000000000000000000000000000000000000000000000000000000000000000000000000000000000000000000000000000000000000000000000000000000000000000000000000000000000000000000000000000000000000000000000000000000000000000000000000000000000000000000000000000000000000000000000000000000000000000000000000000000000000000000000000000535353
#0519b1:00000000000000000000005300530000
#052981:23
