This file was generated by Ched 2.7.0.0.
#TITLE ""
#ARTIST ""
#DESIGNER ""
#DIFFICULTY 0
#PLAYLEVEL
#SONGID ""
#WAVE ""
#WAVEOFFSET 0
#JACKET ""
#REQUEST "ticks_per_beat 480"
#00002: 4
#BPM01: 180
#00008: 01
#TIL00: ""
#VOLUME: ""
#HISPEED 00
#MEASUREHS 00
#00914:0000001400000000
#0091a:24000014
#00910:41
#01014:0014000000000000
#0101a:0014
#01112:14000014
#01118:0000001400000000
#01218:0014000000000000
#01212:0014
#0131a:1400001400000000
#01314:00000014
#01414:0014000000000000
#0141a:0014
#01512:1400001400000000
#01518:00000014
#01618:0014000000000000
#01612:0014
#0171a:1414
#01714:00140000
#01812:1414
#01818:00140000
#01918:1414
#01914:00140000
#02012:1414
#0201a:00140014
#02514:00140014
#0251a:2414
#02510:41
#02718:00140014
#02712:1414
#0291a:14
#02914:00140000
#02918:0014
#02912:00000014
#03018:14
#03014:00140000
#0301a:0014
#03112:14
#03118:00140000
#03114:0014
#0311a:00000014
#06912:14
#06918:00140000
#06914:0014
#0691a:00000014
#0691f:11
#07014:14
#07012:0014
#07018:00140000
#07218:14
#07214:00140000
#0721a:0014
#07114:00140000
#07118:0014
#0711a:14
#07112:00000014
#0741a:0014
#07914:00140014
#07918:0014
#0791a:24
#0791f:21
#0801a:14
#08010:41
#08112:14
#08118:00140000
#08114:0014
#0811a:00000014
#08212:1414
#0821a:00140000
#08318:14140000
#08314:00001414
#03318:00140014
#03314:0014
#03312:24
#03514:00140014
#03518:0014
#0351a:14
#03712:1414
#03718:00140014
#03814:1414
#0381a:00140014
#04318:14
#04514:0014
#04518:00140014
#04512:26
#04510:41
#0471a:1414
#04714:00140014
#04918:2414
#04914:00140014
#04818:14
#04812:00140000
#0551a:14
#05512:00140000
#05518:0014
#05612:14
#0561a:00140000
#05614:0014
#08514:00140000
#08518:0014
#08512:00000014
#0851a:24
#08718:00140000
#08714:0014
#0871a:00000014
#08712:14
#0891a:14
#08914:00140000
#08918:0014
#08912:00000014
#0901a:14
#09014:00140000
#09018:0014
#09012:00000014
#08618:14
#08814:14
#09314:14
#09418:14
#09514:14
#05713:24
#05719:24
#05918:24000024
#05914:0000002400000000
#0531a:24
#05310:41
#06110:41
#05114:0000545454000000
#05113:0054000000540000
#05112:5400000000005454
#05212:54
#02452:14
#0265a:0014
#02852:0014
#0305a:0014
#03352:14
#07052:0014
#0725a:0014
#08058:0014
#0805a:54
#04358:64
#05558:0014
#05654:0014
#04552:16
#04958:14
#05252:14
#03452:0014
#0365a:0014
#04154:14
#05358:0014
#05454:0014
#0855a:14
#0865a:0014
#08658:54
#08854:64
#08852:0014
#0925a:14
#09554:64
#0013a0:14003434
#0023a0:00342400
#003320:14003434
#004320:00342400
#005380:14003434
#006380:00342400
#007340:14003434
#008340:00342400
#021320:14
#023340:34
#023330:0034
#024320:24
#0263a0:1424
#028320:1424
#032320:1400003400003400
#033320:24
#034320:1424
#0363a0:1424
#039320:14
#039330:00340034
#039340:0034
#040320:34
#040340:00003434
#041340:24
#042380:1400003400003400
#043380:34
#0443a0:24
#046320:1424
#048380:00001434
#049380:24
#0503a0:1424
#0533a0:14
#053380:00342400
#054320:14
#054340:00342400
#058320:14
#058330:00340000
#058340:0024
#061320:14
#061340:00003434
#062320:00342400
#0633a0:14
#063380:00003434
#0643a0:00342400
#065340:14
#065320:00003434
#066340:00342400
#067380:14
#0673a0:00003434
#068380:00342400
#073320:14
#074340:24
#0753a0:14
#076380:24
#077320:14
#078320:24
#0803a0:14
#080380:0024
#0843a0:1400003400003400
#0853a0:24
#086380:14
#0863a0:0024
#088340:14
#088320:0024
#0913a0:14
#091390:00340034
#091380:0034
#0923a0:24
#095340:14
#096320:24
#051920:140000000000000000000000000000000000000000000000000000000000000000000000000000000000000000000000000000000000000000000000000000000000000000000000000000000000000000000000000000000000000000000000000000000000000000000000000000000000000000000000000000000000000000000000000000000000000000000000000000000000000000000000000000000000000000000000000000000000000000000000000000000000000000000000000000000000000000000000000000000000000000000000000000000000000000000000000000000000000000000000000000000000000000000000000000000000000000000000000000000000000000000000000000000000000000000000000000000000000000000000000000000000000000000000000000000000000000000000000000000000000000000000000000000000000000000000000000000000000000000000000000000000000000000000000000000000000000000000000000000000000000000000000000000000000000000000000000000000000000000000000000000000000000000000000000000000000000000000000000000000000000000000000000000000000000000000000000000000000000000000000000000000000000000000000000000000000000000000000000000000000000000000000000000000000000000000000000000000000000000000000000000000000000000000000000000000000000000000000000000000000000000000000000000000000000000000000000000000000000000000000000000000000000000000000000000000000000000000000000000000000000000000000000000000000000000000000000000000000000000000000000000000000000000000000000000000000000000000000000000000000000000000000000000000000000000000000000000000000000000000000000000000000000000000000000000000000000000000000000000000000000000000000000000000000000000000000000000000000000000000000000000000000000000000000000000000000000000000000000000000000000000000000000000000000000000000000000000000000000000000000000000000000000000000000000000000000000000000000000000000000000000000000000000000000000000000000000000000000000000000000000000000000000000000000000000000000000000000000000000000000000000000000000000000000000000000000000000000000000000000000000000000000000000000000000000000000000000000000000000000000000000000000000000000000000000000000000000000000000000000000000000000000000000000000000000000000000000000000000000000000000000000000000000000000000000000000000000000000000000000000000000000000000000000000000000000000000000000000000000000000000000000000000000000000000000000000000000000000000000000000000000000000000000000000000000000000000000000000000000000000000000000000000000000000000000000000000000000000000000000000000000000000000000000000000000000000000000000000000000000000000000000000000000000000000000000000000000000000000000000000000000000000000000000000000000000000000000000000000000000000000000000000000000000000000000000000000000000000000000000000000000000000000000000000000000000000000000000000000000000000000000000000000000000000000000000000000000000000000000000000000000000000000000000000000000000000000000000000000000000000000000000000000000000000000000000000000000000000000000000540000000000000000000000000000000000000000000000000000000000000000000000000000000000000000000000000000000000000000000000000000000000000000000000000000000000000000000000000000000000000000000000000000000000000000000000000000000000000000000000000000000000000000000000000000000000000000000000000000000000000000000000000000000000000000000000000000000000000000000000000000000000000000000000000000000000000000000000000000000000000000000000000000000000000000000000000000000000000000000000000000000000000000000000000000000000000000000000000000000000000000000000000000000000000000000000000000000000000000000000000000000000000000000000000000000000000000000000000000000000000000000000000000000000000000000000000000000000000000000000000000000000000000000000000000000000000000000000000000000000000000000000000000000000000000000000000000000000000000000000000000000000000000000000000000000000000000000000000000000000000000000000000000000000000000000000000000000000000054545454
#051940:00545400
#052920:24
