This file was generated by Ched 2.7.0.0.
#TITLE ""
#ARTIST ""
#DESIGNER ""
#DIFFICULTY 0
#PLAYLEVEL
#SONGID ""
#WAVE ""
#WAVEOFFSET 0
#JACKET ""
#REQUEST "ticks_per_beat 480"
#00002: 4
#BPM01: 132
#00008: 01
#TIL00: ""
#VOLUME: ""
#HISPEED 00
#MEASUREHS 00
#00412:00120000
#0041c:00000012
#00418:24
#00414:0024
#00515:0013130000000000
#00518:24000013000000000000000000001300
#0051b:0000000000130000
#00510:41
#0071b:1313000000000000
#00712:1300000000000013
#00715:00000013000000000000130000000000
#00718:00130000
#00618:1300001300000000
#00612:1300001300000000
#00615:00000013000000001300000000000000
#0061b:00000013000000001300000000000000
#00818:13
#00812:0000001300000000
#00816:0000000000000000000000000000000014141414141414140000000000000000
#00817:00000000000000000000000000000000000000000000000000000000000000000014000000140000001400000014000000000000000000000000000000000000
#00815:00000000000000000000000000000000000000000000000000000000000000000000001400000014000000140000001400000000000000000000000000000000
#00918:0013130000000000
#00915:00000013000000000000000000001300
#00912:0000000000130000
#00914:24
#01015:1300001300000000
#0101b:1300001300000000
#01018:00000013000000001300000000000000
#01012:00000013000000001300000000000000
#01112:1313000000000000
#0111b:1300000000000013
#01118:00000013000000000000130000000000
#01115:00130000
#01215:1300000000000013
#0121b:0000001300130000
#01218:00000013
#01312:13
#01316:00130014
#0131b:0000001313000000
#0131a:24
#0141b:13
#01417:00130000
#01412:1300001313000000
#01416:00000014
#02112:1300000000000013
#0211b:00130000
#02118:0000001300000000
#02116:0013
#02119:00000000000000000000001300000000
#0211a:24
#02212:0013000000000000
#02215:00131300
#02218:0000001300000013
#0221b:0013
#02315:1300001300000000
#0231b:0013000000000013
#02318:00130000
#02312:0013
#02412:23231300
#0241b:1300230023000013
#02415:0023000000130000
#02418:0000002300001300
#02515:00000013000013000000000000000000
#02518:00000000000000000000001300000000
#0251b:0013
#02512:2400000000000013
#02510:41
#02612:0000001313000000
#02618:0000000013000013
#02615:0013000000000000
#0261b:13
#0281b:13000013000000000000000000000000
#02817:00000000000000000000001300000000
#02815:13
#02818:0000000000000026
#0291a:00140000
#02916:00000000000000001400001400001400
#02912:2414
#0301b:00001300000000000000001300000000
#03018:00130000
#03015:0000001300000000
#03012:0000000013000013
#0311a:1414
#03112:00140000
#03116:00000000000000001400001400001400
#03215:0000130000000013
#03212:00001300000000000000001300000000
#03218:0000001300000000
#0321b:0013
#03312:0013000000000013
#03315:00130000
#03318:2300001300000000
#0331b:0013
#0341b:23231300
#03412:1300230023000013
#03418:0023000000130000
#03415:0000002300001300
#02715:13000013000000000000000000001300
#02718:00000000000013001300001300000000
#02712:0013
#0271b:13
#03518:13000013000000000000000000001300
#03515:00000000000013001300001300000000
#0351b:0013
#03512:13
#03510:41
#03716:00140014
#0371a:0000000000000024
#03712:2300000000000024
#0371b:23
#03816:00140014
#03812:0000000000000025
#03819:0000000000000025
#03916:00140014
#03912:0000000000000025
#03919:0000000000000025
#04016:00140014
#04012:0000002600000000
#04018:0000002600000000
#04116:00141414
#0411f:11
#04112:2600000000000025
#04118:26
#04119:0000000000000025
#04216:00141414
#04212:0000000000000025
#04219:0000000000000025
#04316:00141414
#04312:0000000000000024
#0431a:0000000000000024
#04416:00140014
#04412:0000002300000000
#0441b:0000002300000000
#0501b:0013000013000000
#05018:00130000
#05015:0000001300000013
#05012:0013
#05112:1300001300000000
#0511b:1313
#05118:00001300000000000000001300000000
#05115:0000130013000013
#05110:41
#05215:0000000000130000
#05217:00000013
#05219:0000000000000013
#05212:1324
#0521b:0013
#0521a:24
#05218:0024000000000000
#05216:00240000
#05214:0000002400000000
#05315:13000000000000000000001300001300
#05318:00000013000013001300000000000000
#05312:0000001313000000
#0531b:2300000000000013
#05412:1300001313000000
#05418:1313
#05415:0013000000000000
#0541b:00000013000000000000000000000000
#0541c:0000000000000012
#05416:0000000000000012
#0651a:00140000
#06519:00000014
#06512:26
#06618:00140000
#06617:00000014
#06715:00140000
#06714:00000014
#06813:00140000
#06812:00000014
#06818:00000000000000000000000000140000
#06814:00000000000000000000000000000014
#07115:0000001300000000
#07118:00000000000000130000140000001600
#07114:0014
#07112:14000016
#0711a:00240000
#04514:00150000
#04517:00000014
#04512:15
#04617:00000012
#04616:00130000
#04812:16
#04818:16
#05512:0000001400000000
#05514:00000013000000000000000000000000
#05516:12
#05519:00000000000000000000001300000000
#0551a:0000000000000014
#05616:0000000000002400000000000000001400000000000000000000000000000000
#05612:0000000000000000000000000000001400000000000000000000000000000000
#0561a:24000014000000000000000024000000
#0571a:1400000000000014
#05712:24000000000000000000001400000000
#05716:0014
#0581b:00001300000000000000001300000000
#05815:0013001300000000
#05818:00131300
#05812:0000000013000013
#05912:1400000000000014
#0591a:14000000000000000000001400000000
#05916:0014
#06012:00001300000000000000001300000000
#06018:0013001300000013
#06015:00131300
#0601b:0013
#06010:41
#06112:1313
#06115:00001300000000000000001300000000
#06118:0000130013000013
#0611b:2300001300000000
#06218:0000002400130000
#06216:00240013
#06214:0024000000000013
#0621b:13
#06212:2413
#0621a:0024
#06318:13
#0631b:00000000000013001300001300000000
#06312:13000013000000000000000000001300
#06315:0013
#03612:13
#0361b:13
#03615:0000001313000000
#03618:0013
#0641b:13
#06412:1300000000000013
#06418:0000001313000026
#06413:00000013
#06414:0000000000130000
#06417:00000000000000000000001300000000
#01518:0013
#0151b:13000013
#01516:13140014
#01512:00130000
#01510:41
#01612:1300000000130000
#01616:00140014
#01614:0013
#0161b:0000001300000000
#01619:0013
#0171a:0000001300000000
#01713:0000000000130000
#0171b:0000000000000013
#01716:24242424
#01812:1300000000130000
#0181b:0000001300000000
#01815:2600260026002616
#01915:00000033333333331300000000000000
#0191b:23000000000000000000003333333333
#01912:23000000000000000000003333333333
#01918:0023
#01913:00330000000000000000330000000000
#01914:00003300000000000033000000000000
#01919:00000000000000000033000000000000
#0191a:0000000000330000
#0691a:0014
#06918:26
#06912:00240000
#06914:00000024
#07018:14000024
#07014:0014
#07016:00240000
#0011a:24
#00112:24
#00118:0000000000000024
#00214:2424
#00218:0024
#0031a:24
#00312:24
#00314:0000000000000024
#04918:2626
#04912:26000000000000000000002600000000
#0491f:0000000000000021
#02016:00000024
#0751c:52
#0015a:14
#00152:14
#00158:0000000000000014
#00254:1414
#00258:0014
#0035a:14
#00352:14
#00354:0000000000000014
#0135a:14
#01352:53
#01356:00230000
#00458:14
#00454:0014
#00452:00520000
#0045c:00000062
#00558:14
#00658:5300005300001300
#00652:5300005300001300
#00655:00000063000000006300000000000000
#0065b:00000063000000006300000000000000
#00856:0000000000000000000000000000000054545454545454541400000000000000
#00857:00000000000000000000000000000000000000000000000000000000000000000024000000240000002400000024000000000000000000000000000000000000
#00855:00000000000000000000000000000000000000000000000000000000000000000000002400000024000000240000002400000000000000000000000000000000
#01055:6300006300001300
#0105b:6300006300001300
#01058:00000053000000005300000000000000
#01052:00000053000000005300000000000000
#00954:14
#0145b:63
#01457:00230000
#0215b:00630000
#02158:0000002300000000
#02152:53
#02156:0063
#02159:00000000000000000000006300000000
#0215a:14
#02157:0000000000000013
#02252:00000000000000000000001300000000
#02258:00000000000000000000001300000000
#0225b:0063
#02255:0063
#02652:0053
#02658:0053
#02655:00000000000000000000001300000000
#0265b:00000000000000000000001300000000
#0285b:00000063000000000000000000000000
#02858:0000000000000046
#02857:00000000000000000000002300000000
#02855:63
#0295a:00000000140000000000001400000000
#02952:1400000014000014
#02956:00000000000000005400006400000000
#03052:0053
#0305b:00000000000000000000006300000000
#0315a:1400000014000014
#03152:00000000140000000000001400000000
#03156:00000000000000006400005400000000
#0255b:00000013000000000000000000000000
#02552:00000000000000000000001300000000
#02752:0053
#02758:00000000000000000000005300000000
#0275b:63
#02755:00000063000000000000000000000000
#0355b:0063
#03555:00000000000000000000006300000000
#03552:53
#03558:00000053000000000000000000000000
#0375a:0000000000000014
#03752:1300000000000014
#0375b:13
#03852:0000000000000015
#03859:0000000000000015
#03952:0000000000000015
#03959:0000000000000015
#04052:0000001600000000
#04058:0000001600000000
#04152:1600000000000015
#04158:16
#04159:0000000000000015
#04252:0000000000000015
#04259:0000000000000015
#04352:0000000000000014
#0435a:0000000000000014
#04452:0000001300000000
#0445b:0000001300000000
#05055:00000000000000000000001300000000
#05052:0053
#0505b:0063
#05058:00000000000000000000001300000000
#05355:63
#05352:00000013000000000000000000000000
#05358:0053
#0535b:00000000000000000000001300000000
#0545b:00000063000000000000001300000000
#05458:0053
#05452:0053
#05455:00000000000000000000001300000000
#06958:16
#07158:0000000000000056
#04958:1600000000000016
#04952:1600000000000016
#04852:66
#04858:56
#05155:0063
#05158:00000000000000000000005300000000
#0565a:00000064000000000000000044000000
#05656:0000000000006400000000000000002400000000000000004400000000000000
#05652:0000000000000000000000000000002400000000000000000000000000000000
#05756:0000140054000014
#0575a:64000000000000000000001400000000
#05752:14000000000000001400005400000000
#05852:0053
#0585b:00000000000000000000006300000000
#05952:54000000000000000000001400000000
#0595a:14000000000000001400006400000000
#05956:0000140064000014
#0605b:0063
#0325b:0063
#06158:0053
#06155:00000000000000000000006300000000
#06358:53
#0635b:00000000000000000000006300000000
#06355:0063
#06352:00000053000000000000000000000000
#0365b:63
#03658:0053
#03655:0063
#06452:53
#06458:0000000053000046
#06457:00000000000000000000002300000000
#06552:16
#01558:0053
#0155b:00000023
#01556:63
#01552:00230000
#01955:0063
#01952:53
#01958:0053
#02052:13
#0205b:13
#004320:00120000
#004340:0024
#0043c0:00000012
#005380:24
#005380:00000000001300230000000000000000
#005321:00000000000000130000000000000000
#005351:0000000000230000
#005351:00000000000000000000001300000000
#005321:0000000000000023
#006321:13000000003333000000000023000000
#006351:00003333000000003300000000000000
#006380:13000000003333000000000023000000
#0063b0:00003333000000003300000000000000
#007320:00000000001300230000000000000000
#007381:00000000000000130000000000000000
#0073b1:0000000000230000
#0073b1:00000000000000000000001300000000
#007381:0000000000000023
#008321:13
#008351:00000023000000000000000000000000
#0083b0:00000013000000000000000000000000
#008380:0000002300000000
#008360:0000000000000000000000000000000014545454545454542400000000000000
#008370:00000000000000000000000000000000000000000000000000000000000000000054000000540000005400000054000000000000000000000000000000000000
#008350:00000000000000000000000000000000000000000000000000000000000000000000005400000054000000540000005400000000000000000000000000000000
#009350:00000000001300230000000000000000
#0093b1:00000000000000130000000000000000
#009381:0000000000230000
#009381:00000000000000000000001300000000
#0093b1:0000000000000023
#0103b1:13000000003333000000000023000000
#010381:00003333000000003300000000000000
#010350:13000000003333000000000023000000
#010320:00003333000000003300000000000000
#0113b0:00000000001300230000000000000000
#011351:00000000000000130000000000000000
#011321:0000000000230000
#011321:00000000000000000000001300000000
#011351:0000000000000023
#0123b1:13
#012381:00000023000000000000000000000000
#012320:00000013000000000000000000000000
#012350:0000002300000000
#013320:1323
#013360:00530000
#0143b0:1323
#014370:00530000
#015360:13
#015320:00530000
#015350:0023
#015381:0013
#0153b1:00000053
#016371:23
#019321:13000000000000000000003333333333
#019331:00330000000000000000330000000000
#019341:00003300000000000033000000000000
#019351:00000033333333333300000000000000
#020321:23
#019380:0013
#019390:00000000000000000033000000000000
#0193a0:0000000000330000
#0193b0:00000000000000000000003333333333
#0203b0:23
#021320:13
#021360:00230000
#0213b1:00132300
#021381:0000005300000000
#021360:0013
#021340:00000000000000000000002300000000
#021391:00000000000000000000001300000000
#021371:0000000000000023
#0223b1:0013
#022381:00000000000000000000002300000000
#022350:0013
#022320:00000000000000000000002300000000
#023380:00000000000000001300002300000000
#023351:00000000000000000000001300002300
#0253b1:13000023000000000000000000000000
#025321:00000000000000001300002300000000
#026381:00000013000023000000000000000000
#026321:0013
#026351:00000000000000000000002300000000
#026380:0013
#0263b0:00000000000000000000002300000000
#0273b0:13
#027380:00000023000000000000000000000000
#027351:00000013000000000000000000000000
#027321:0000002300000000
#027321:0013
#027351:00000000000000000000002300000000
#027380:00000000000000000000001300000000
#0273b0:0000000000000023
#028350:13
#028320:00000023000000000000000000000000
#0283b1:00000013000000000000000000000000
#028371:00000000000000000000005300000000
#028381:0000000000000026
#029361:0014
#0293a1:00000000000000000000002400000000
#029360:00000000000000000000001400000000
#029320:0000000000000024
#030320:0013
#030350:00000000000000000000002300000000
#0303b1:00000000000000000000001300000000
#030381:0000000000000023
#031361:0014
#031321:00000000000000000000002400000000
#031360:00000000000000000000001400000000
#0313a0:0000000000000024
#0323b0:0013
#032380:00000000000000000000002300000000
#033350:00000000000000001300002300000000
#033381:00000000000000000000001300002300
#035321:13
#035351:00000023000000000000000000000000
#035380:00000013000000000000000000000000
#0353b0:0000002300000000
#0353b0:0013
#035380:00000000000000000000002300000000
#035351:00000000000000000000001300000000
#035321:0000000000000023
#0363b1:13
#036381:0000003333000000
#0373b1:23
#036350:0013
#037320:23
#045390:1525
#045331:0014
#046331:24
#0463a0:1323
#046341:0012
#047341:32
#048321:36320000
#049321:26
#0473a0:12
#048380:36
#0483c0:00320000
#049380:26
#049380:0000000016000026
#049321:00000000000000000000001600002600
#050321:0013
#050351:00000000000000000000002300000000
#0503b0:0013
#050380:00000000000000000000002300000000
#051350:0013
#051320:00000000000000000000002300000000
#051381:00000000000000000000001300000000
#0513b1:0000000000000023
#053351:13
#053321:00000023000000000000000000000000
#053381:0013
#0533b1:00000000000000000000002300000000
#0543b1:00000013000000000000000000000000
#054381:0000002300000000
#054381:0013
#0543b1:00000000000000000000002300000000
#054320:0013
#054350:00000000000000000000002300000000
#0553c0:12
#055380:0022
#055321:0014
#056361:24
#0563a0:14000034000000000000000024000000
#056360:0000000000000000000000000000005400000000000000000000000000000000
#056361:00000014000000000000000024000000
#056321:0000000000000000000000000000005400000000000000000000000000000000
#0573a1:14
#057361:00240000
#057320:00142400
#057361:0014
#0573a1:00000000000000000000002400000000
#057320:00000000000000000000001400000000
#057360:0000000000000024
#058320:0013
#058350:00000000000000000000002300000000
#0583b1:00000000000000000000001300000000
#058381:0000000000000023
#059321:14
#059361:00240000
#0593a0:00142400
#059361:0014
#059321:00000000000000000000002400000000
#0593a0:00000000000000000000001400000000
#059360:0000000000000024
#0603b0:0013
#060380:00000000000000000000002300000000
#061380:0013
#0613b0:00000000000000000000002300000000
#061351:00000000000000000000001300000000
#061321:0000000000000023
#063381:13
#0633b1:00000023000000000000000000000000
#063320:00000013000000000000000000000000
#063350:0000002300000000
#063350:0013
#063320:00000000000000000000002300000000
#0633b1:00000000000000000000001300000000
#063381:0000000000000023
#064321:13
#064351:0000003323000000
#064380:0000000013000026
#064370:00000000000000000000005300000000
#071380:0000000000000016
#0753c0:22
