This file was generated by Ched 2.7.0.0.
#TITLE ""
#ARTIST ""
#DESIGNER ""
#DIFFICULTY 0
#PLAYLEVEL
#SONGID ""
#WAVE ""
#WAVEOFFSET 0
#JACKET ""
#REQUEST "ticks_per_beat 480"
#00002: 4
#BPM01: 132
#00008: 01
#TIL00: ""
#VOLUME: ""
#HISPEED 00
#MEASUREHS 00
#00712:13
#0071b:13
#00718:0000000000130000
#00715:00000000000000000000001300000000
#00618:13
#0061b:00003333003333001300000000000000
#01218:0000000000130013
#01215:13000013
#01212:00000013000000000000000000000000
#02218:0013000000000000
#02212:00130000
#0221b:0000001300000013
#02315:13
#02318:0013000013000000
#02312:00130000
#0231b:00000000000000000000003300000000
#0241b:0000000000130000
#02412:00000013
#02418:0023002300000013
#02415:23232300
#0251b:0000001300000000
#02518:0000000000000013
#02510:41
#02618:0013000000000013
#0261b:0000001300000000
#02612:13
#02615:00000013000000000000000000000000
#0291b:00130000
#02914:0000000014000014
#02918:00000000000000000000001400000000
#02912:23
#0311b:13
#03112:00130000
#03118:0000000014000014
#03114:00000000000000000000001400000000
#03718:00000013
#03715:00130000
#0371b:23
#03712:0000000000000023
#05012:0013000000000013
#05018:00130000
#05015:0000001300000000
#0501b:0013
#05115:1300001300000000
#05118:0013000013000000
#0511b:00000000130000000000001300000000
#05110:41
#05212:23000013
#05218:0000000000000013
#0521b:0000000000130000
#05217:0023000000000000
#05214:00230000
#05219:0000002300000000
#05216:0023
#05318:0000001300000000
#0531b:0000000000000013
#05312:13
#05315:0013
#05412:1313
#05418:0013001300000000
#0541b:0000000000000013
#05415:00000013000000000000000000000000
#06818:00130013
#04818:16
#04812:16130000
#0481b:00130000
#0581b:00001300000000000000001300000000
#05818:00131300
#05815:0000001300000000
#01512:13
#01515:00130000
#01518:0013
#0151b:00000013
#01510:41
#01612:0000000000130000
#01615:0000001300000000
#0161b:0013
#01618:13000013
#0171b:00000013
#01715:0000001300000013
#01812:0000001300000000
#01815:0000000000130000
#01818:1313
#0181b:00000013
#00512:0013000000000000
#00518:26130000
#00515:00000000000000130000000000000000
#00510:41
#00818:13
#0081b:00000013000000000000000000000000
#01015:13
#01012:00003333003333001300000000000000
#0091b:0013000000000000
#00915:00130000
#00918:00000000000000130000000000000000
#00912:26
#0111b:13
#01112:13
#01115:0000000000130000
#01118:00000000000000000000001300000000
#01315:13
#01418:13
#0191b:0013
#01912:0013
#01915:13
#01918:13
#02015:13
#02018:13
#0201b:00000063
#02012:00000063
#02112:00000000130000000000003300000000
#02115:0013
#0211b:23
#02712:13
#02715:00000013000000000000000000000000
#02718:0013
#0271b:00000000000000000000001300000000
#02812:13
#02815:00000013000000000000000000000000
#0301b:0013000000000000
#03012:00000000130000000000001300000000
#03018:0000001300000000
#03015:0013
#03212:0013000000000013
#0321b:00130000
#03215:0000001300000000
#03218:0013
#03315:0013000013000000
#0331b:00130000
#03318:23
#03312:00000000000000000000003300000000
#03412:0000000000130000
#0341b:00000013
#03415:0023002300000013
#03418:23232300
#0361b:13
#03618:0013
#03815:00000013
#03818:00130000
#0381b:0000000000000023
#03918:00000013
#03915:00130000
#03912:0000000000000023
#0401b:00130013
#04015:0000002300000000
#04115:00000013
#04118:00130000
#0411f:11
#04112:23
#0411b:0000000000000023
#04218:00000013
#04215:00130000
#04212:0000000000000023
#04315:00000013
#04318:00130000
#0431b:0000000000000023
#04412:00130013
#04418:0000002300000000
#04912:26000000000000002300001300000000
#0491b:00000000000000002300001300000000
#04918:26
#0491f:0000000000000021
#05612:24000014000000000000000000000000
#05715:00130000
#0571a:0014
#05716:00000000000000000000001400000000
#05712:0000000000000014
#0571b:23
#05918:00130000
#05912:1314
#05916:00000000000000000000001400000000
#0591a:0000000000000014
#0601b:0000000000000013
#06012:0013000000000000
#06015:00131300
#06018:0000001300000000
#06010:41
#06115:0013000013000000
#06112:00000000130000000000001300000000
#06118:2300001300000000
#0621b:23000013
#06212:0000000000130013
#06216:0023000000000000
#06219:00230000
#06214:0000002300000000
#06217:0023
#0351b:13
#03518:00000013000000000000000000000000
#03512:00000000000000000000001300000000
#03515:0013
#03510:41
#0631b:13
#06318:00000013000000000000000000000000
#06312:0013
#06315:00000000000000000000001300000000
#05512:13
#05515:00000013000000000000000000000000
#0551b:0013
#05518:00000000000000000000001300000000
#0641b:13
#06418:0013
#06515:00130013
#0651b:23
#06615:00130013
#06718:00130013
#06916:0014
#06912:23000023
#0691b:00230000
#07016:1414
#0701b:00230000
#07012:00000023
#07116:1414
#0711b:0000230000000013
#07112:00000023
#00118:26
#00114:0000000000000024
#00212:0024
#00218:24
#0021a:0024
#00412:0024
#00414:24
#0041a:0024
#00312:26
#00318:0000000000000024
#0461b:00330000
#04612:00000033
#07517:52
#00158:16
#00154:0000000000000014
#00252:0014
#00258:14
#0025a:0014
#00452:0014
#00454:14
#0045a:0014
#00558:16
#00555:00000000000000630000000000000000
#00658:53000013
#0065b:0063
#0215b:13
#02152:0000530000000013
#02155:0063
#02655:00000000000000000000001300000000
#0295b:00130000
#02954:0000000000000014
#02952:13
#0315b:13
#03152:00130000
#03158:0000000000000014
#02555:00000013000000000000000000000000
#02552:00000000000000000000001300000000
#0375b:13
#03752:0000000000000013
#0385b:0000000000000013
#03952:0000000000000013
#0505b:0063
#05058:00000000000000000000001300000000
#05452:0053
#05455:00000000000000000000001300000000
#06952:13
#04958:1600000000000013
#04955:0000000000000013
#04952:16000000000000000000005300000000
#0495b:00000000000000000000006300000000
#04858:56
#04852:66530000
#0485b:00630000
#0655b:13
#00352:16
#00358:0000000000000014
#00755:00000000000000130000006300000000
#00858:53
#0085b:00000063000000000000000013000000
#01055:63000013
#01052:0053
#00952:16
#00958:00000000000000530000000000000000
#01158:00000000000000130000005300000000
#01255:6300001300000000
#01252:00000053000000000000000000000000
#01355:63
#01458:53
#0155b:00000063
#01658:23000053
#01755:0000006300000000
#01858:53
#0185b:00000063
#0195b:0063
#01952:0053
#01955:63
#01958:53
#02055:63
#02058:53
#02255:00000000000000000000001300000000
#02358:0053
#02752:53
#02755:00000063000000000000000000000000
#02758:0053
#0275b:00000000000000000000006300000000
#02852:53
#02855:00000063000000000000000000000000
#03055:0063
#03052:00000000000000000000005300000000
#03258:0053
#03355:0063
#0365b:63
#03658:0053
#04055:0000001300000000
#04152:13
#0415b:0000000000000013
#04252:0000000000000013
#0435b:0000000000000013
#04458:0000001300000000
#05158:0053
#0515b:00000000000000000000006300000000
#05352:53000000000000000000001300000000
#05355:00000013000000006300000000000000
#05652:00000054000000000000000000000000
#05656:00000014
#05755:00130000
#05752:0000000000000014
#0575b:13
#05958:00130000
#0595a:0000000000000014
#05952:13
#06155:0063
#06152:00000000000000000000005300000000
#0355b:63
#03558:00000053000000000000000000000000
#03552:00000000000000000000005300000000
#03555:0063
#0635b:63
#06358:00000053000000000000000000000000
#06352:0053
#06355:00000000000000000000006300000000
#05552:53
#05555:00000063000000000000000000000000
#0555b:0063
#05558:00000000000000000000005300000000
#0645b:63
#06458:0053
#0715b:0000000000000063
#05858:0053
#0585b:00000000000000000000006300000000
#06055:0063
#005350:00000000001300330000000000000000
#005320:00000000000000000000333300002300
#006380:13000023
#0063b0:00003333003333003300000000000000
#007320:0013000000000000
#007330:00000033000000000000000000000000
#007340:00330000
#007350:00000000003300230000000000000000
#007350:00000000000000000000001300000000
#007320:0000000000000023
#008380:1300003300000000
#0083b0:00000033000000000000000023000000
#009380:00000000001300330000000000000000
#0093b0:00000000000000000000333300002300
#010350:13000023
#010320:00003333003333003300000000000000
#0113b0:0013000000000000
#0113a0:00000033000000000000000000000000
#011390:00330000
#011380:00000000003300230000000000000000
#011380:00000000000000000000001300000000
#0113b0:0000000000000023
#012350:1300002300000000
#012320:00000033000000000000000000000000
#013350:13
#013320:0000003323000000
#014380:13
#0143b0:0000003323000000
#0153b0:00000013
#016380:53
#0163b0:00230000
#016380:00000013
#0173b0:23
#017350:0000001300000000
#017320:0000000000230000
#018380:13
#0183b0:00230000
#0183b0:00000013
#019380:3300000000000033
#0193b0:0033
#020380:33
#0203b0:00000023
#019351:1300000000000033
#019321:0033
#020351:33
#020321:00000023
#021321:00000000130000000000003300002300
#021351:0033
#022351:00000000000000001300002300000000
#023381:0000001333000000
#0233b1:00000000000000000000003300002300
#025351:13000023000000000000000000000000
#025321:00000000000000001300002300000000
#026351:00000000000000001300002300000000
#027321:1300002300000000
#027351:00000033000000000000000000000000
#027381:0000000013000023
#0273b1:00000000000000000000003300000000
#028321:13
#028351:00000033000000000000000000000000
#029321:23
#030351:0000000013000023
#030321:00000000000000000000003300000000
#032381:0013
#0323b1:00000000000000000000002300000000
#033351:0000001333000000
#033321:00000000000000000000003300002300
#0353b1:1300002300000000
#035381:00000033000000000000000000000000
#035351:0000000013000023
#035321:00000000000000000000003300000000
#0363b1:13
#036381:0000003333000000
#0373b1:23
#045381:13332300
#045350:00001333
#046350:23
#046381:13
#0463b1:00332300
#046350:0013
#046320:00000033
#047320:33
#048320:36330000
#049320:26
#0473b1:13
#048381:36
#0483b1:00330000
#049381:26
#049321:00000000000000001300003300000000
#049351:0000000000000023
#0493b0:00000000000000001300003300000000
#049380:0000000000000023
#0503b0:0013
#050380:00000000000000000000002300000000
#051380:0000000013000023
#0513b0:00000000000000000000003300000000
#053320:13
#053350:00000023000000000000000000000000
#053350:0013
#053320:00000000000000000000002300000000
#054320:0013
#054350:00000000000000000000002300000000
#055320:1300002300000000
#055350:00000033000000000000000000000000
#0553b0:0000000013000023
#055380:00000000000000000000003300000000
#056320:14000034000000000000000000000000
#056360:00000024
#058380:0000000013000023
#0583b0:00000000000000000000003300000000
#060350:0013
#060320:00000000000000000000002300000000
#061350:0000000013000023
#061320:00000000000000000000003300000000
#0633b0:1300002300000000
#063380:00000033000000000000000000000000
#063320:0000000013000023
#063350:00000000000000000000003300000000
#0643b0:13
#064380:0000003333000000
#0653b0:23
#0713b0:0000000000000013
#075370:22
