This file was generated by Ched 2.7.0.0.
#TITLE ""
#ARTIST ""
#DESIGNER ""
#DIFFICULTY 0
#PLAYLEVEL
#SONGID ""
#WAVE ""
#WAVEOFFSET 0
#JACKET ""
#REQUEST "ticks_per_beat 480"
#00002: 4
#BPM01: 182
#00008: 01
#TIL00: ""
#VOLUME: ""
#HISPEED 00
#MEASUREHS 00
#0051b:13
#00518:0000130000001313
#00515:1313
#00615:0013001300001300
#00618:0000130000130000
#00612:1313
#0091b:1313
#00918:00130013
#00912:00000013
#00915:0000000000000013
#00910:41
#0011b:13
#00118:00130013
#00115:0000000013000013
#00218:1313
#0021b:00130000
#00215:00130000
#00212:0013
#01018:1300130000130000
#0101b:0013000013000000
#01015:0000001300001300
#01012:0013
#01316:13
#01314:00130000
#01312:0000000013000014
#0131b:23
#01319:00230000
#01317:0023
#0131a:00000024
#01416:0014000024140000
#01412:0000001400000000
#01414:24
#01418:00240000
#0141a:00000024
#01616:0014000024140014
#0161a:0000001400000000
#01618:24
#01614:00240000
#01612:00000024
#00312:13
#00315:00130013
#00318:0000000013000013
#00415:1313
#00412:00130000
#00418:00130000
#0041b:0013
#00712:13
#00715:0000130000001313
#00718:1313
#00818:0013001300001300
#00815:0000130000130000
#0081b:1313
#01112:1313
#01115:00130013
#0111b:00000013
#01118:0000000000000013
#01215:1300130000130000
#01212:0013000013000000
#01218:0000001300001300
#0121b:0013
#01517:13
#01519:00130000
#0151b:0013
#0151a:0000000000000014
#01512:23000024
#01514:00230000
#01516:0023
#01715:0013
#01713:2424240000000000
#01719:2424240000000000
#01718:0023
#01818:0013000000000000
#0181a:0000001300000000
#01814:0000000000130000
#01816:0000000000000013
#0181b:23
#01817:0023
#01815:00230000
#01819:00000023
#01810:41
#0191b:0013000000000000
#01915:0000001300000013
#01918:00231300
#01913:23
#01912:0023
#02218:0013001300002300
#02215:0000230000130000
#02214:0000000000000014
#0221b:2323
#02212:0023
#02015:0013000000000000
#02013:0000001300000000
#02019:0000000000130000
#02017:0000000000000013
#02012:23
#02016:0023
#02018:00230000
#02014:00000023
#02112:0013000000000000
#02118:0000001300000013
#02115:00231300
#0211a:23
#0211b:0023
#02312:0014000000002400
#02318:1414
#0231a:00140000
#02314:0000001400000000
#02316:0000000000000024
#0241b:00130000
#0241a:24
#03114:00000012
#03117:0000000000000013
#0311f:0011
#0311b:0000005300000000
#03112:0000005300000000
#03214:12121212
#0321a:0000000000001313
#03219:5300005300000000
#0321b:0053530000000000
#03217:0053
#03314:1200120012120000
#0331a:0000001300001200
#03317:0013000000000000
#03316:0000000000000013
#0341a:12121212
#03413:0000000000001313
#03414:5300005300000000
#03412:0053530000000000
#03416:0053
#0351a:1200120012120000
#03512:00000013
#03516:0013000000000000
#03513:0000001300000000
#03517:0000000000000013
#0301b:0013
#03018:1300001300002300
#03012:00000013000000001300000000000000
#03015:00000023
#03612:13131313
#0361b:0013000000130000
#03617:0000001300000013
#03619:00000013
#03712:1300130013130000
#0371b:0013000000001300
#03717:0000001300000000
#03716:0000000000000013
#04818:13
#04814:0000000000140000
#0481b:00130000
#04812:2400000024000014
#04816:00000024
#0481f:21
#04912:0000240000130000
#04918:0014000000000013
#04916:0000001400000000
#04915:24000023
#0491a:0024
#04910:41
#05216:0000000000140014
#05218:13
#05215:0000001300000000
#0521b:00130000
#05212:2424
#0521a:00000024
#05318:0013001400001300
#05315:00231300
#0531b:0000000000130000
#0531a:2400000000000014
#05312:2400001300140000
#05415:13
#05418:13
#05412:00002413
#0541b:00000013
#0541a:00242400
#05416:0000002400000000
#07116:00131300
#07112:1300000000001313
#0711b:0013
#07117:0000000000001313
#07212:0000001400140000
#07216:13
#0721b:13
#07217:00001313
#02516:0000000000000013
#0251b:0000000000000013
#02512:00242400
#0251a:00242400
#0261b:1313
#02616:1300000013130000
#02617:0000131300001313
#02612:00130013
#02716:13
#0271b:13
#02718:0000000000000013
#02712:00242400
#0271a:00242400
#0281b:0000130013000013
#02815:13000013
#02812:0000000013000013
#02810:41
#02916:14
#02915:0000000000000013
#02912:00242400
#0291a:00242400
#0381b:13131313
#03812:0013000000130000
#03816:0000001300000013
#03814:00000013
#0391b:13131352
#03912:0013000000000000
#03916:0000001300000000
#03915:00000052
#04016:0000001200001200
#0401b:0012
#04014:0012
#04018:00000052
#04019:52
#04013:52
#0411a:0012
#04115:00000013
#0411b:12000013
#04116:00120000
#04113:5252
#04118:00520000
#04212:13001313
#04218:1313
#04215:0000001300000000
#04318:13
#04312:00130000
#0431b:0013
#0431a:00000024
#04316:00000024
#04418:0000001300002300
#0441b:0000000013000013
#04412:2400000000130000
#04416:24
#04415:0023
#04512:0013000013000000
#0451b:0000001300000000
#04515:23
#04518:00230000
#05015:13
#05018:0000001300140000
#05012:00130000
#0501a:2400000024000014
#05016:00000024
#0511b:0000000000130000
#05115:0000000000000013
#05116:0000001400000000
#05114:0014000000000000
#05118:00000023
#05112:0024
#0511a:00240000
#05117:24
#05618:0000000000140000
#0561a:2400000024000014
#05612:2424
#05616:00000024
#0571b:0000000000130000
#05715:0000000000000013
#05716:0000001400000000
#05714:0014000000000000
#05718:00000023
#05712:0024
#0571a:00240000
#05717:24
#06016:0000000000140014
#06015:13
#06018:0000001300000000
#06012:00130024
#0601a:2424
#06115:0013000000001300
#06114:0000001400000000
#06118:00231300
#06112:2400000000130014
#0611b:0000001300000000
#0611a:2400000000140000
#06110:41
#06218:13
#0621b:00000013
#06215:13
#06212:00242413
#06216:0000002400000000
#0621a:0024
#05818:13
#05814:0000000000140000
#0581b:00130000
#05812:2400000024000014
#05815:0000001300000000
#05816:00000024
#05912:0000240000130000
#05918:0014000000000013
#05916:0000001400000000
#05915:24000023
#0591a:0024
#06912:1300000000000013
#0691b:1300000000000013
#06915:00230000
#06918:00230000
#06416:0000001414001300
#06412:2400001313000000
#0641b:00000013
#06414:0000000000000013
#0641a:24
#06517:13
#06512:13001324
#06519:0013000000000000
#06516:00131400
#0651b:00130000
#06514:0000001300000000
#0651a:00000024
#06616:0000001400000000
#06612:24000013
#06618:0013
#06615:0013
#0661a:24
#0671b:13
#06718:00130000
#06712:13001424
#06716:0000001400000000
#0671a:00001424
#06818:0000001300000000
#06815:0000000013000013
#0681b:00000000000000000000001300000000
#0681a:24
#06812:24
#07317:00131300
#0731b:0000000000001313
#07312:0013
#07316:0000000000001313
#0741a:0000001400140000
#07417:13
#07412:13
#07416:00001313
#07516:0000140014001313
#07512:0013
#0751b:0000000000001313
#07616:0013000000130000
#0761b:0000001300000000
#07617:13001313
#07612:00130013
#07716:00141400
#0771b:1313
#07712:0000000000001313
#07717:0000000000001313
#07817:0013000000131300
#07812:0000001300001300
#07816:1313
#0781b:00130000
#06318:1313
#06312:00130024
#0631a:00000024
#05515:1313
#0551b:00130000
#05512:00000024
#0551a:00000024
#07914:2323230000000000
#07919:2323230000000000
#07010:41
#07015:0053
#07018:0053
#00252:0053
#00258:0053
#00255:00000013
#0025b:00000013
#00455:0063
#0045b:0063
#00452:00000013
#00458:00000013
#00655:00000013
#00858:00000013
#01055:00000013
#01258:00000013
#0145a:00000014
#01755:0053
#01758:0013
#01958:0053
#02155:0063
#02358:0054
#02352:0034000000000000
#02254:0000000000000034
#0255a:00141400
#02552:00141400
#02752:00141400
#0275a:00141400
#02756:13
#02952:00141400
#0295a:00141400
#02956:14
#04858:63
#04852:14
#0485b:00230000
#05258:53
#0525b:00230000
#05252:14
#05358:0000004400000000
#05352:0000000000340000
#05455:63
#0545b:00000023
#0565a:14
#05652:1414
#02852:00130000
#0285b:00135300
#02855:53
#03058:63000053
#03052:00000023000000000000000000000000
#03055:00000053
#03657:0000000000000013
#0375b:0013000000000000
#03757:0000001300000000
#03856:0000000000000013
#03952:0013000000000000
#03956:0000001300000000
#0395b:00000012
#03955:00000012
#04056:00000052
#0405b:0052
#04059:12
#04053:12
#04155:00000013
#0415b:52000013
#04156:00520000
#04252:13000053
#04258:1353
#04358:53
#04352:00530000
#0435a:00000014
#04356:00000014
#04456:14
#04452:1400000000230000
#04455:0053
#04458:00000053
#0445b:0000000000000023
#04555:53
#04558:00530000
#04552:0023000000000000
#0455b:0000002300000000
#05055:53
#05052:00230000
#0505a:14
#06055:63
#06052:00230000
#0605a:14
#06154:0000003400000000
#0615a:0000000000440000
#06258:53
#06252:00000023
#05858:63
#0585b:00230000
#05852:14
#06556:0014
#0655a:00000014
#06552:00000014
#06652:14000013
#06658:0063
#0665a:14
#0665b:00000013
#06752:23001414
#0675a:00001414
#06855:0053
#0685b:00000000000000000000002300000000
#0685a:14
#06852:14
#0635a:00000014
#06352:00230014
#06358:5353
#0645a:14
#06452:14
#06456:0044
#0695b:0000000000000023
#06952:0000000000000023
#06955:00530000
#06958:00530000
#07157:0000000000000053
#07152:1300000000000053
#07256:23
#0725b:23
#07257:00000053
#07356:0000000000000063
#0735b:1300000000000063
#07457:23
#07452:23
#07456:00000063
#07552:1313
#0755b:0000130000000053
#07656:0053000000000000
#0765b:0000005300000000
#07657:23002313
#07652:00230013
#0775b:1313
#07752:0000130000000063
#07857:0063000000001300
#07852:0000006300001300
#07856:2323
#0785b:00230000
#05555:6363
#0555b:00230000
#05552:00000014
#0555a:00000014
#07954:00130000
#07959:00130000
#04752:001c0000
#002380:0013
#0023b0:00000023
#002321:0013
#002351:00000023
#004351:0013
#004321:00000023
#0043b0:0013
#004380:00000023
#009350:1323
#009320:00330000
#011380:1323
#0113b0:00330000
#017350:0013
#018320:23
#019380:0013
#0203b0:23
#021350:0013
#022320:23
#023380:0014
#0233a0:00000024
#024320:00130000
#024340:0024
#024381:0013
#0243a1:00000024
#024320:00000013
#025340:24
#025381:13
#0253a1:00240000
#028351:13
#028321:00230000
#0283b1:0013
#028381:00000023
#030381:13
#0303b1:00000023000000000000000000000000
#030320:00000013000000000000000000000000
#030350:0000002300000000
#030350:00000013
#031320:0000332300000000
#030381:00000013
#0313b1:0000332300000000
#042381:0013
#0423b1:00000023
#042320:00000013
#043350:23
#043381:13
#0433b1:00230000
#043320:00130000
#043350:0023
#044350:00001323
#044320:0000000000530000
#044381:00000013
#0443b1:0000000000000053
#045381:23
#045350:13230000
#045320:0053000000000000
#045381:00132300
#0453b1:0000005300000000
#046361:14
#047321:3c2c0000
#048381:1323
#0483b1:00530000
#050351:1323
#050321:00530000
#052381:1323
#0523b1:00530000
#054351:13
#054321:00240000
#0543b1:00000013
#055381:24
#055350:13
#055320:00240000
#0553b1:00130000
#055381:0024
#055350:0013
#055320:00000024
#058380:1323
#0583b0:00530000
#060350:1323
#060320:00530000
#062380:13
#0623a0:00240000
#062320:00000013
#063340:24
#063381:13
#0633a1:00240000
#063320:00130000
#063340:0024
#063381:0013
#0633a1:00000024
#066381:0013
#0663b1:00000023
#067321:13
#067351:00230000
#068351:0013
#068321:00000000000000000000002300000000
#0683b0:00000000000000000000001300000000
#068380:0000000000000023
#069380:00130000
#0693b0:0000000000000053
#070380:0023
#069351:00130000
#069321:0000000000000053
#070351:0023
#071371:13
#071381:00330000000000000000000000000000000000000000000000000000000000000000000000000000000000000000000000000000000000000000000000000000
#071391:0033000000000000000000000000000000000000000000000000000000000000
#0713a1:00000033000000000000000000000000000000000000000000000000000000000000000000000000000000000000000000000000000000000000000000000000
#0713b1:00330000230000000000000000000000
#071321:0000000000000013
#072361:53
#072321:0023000000000000
#071370:0000000000000013
#0723b0:53
#072370:0023000000000000
#072370:00000013
#0733b0:23
#073361:13
#073351:00330000000000000000000000000000000000000000000000000000000000000000000000000000000000000000000000000000000000000000000000000000
#073341:0033000000000000000000000000000000000000000000000000000000000000
#073331:00000033000000000000000000000000000000000000000000000000000000000000000000000000000000000000000000000000000000000000000000000000
#073321:00330000230000000000000000000000
#0733b1:0000000000000013
#074371:53
#0743b1:0023000000000000
#073360:0000000000000013
#074320:53
#074360:0023000000000000
#074360:00000013
#075320:23
#075371:13
#075381:00330000000000000000000000000000000000000000000000000000000000000000000000000000000000000000000000000000000000000000000000000000
#075391:0033000000000000000000000000000000000000000000000000000000000000
#0753a1:00000033000000000000000000000000000000000000000000000000000000000000000000000000000000000000000000000000000000000000000000000000
#0753b1:00330000230000000000000000000000
#0753b1:0000000000000013
#076371:53
#0763b1:0023000000000000
#076360:0013002300000000
#076320:00530000
#0763b1:0000001300230000
#076371:0053
#077361:13
#077351:00330000000000000000000000000000000000000000000000000000000000000000000000000000000000000000000000000000000000000000000000000000
#077341:0033000000000000000000000000000000000000000000000000000000000000
#077331:00000033000000000000000000000000000000000000000000000000000000000000000000000000000000000000000000000000000000000000000000000000
#077321:00330000230000000000000000000000
#077321:0000000000000013
#078361:53
#078321:0023000000000000
#078370:0013002300000000
#0783b0:00530000
#078321:0000001300230000
#078361:0053
#031970:0000000000000013
#0329b0:0053530000000000
#032970:0023
#033960:0000000000000013
#034920:0053530000000000
#034960:0023
#0409b0:0012
#040980:00000022
#040961:00000012
#041931:22
#0419b0:12
#041980:00220000
#041961:00120000
#041931:0022
