This file was generated by Ched 2.7.0.0.
#TITLE ""
#ARTIST ""
#DESIGNER ""
#DIFFICULTY 0
#PLAYLEVEL
#SONGID ""
#WAVE ""
#WAVEOFFSET 0
#JACKET ""
#REQUEST "ticks_per_beat 480"
#00002: 4
#BPM01: 182
#00008: 01
#TIL00: ""
#VOLUME: ""
#HISPEED 00
#MEASUREHS 00
#00418:0000130000000013
#00412:1313
#00518:00130000
#00515:1300000013000013
#0051b:00000013
#00612:0013000000000000
#00615:0000001300000013
#00618:13130000
#00918:1313
#00915:0000130000000013
#0091b:00130013
#00912:0013
#00910:41
#01018:1300130000000013
#01015:0013000000000000
#01012:0000001300000000
#01312:0000130000000013
#01318:23130013
#0131b:0023
#01315:0023
#01418:0013000000000000
#0141b:0000130000000013
#01412:0000001400000000
#01415:23
#01815:0013000000130000
#01812:0000001300000013
#0181b:23000023
#01818:00232300
#01810:41
#01915:0013000000000000
#0191b:0000000000000013
#02318:0000001300002400
#02315:0013000013000000
#02314:0000000000000024
#05214:0000000000140000
#05216:0000000000000014
#05212:0000001400000000
#0521a:00000024
#05218:0024
#05314:0014000000000014
#05312:0000001400000000
#0531a:2400000000140000
#05318:00240000
#07115:00000013
#07118:0013
#07112:13
#0711b:0000000000000013
#07215:0000001300001300
#07218:0000000000130000
#02515:0000000000000013
#02512:14
#02514:00240000
#02518:0024
#02618:1300001300001300
#02615:00131300
#0261b:0013
#02612:00000013
#02715:13
#0271b:1300000000000013
#02718:00240000
#02714:0024
#02818:0000130000000013
#02815:1313
#02810:41
#02915:13
#02918:0000000000000013
#02919:00240000
#02913:0024
#03215:0013001300001300
#03218:1300000013000013
#0321b:00130000
#0401b:0013
#04015:53
#04018:00000053
#04115:00000013
#0411b:5353
#04118:00530000
#04218:13
#04212:0013
#04215:00000013
#00018:0000000000000013
#00115:13000013
#00118:0013
#0021b:1313
#00215:0000130000000013
#00318:13000013
#00315:0013
#00715:0013000000000000
#0071b:0013
#00712:00001313
#00718:1300130000000013
#0081b:0013000000000000
#00818:0000001300000000
#00815:1300130000000013
#01115:1313
#01112:00130000
#01118:0000000000000013
#0111b:0013000013000000
#01215:1300130000000013
#01218:0013000000000000
#0121b:0000001300000000
#0151b:0000000023000013
#01512:00130013
#01518:0013000000000000
#01515:2323
#01615:0013000000000000
#01612:0000130000000013
#0161a:0000001400000000
#0161b:0000000000000013
#01618:23
#02018:0013000000130000
#0201b:0000001300000013
#02012:23000023
#02015:00232300
#02118:0013000000000000
#02112:0000000000000013
#02215:0013000000000000
#02212:0000001300000000
#02218:00231300
#0221b:23
#02414:00140014
#02412:0014
#02418:24
#03015:13
#03012:00000013000000000000000000000000
#0301b:00000023
#03112:0000000000000013
#0311f:0011
#03118:0000005300000000
#0331b:0013000000000013
#03418:0013001300001300
#03415:1300000013000013
#03412:00130000
#03512:0013000000000013
#03615:1300001300001300
#03618:0013000013000000
#0361b:0000130000000013
#03718:0013000000000000
#0371b:0000000000000013
#03818:1300001300001300
#03815:0013000013000000
#03812:0000130000000013
#03915:0013000000000000
#03918:00000053
#04312:13
#04315:00130000
#04318:00000023
#0441b:00000013
#04415:23
#04418:0023
#04518:13
#0451b:00130000
#04614:14
#04612:0014
#04618:14
#0461a:0014
#04814:0000000000140000
#04812:2300000000000014
#0481b:23
#0481a:0024
#04818:00000024
#0481f:21
#04914:0014000000000000
#04912:0000001400000000
#04915:0000000000140000
#04918:24
#0491a:00240000
#04910:41
#05018:0000000000140000
#0501a:0000001400000014
#05012:0024
#05014:00000024
#05118:0014000000000000
#0511a:0000001400000000
#05117:0000000000140000
#05114:24
#05112:00240000
#05418:1400002400001400
#05414:00242400
#0551a:1414
#05518:00140024
#06018:0000000000140000
#06016:0000000000000014
#0601a:0000001400000000
#06012:00000024
#06014:0024
#06118:0014000000000014
#0611a:0000001400000000
#06112:2400000000140000
#06114:00240000
#06110:41
#05618:0000000000140000
#0561a:0000000000000014
#05614:24000024
#05612:0024
#05718:0014000000000000
#0571a:0000001400000000
#05717:0000000000140000
#05714:24
#05712:00240000
#05814:0000000000140000
#05812:0000001400000014
#0581a:0024
#05818:00000024
#05914:0014000000000000
#05912:0000001400000000
#05915:0000000000140000
#05918:24
#0591a:00240000
#06214:1400002400001400
#06218:00242400
#06312:1414
#06314:00140024
#06418:2400001300001300
#06415:0000000013000013
#06518:1313
#06512:00130000
#0651b:00130000
#06513:00000024
#06612:0000001300000000
#06615:00000013
#06618:0013
#06619:24
#06718:1313
#06715:0000001300000000
#06712:00000024
#06815:0000001300000000
#06818:0013
#0681b:00000000000000000000001300000000
#0681a:24
#07318:00000013
#07315:0013
#0731b:13
#07312:0000000000000013
#07418:0000001300001300
#07415:0000000000130000
#07515:00000013
#07518:0013
#07512:13
#0751b:0000000000000013
#07615:0000001300001300
#07618:0000000000130000
#07718:00000013
#07715:0013
#0771b:13
#07712:0000000000000013
#07818:0000001300001300
#07815:0000000000130000
#0171b:0023
#01712:0023
#07914:24240000
#07918:0024000000000000
#06912:00230000
#0691b:00230000
#07010:41
#07015:0053
#07018:0053
#02355:0013000053000000
#02554:00140000
#02558:0014
#02552:54
#02758:00140000
#02754:0014
#02755:13
#0275b:13
#02959:00140000
#02953:0014
#02955:13
#0175b:0013
#01752:0013
#04852:13
#0485b:13
#02858:00130000
#02855:0053
#0405b:0053
#04055:13
#04058:00000053
#04155:00000013
#0415b:53
#04158:00530000
#04258:13
#04252:0053
#04255:00000053
#03958:00000013
#03955:0053000000000000
#03952:0000001300000000
#04358:00000013
#04352:53
#04355:00530000
#04455:13
#04458:0053
#0445b:00000053
#07954:00140000
#00155:53
#0025b:0053
#00358:63
#00452:0063
#00655:0000005300000000
#00858:0000006300000000
#01052:0000006300000000
#0125b:0000005300000000
#01452:0000005400000000
#0165a:0000006400000000
#0165b:0000000000000053
#01652:0000000000000053
#01852:0000000000000053
#01955:0053000000000000
#01952:0000001300000000
#0205b:0000000000000063
#02158:0063000000000000
#0215b:0000001300000000
#02258:0053
#0225b:0000000000000013
#02454:00540054
#02452:0054
#03055:53
#03052:00000053000000000000000000000000
#0305b:00000053
#03258:0000000000000053
#0335b:0053000000000000
#03358:0000001300000000
#03455:0000000000000063
#03552:0063000000000000
#03555:0000001300000000
#0365b:0000000000000063
#03758:0063000000000000
#0375b:0000001300000000
#03852:0000000000000053
#04558:53
#0455b:00530000
#04654:54
#04652:0024
#04658:64
#0465a:0024
#04952:0000005400000014
#04955:0000000000540000
#0515a:0000006400000014
#05157:0000000000640000
#05352:0000003400000000
#0535a:0000000000440000
#05458:54000064
#0555a:6464
#05558:00640014
#05654:14
#0575a:0000006400000014
#05757:0000000000640000
#05952:0000005400000014
#05955:0000000000540000
#0615a:0000004400000000
#06152:0000000000340000
#06254:64000054
#06352:5454
#06354:00540014
#06458:14
#06558:0013
#06553:00000014
#06655:00000013
#06659:14
#06758:6313
#06752:00000014
#06858:0063
#0685b:00000000000000000000006300000000
#0685a:14
#07152:53
#0715b:0000000000000053
#07255:00000053
#0735b:63
#07352:0000000000000063
#07458:00000063
#07552:53
#0755b:0000000000000053
#07655:00000053
#0775b:63
#07752:0000000000000063
#04754:00140000
#04758:00140000
#06952:00530000
#0695b:00530000
#001350:13
#001320:00230000
#0023b0:0013
#002380:00000023
#003380:13
#0033b0:00230000
#004320:0013
#004350:00000023
#006350:0000001300000000
#006320:0000000000230000
#008380:0000001300000000
#0083b0:0000000000230000
#010320:0000001300000000
#010350:0000000000230000
#0123b0:0000001300000000
#012380:0000000000230000
#014320:0000001400000000
#014360:0000000000240000
#0163a0:0000001400000000
#016360:0000000000240000
#016320:0000000000000013
#017350:00230000
#0163b1:0000000000000013
#017381:00230000
#018321:0000000000000013
#019351:0033000000000000
#019321:0000002300000000
#0203b1:0000000000000013
#021381:0033000000000000
#0213b1:0000002300000000
#022381:0013
#0223b1:0000000000003323
#023351:0013
#023321:00000023
#024341:00140034
#024321:0034
#025321:34
#025341:00240000
#028351:0013
#028321:00000023
#030351:1300003323000000
#030321:00000033000000000000000000000000
#0303b1:00000013
#031381:0000332300000000
#032381:0000000000000013
#0333b1:0033000000000000
#033381:0000002300000000
#034351:0000000000000013
#035321:0033000000000000
#035351:0000002300000000
#0363b1:0000000000000013
#037381:0033000000000000
#0373b1:0000002300000000
#038321:0000000000000013
#039351:0033000000000000
#039321:0000002300000000
#042321:0013
#042351:00000033
#043321:3323
#043351:00330000
#044381:0013
#0443b1:00000033
#045381:3323
#0453b1:00330000
#046341:14
#046321:0054
#047341:34240000
#046380:14
#0463a0:0054
#047380:34240000
#049320:0000001400000024
#049350:0000000000340000
#0513a0:0000001400000024
#051370:0000000000340000
#054380:14
#0543a0:00240000
#054380:00000014
#0553a0:3434
#055380:00340024
#0573a0:0000001400000024
#057370:0000000000340000
#059320:0000001400000024
#059350:0000000000340000
#062340:14
#062320:00240000
#062340:00000014
#063320:3434
#063340:00340024
#067380:13
#0673b0:00230000
#068380:0000000013000033
#0683b0:00000000000000000000003300000000
#069380:23
#069320:00130000
#070350:0023
#0693b1:00130000
#070381:0023
#071321:13
#071351:00230000
#0713b1:0000000000000013
#072381:0023000000000000
#072351:00000013
#073321:23
#0733b0:13
#073380:00230000
#073320:0000000000000013
#074350:0023000000000000
#074380:00000013
#0753b0:23
#075321:13
#075351:00230000
#0753b1:0000000000000013
#076381:0023000000000000
#076351:00000013
#077321:23
#0773b0:13
#077380:00230000
#077320:0000000000000013
#078350:0023000000000000
#0409b0:0013
#040980:00000053
#0419b0:530000000000000000000000000000000000000000000000000000000000000000000000000000000000000000000000000000000000000000000000000000000000000000000000000000000000000000000000000000000000000000000000000000000000000000000000000000000000000000000000000000000000000000000000000000000000000000000000000000000000000000000000000000000000000000000000000000000000000000000000000000000000000000000000000000000000000000000000000000000000000000000000000000000000000000000000000000000000000000000000000000000000000000000000000000000000000000000000000000000000000000000000000000000000000000000000000000000000000000000000000000000000000000000000000000000000000000000000000000000000000000000000000000000000000000000000000000000000000000000000000000000000000000000000000000000000000000000000000000000000000000000000000000000000000000000000000000000000000000000000000000000000000000000000000000000000000000000000000000000000000000000000000000000000000000000000000000000000000000000000000000000000000000000000000000000000000000000000000000000000000000000000000000000000000000000000000000000000000000000000000000000000000000000000000000000000000000000000000000000000000000000000000000000000000000000000000000000000000000000000000000000000000000000000000000000000000000000000000000000000000000000000000000000000000000000000000000000000000000000000000000000000000000000000000000000000000000000000000000000000000000000000000000000000000000000000000000000000000000000000000000000000000000000000000000000000000000000000000000000000000000000000000000000000000000000000000000000000000000000000000000000000000000000000000000000000000000000000000000000000000000000000000000000000000000000000000000000000000000000000000000000000000000000000000000000000000000000000000000000000000000000000000000000000000000000000000000000000000000000000000000000000000000000000000000000000000000000000000000000000000000000000000000000000000000000000000000000000000000535353230000000000000000000000000000000000000000000000000000000000000000000000000000000000000000000000000000000000000000000000000000000000000000000000000000000000000000000000000000000000000000000000000000000000000000000000000000000000000000000000000000000000000000000000000000000000000000000000000000000000000000000000000000000000000000000000000000000000000000000000000000000000000000000000000000000000000000000000000000000000000000000000000000000000000000000000000000000000000000000000000000000000000000000000000000000000000000000000000000000000000000000000000000000000000000000000000000000000000000000000000000000000000000000000000000000000000000000000000000000000000000000000000000000000000000000000000000000000000000000000000000000000000000000000000000000000000000000000000000000000000000000000000000000000000000000000000000000000000000000000000000000000000000000000000000000000000000000000000000000000000000000000000000000000000000000000000000000000000000000000000000000000000000000000000000000000000000000000000000000000000000000000000000000000000000000000000000000000000000000000000000000000000000000000000000000000000000000000000000000000000000000000000000000000000000000000000000000000000000000000000000000000000000000000000000000000000000000000000000000000000000000000000000000000000000000000000000000000000000000000000000000000000000000000000000000000000000000000000000000000000000000000000000000000000000000000000000000000000000000000000000000000000000000000000000000000000000000000000000000000000000000000000000000000000000000000000000000000000000000000000000000000000000000000000000000000000000000000000000000000000000000000000000000000000000000000000000000000000000000000000000000000000000000000000000000000000000000000000000000000000000000000000000000000000000000000000000000000000000000000000000000000000000000000000000000000000000000000000000000000000000000000000000000000000000000000000000000000000000000000
#041980:00530000
