This file was generated by Ched 2.7.0.0.
#TITLE ""
#ARTIST ""
#DESIGNER ""
#DIFFICULTY 0
#PLAYLEVEL
#SONGID ""
#WAVE ""
#WAVEOFFSET 0
#JACKET ""
#REQUEST "ticks_per_beat 480"
#00002: 4
#BPM01: 182
#00008: 01
#TIL00: ""
#VOLUME: ""
#HISPEED 00
#MEASUREHS 00
#0011a:1414
#00114:00140000
#00212:1414
#00218:00140000
#00318:14
#00314:00140000
#0031a:0014
#00414:14
#00418:00140000
#00412:0014
#0091a:1414
#00914:00140014
#00910:41
#01018:1414
#01012:00140000
#01112:1414
#01118:00140014
#01214:1414
#0121a:00140000
#0131a:14
#01314:00140000
#01318:0014
#01312:00000014
#0141a:14
#01414:00140000
#01418:0014
#01512:14
#01518:00140000
#01514:0014
#0151a:00000014
#01612:14
#01618:00140000
#01614:0014
#0161a:00000014
#00518:1414
#00512:00140000
#00614:1414
#0061a:00140000
#00718:14
#00714:00140000
#0071a:0014
#00814:14
#00818:00140000
#00812:0014
#0181a:14340034
#01818:0014
#01810:41
#01914:00140000
#0191a:0014
#02012:14340034
#02014:0014
#02118:00140000
#02112:0014
#0221a:14
#02214:00140000
#02218:0014
#02212:00000014
#0231a:14
#02314:00140000
#02318:0014
#02418:0014
#02414:14000014
#02518:14
#02513:00240000
#02519:0024
#02612:1414
#02618:00140014
#02712:14
#02719:00240000
#02713:0024
#0281a:1414
#02814:00140014
#02810:41
#0291a:14
#02913:00240000
#02919:0024
#03012:14
#03018:00140000
#03014:0014
#0301a:00000014
#03212:14343400
#03215:00000014
#0341a:14343400
#03417:00000014
#03615:14343400
#03612:00000014
#03817:14343400
#0381a:00000014
#04012:0014
#04018:23000014
#04112:1414
#04118:00140023
#0421a:0014
#04214:00000014
#04215:23
#0431a:1414
#04314:00140000
#04315:00000023
#04412:0014
#04418:23000014
#04512:1414
#04518:00140000
#04918:00000014
#04912:14
#04914:00340000
#04910:41
#05012:14
#05018:00001434
#05212:0014
#05218:00000014
#0521a:14
#05314:14
#0531a:00140000
#05312:0014
#05318:00000014
#05514:1414
#05518:00140000
#05519:00000024
#05414:14
#05418:0014
#04814:14001434
#04818:00140000
#0481f:21
#05114:00000014
#0511a:14
#05118:00340000
#05714:00000014
#0571a:14
#05718:00340000
#0581a:14
#05814:00001434
#0601a:0014
#06014:00000014
#06012:14
#06118:14
#06112:00140000
#0611a:0014
#06114:00000014
#06110:41
#06318:1414
#06314:00140000
#06313:00000024
#06218:14
#06214:0014
#05618:00001434
#05613:24
#05918:00000014
#05912:14
#05914:00340000
#0691a:00140000
#06914:14
#06818:00000014
#06812:0014
#06819:24
#0671a:1414
#06714:00140000
#06713:00000024
#06614:00000014
#0661a:0014
#06613:24
#06512:1414
#06518:00140000
#06519:00000024
#06418:00000014
#06412:0014
#06419:24
#07112:1414
#07118:00140000
#07218:1414
#07214:00140014
#0731a:1414
#07314:00140000
#07414:1414
#07418:00140014
#07512:1414
#07518:00140000
#07618:1414
#07614:00140014
#0771a:1414
#07714:00140000
#07814:1414
#07818:00140014
#0311f:0011
#01712:24
#03915:00000023
#03917:34340000
#04719:24240000
#04713:24240000
#07912:26260000
#07918:0026000000000000
#03312:34340000
#0351a:34340000
#03715:34340000
#07010:41
#00452:0014
#01254:0014
#00852:0014
#01752:14
#0185a:54
#01858:0024
#02052:64
#02054:0024
#02358:0054
#02454:54
#0305a:00000054
#03252:54
#03255:00000024
#0345a:64
#03457:00000024
#03655:64
#03652:00000024
#03857:54
#0385a:00000024
#05454:64
#05458:0064
#04854:0054
#04952:24
#05058:0064
#0515a:24
#06258:54
#06254:0054
#05658:0064
#0575a:24
#05854:0054
#05952:24
#0695a:00540000
#06459:14
#06653:14
#06859:14
#07152:0014
#0735a:0014
#07552:0014
#0775a:0014
#0183a0:14340034
#018380:0034
#0193a0:24
#020320:14340034
#020340:0034
#021320:24
#023380:0014
#0233a0:00000024
#024340:14
#024320:00240000
#0303a0:00000014
#031380:00240000
#032320:14343400
#032350:00000034
#033320:34342400
#0343a0:14343400
#034370:00000034
#0353a0:34342400
#036350:14343400
#036320:00000034
#037350:34342400
#038370:14343400
#0383a0:00000034
#039370:34342400
#048340:00001434
#049320:34
#049340:00342400
#050380:00001434
#0513a0:34
#051380:00342400
#054340:14
#054320:00240000
#054380:0014
#0543a0:00000024
#056380:00001434
#0573a0:34
#057380:00342400
#058340:00001434
#059320:34
#059340:00342400
#062380:14
#0623a0:00240000
#062340:0014
#062320:00000024
#0693a0:00140000
#070380:0024
