This file was generated by Ched 2.7.0.0.
#TITLE ""
#ARTIST ""
#DESIGNER ""
#DIFFICULTY 0
#PLAYLEVEL
#SONGID ""
#WAVE ""
#WAVEOFFSET 0
#JACKET ""
#REQUEST "ticks_per_beat 480"
#00002: 4
#BPM01: 190
#00008: 01
#TIL00: ""
#VOLUME: ""
#HISPEED 00
#MEASUREHS 00
#00012:0016
#00018:26
#00118:16
#00112:0016
#00418:1616
#00512:1616
#00618:16
#00612:0016
#00818:0016
#00812:26
#00810:41
#00912:16
#00918:0016
#01212:1616
#01318:1616
#01412:16
#01418:0016
#01712:16
#01818:16
#01912:16
#01910:41
#0201a:14
#02114:14
#02218:14
#02312:14
#0241a:14
#02514:14
#02618:14
#02712:14
#04412:0016
#04418:26
#04410:41
#04518:16
#04512:0016
#04818:1616
#04912:1616
#05018:16
#05012:0016
#05218:0016
#05212:26
#05312:16
#05318:0016
#05612:1616
#05718:1616
#05812:16
#05818:0016
#06812:0016
#06818:26
#0681f:21
#06912:0016
#06918:26
#06910:41
#07218:2616
#07312:2616
#07412:0016
#07418:26
#07618:0016
#07612:26
#07718:0016
#07712:26
#07818:0016
#07812:26
#08012:0016
#08018:26
#08112:0016
#08118:26
#08212:0016
#08218:26
#08414:00000016
#08412:26
#08410:41
#08616:00000016
#08618:26
#08818:0016
#08812:26
#08912:16
#08918:0016
#0591f:11
#01618:26
#07018:26
#07112:26
#07518:26
#07912:26
#08318:26
#09012:2626
#09118:2626
#0361a:00340034
#03812:00340034
#04018:00340034
#04214:00340034
#03010:41
#08452:66
#08454:00000026
#08656:00000026
#08658:56
#002380:1626
#003320:1626
#007380:1626
#010320:1626
#011380:1626
#015320:1626
#0283a0:14
#028390:0034
#0293a0:34
#029390:0024
#030340:14
#030330:0034
#031340:34
#031330:0024
#032380:14
#032390:0034
#033380:34
#033390:0024
#034320:14
#034330:0034
#035320:34
#035330:0024
#0363a0:14340034
#036380:0034
#0373a0:24
#038320:14340034
#038340:0034
#039320:24
#040380:14340034
#0403a0:0034
#041380:24
#042340:14340034
#042320:0034
#043340:24
#046380:1626
#047320:1626
#051380:1626
#054320:1626
#055380:1626
#059320:1626
#0603a0:14
#061380:34
#0623a0:34
#063380:24
#064320:14
#065340:34
#066320:34
#067340:24
#070380:1626
#071320:1626
#075380:1626
#079320:1626
#083380:1626
#084320:16
#084340:00000056
#085320:0026
#086380:16
#086360:00000056
#087380:0026
#092330:14343434
#093340:34343434
#094330:34343434
#095340:34343424
