This file was generated by Ched 2.7.0.0.
#TITLE ""
#ARTIST ""
#DESIGNER ""
#DIFFICULTY 0
#PLAYLEVEL
#SONGID ""
#WAVE ""
#WAVEOFFSET 0
#JACKET ""
#REQUEST "ticks_per_beat 480"
#00002: 4
#BPM01: 190
#00008: 01
#TIL00: ""
#VOLUME: ""
#HISPEED 00
#MEASUREHS 00
#0001b:1313
#00012:13130000
#00018:0000000000130013
#00015:00000013
#00112:1313
#0011b:13130000
#00115:0000000000130013
#00118:00000013
#00212:1300000013000013
#00218:00130013
#0021b:1300000000000013
#00315:0013000000130000
#0031b:0000001300000000
#00318:00000013
#00412:1313
#0041b:00130000
#00415:0000000000130013
#00418:00000013
#0051b:1313
#00512:13130000
#00518:0000000000130013
#00515:00000013
#0061b:1313
#00615:00130013
#00716:1414
#00712:0000001400001400
#0071a:0000000000140000
#00816:1300000013000013
#00817:00130000
#00813:0000000000130000
#00819:00000013
#0081a:24
#00810:41
#00917:1300000013000013
#00916:00130000
#0091a:0000000000130000
#00914:00000013
#00912:24
#0101b:1300000013000013
#01015:00130013
#01012:1300000000000013
#01118:0013000000130000
#01112:0000001300000000
#01115:00000013
#01217:1300000013000013
#01216:00130000
#0121a:0000000000130000
#01214:00000013
#01212:23
#01316:1300000013000013
#01317:00130000
#01313:0000000000130000
#01319:00000013
#0131a:14
#01412:1300000013130000
#0141b:1300000013130000
#01415:0000000000000013
#01418:0000000000000013
#01517:0013000000000000
#01519:00130000
#01515:0000001300000000
#01513:0013
#01518:0000000000130000
#0151a:00000013
#01612:14
#0161a:14
#01616:00140000
#0171a:14
#01716:00140000
#01918:0013001300001300
#01915:00000013000000001300000000000000
#0191b:00130000
#01912:0000000000130000
#0191a:14
#01910:41
#02012:13131313
#02019:00130013
#02017:0013
#02112:13131313
#0211b:1313000000000000
#02117:0000001300000013
#02212:13131313
#02217:13
#02219:00130013
#0221b:0013
#02317:13
#02312:13131313
#02318:00130000
#0231b:0000001300000000
#0231a:0013000000000000
#0241b:13131313
#02414:00130013
#02416:0013
#02412:13
#0251b:13131313
#02512:1313000000000000
#02516:0000001300000013
#0261b:13131313
#02616:13
#02614:00130000
#02612:00001313
#02615:0000000000130013
#0271b:13131313
#02812:1313
#0281b:1313
#02815:0013001300002300
#02818:0000230000130013
#02912:1313
#02915:0013000000000013
#0291b:1300001300000000
#02918:00230023
#0301b:1313
#03018:0013001300002300
#03012:1313
#03015:0000230000130013
#03010:41
#0311b:1313
#03118:0013000000000013
#03112:1300001300000000
#03115:00230023
#03212:1300001300000000
#03215:0013000013002300
#0321b:1300000013000013
#03218:0000230000130000
#03312:1313
#03315:0013000000000000
#0331b:0000001300000000
#03318:13230023
#03415:13
#0341b:13
#03413:0013
#03419:0013
#0341a:00230000
#03414:00230000
#03418:00000023
#03412:00000023
#0351b:1300001300001300
#03515:1313
#03518:0000000000130000
#03512:00230023
#0361b:13
#03618:0013000013000000
#03615:0000130000000013
#03612:0000001300001300
#03718:13
#03715:0013000000000000
#0371b:00131300
#03712:0000001300000000
#03812:13
#03815:0013000013000000
#03818:0000130000000013
#0381b:00000013
#03915:13
#03918:0013000000000000
#03912:00131300
#0391b:0000001300000000
#0401b:13
#04018:0013000013000000
#04015:0000130000000013
#04012:0000001300001300
#04118:1313
#04115:0013000000130000
#0411b:00130013
#04112:0000001300000013
#04218:13
#04215:13
#0421b:0033333333333333
#04212:0033333333333333
#04412:2413
#04418:00001313
#04415:0000000000130000
#0441b:0000000000000013
#04417:13
#04416:00130000
#0441a:00240000
#04410:41
#04616:1400000000000014
#0461a:00140000
#04612:00001414
#04712:0014000000140000
#0471a:0000001400001400
#04812:1313
#0481b:00131300
#04815:0000000000130013
#04818:00000013
#04816:24240000
#0491b:1313
#04912:00131300
#04918:0000000000130013
#04915:00000013
#04916:24240000
#0501b:13130013
#05015:1313
#0511a:0000001400000000
#05116:00001414
#05112:1300000000141400
#0521b:0013
#05215:00001313
#05218:0000000000130000
#05212:0000240000000013
#05216:13
#05217:00130000
#0521a:24
#05416:1400000000000014
#05412:00140000
#0541a:00001414
#0551a:0014000000140000
#05512:0000001400001400
#0561b:1313
#05612:00131300
#05618:0000000000130013
#05615:00000013
#05616:24240000
#05712:1313
#0571b:00131300
#05715:0000000000130013
#05718:00000013
#05716:24240000
#05812:1300000000130000
#0581b:1300000013130000
#05815:0000130000000013
#05818:0000000000000013
#05912:0013000000001300
#05918:00131300
#05915:0000001300130000
#0591b:00000013
#0591f:11
#06018:12
#06114:12
#0621b:12
#06316:12
#06418:12
#06417:00120000
#06416:0012
#06415:00000012
#06514:12
#0651a:00120012
#06519:0012
#0661b:12
#06616:00120000
#06615:0012
#06614:00000012
#06713:12
#06717:0012000000000000
#06818:00001324
#06815:0000000000130000
#0681b:0000000000000013
#06816:14140000
#06812:2424
#0681a:00240000
#0681f:21
#07012:00002414
#07016:2400000000000024
#0701a:00240000
#07112:0024000000140000
#0711a:0000002400001400
#07212:1424
#0721a:00140000
#0721b:0013
#07215:0000000000130013
#07216:24240000
#07218:00000024
#07412:1300000024240000
#07418:0000130000000013
#07415:0000000000000013
#0741a:2400000000240000
#0751b:0013000000000000
#07515:00131300
#07518:0000001300130000
#07512:00000024
#0751a:00000024
#06916:14140000
#06912:24002323
#0691a:00240000
#06910:41
#0731a:1424
#07312:00141300
#07318:0000000000130013
#07316:24240000
#07314:00000024
#07612:1413
#0761a:14
#07615:00130000
#07618:00130013
#0761b:0013
#0771b:13000013
#07715:0013000000130000
#07718:00131300
#07712:0000001300000013
#0781b:00130013
#07818:0013
#07815:00130013
#07812:0013
#07912:1300001300000000
#0791b:0000130000130000
#07915:0000130000130000
#07918:0000001300000000
#08018:00130000
#0801b:0013
#08015:00130013
#08012:0013
#08112:13000013
#08118:0013000000130000
#08115:00131300
#0811b:0000001300000013
#08215:13131300
#08218:0013001300000000
#0821b:0000000000001313
#08315:0013000000001300
#0831b:0000001300000000
#08312:0000001300000000
#08318:0000000000131300
#08415:00000014
#08412:24141312
#0841a:24
#08410:41
#08512:13141515
#08519:00000015
#08617:00000014
#0861a:00140000
#0861b:0013
#0861c:00000012
#08619:15
#08612:24
#0871b:13
#0871a:00140000
#08719:00001515
#08712:00000015
#08815:1300000000130000
#08818:1313
#08812:00130000
#0881b:0000000000000013
#08912:0013000000000000
#08918:0000130000130000
#08915:0000001300001300
#0901b:1313
#09015:00130013
#09118:0013001600000000
#09115:00130016
#09112:0000000000130000
#09218:0013001300130013
#09212:0073007300730073
#0931b:0013001300130013
#09312:0073007300730073
#0941b:0013001300130013
#09415:0073007300730073
#09518:0013001300130013
#09515:0073007300730073
#04517:13
#04516:00130000
#04512:24
#0451a:00240000
#05316:13
#05317:00130000
#0531a:24
#05312:00240000
#01812:14
#01816:00140000
#0005b:53
#00052:00630000
#00152:63
#0015b:00530000
#00252:5313
#00258:00530000
#0025b:0000000013000063
#00355:0063000000000000
#0035b:0000001300000000
#00352:0000001300000000
#00358:00000053
#00452:63
#0045b:00530000
#0055b:53
#00552:00630000
#0065b:5353
#00655:00530053
#00756:54
#00752:00000014
#0085a:14
#00856:53
#00857:00530000
#00957:63
#00956:00630000
#00952:14
#0105b:6313
#01055:00630000
#01052:0000000013000053
#01158:0053000000000000
#01152:0000001300000000
#0115b:0000001300000000
#01155:00000063
#01257:63
#01256:00630000
#01252:13
#01356:53
#01357:00530000
#01452:53
#0145b:53
#01455:0000000000000053
#0155a:00000013
#0165a:14
#01652:14
#0175a:14
#01752:14
#01958:00000053
#01952:14
#02157:0000001300000000
#0235b:0000005300000000
#02556:0000001300000000
#02652:00005353
#02655:0000000000530053
#02952:0053
#0315b:0063
#03352:0053
#0355b:53000013
#03658:0053
#0375b:0063
#03855:0063
#03952:0053
#04058:0053
#04258:53
#04255:63
#04352:13
#0435b:13
#04452:14
#0445a:00140000
#04652:00141400
#04656:5400000014000064
#0465a:00540000
#04752:0064000000000000
#0475a:0014001400005400
#04756:0000001400000000
#05055:5353
#0505b:13530053
#05052:00130013
#05058:0013
#05158:13
#05152:53
#05156:00000054
#05456:6400000014000054
#05452:00640000
#0545a:00141400
#0555a:0054000000000000
#05552:0014001400006400
#05556:0000001400000000
#0525a:14
#05252:00140000
#05852:13
#0585b:53
#05855:00530000
#05858:0000000000000053
#06058:52
#06154:52
#0625b:62
#06356:62
#06458:52
#06554:52
#0665b:62
#06753:52
#06757:0022000000000000
#06752:001c
#0715a:0014001400005400
#07152:0064000000000000
#07156:0000001400000000
#07452:63
#07458:00630000
#07455:0000000000000063
#0745a:14
#06852:14
#0685a:00140000
#07052:00141400
#07056:5400000014000064
#0705a:00540000
#06952:14
#0695a:00140000
#07256:14140000
#07356:14140000
#07552:00000014
#0755a:00000014
#07655:00530013
#07652:0053
#07658:00000013
#07752:0000000000000013
#0785b:00530063
#07858:0053
#07958:13
#07952:13
#07955:0000000000530000
#0795b:0000000000530000
#08058:13630013
#0805b:0063
#08055:00000013
#08052:13
#08255:0053
#08355:00000053
#0845a:54
#08455:00000024
#08452:14
#08657:00000024
#08652:64
#08858:53
#08852:00530000
#08855:0000000000530000
#0885b:0000000000000063
#08955:0000001300005300
#0905b:6363
#09055:00530053
#09052:1313
#09058:00130013
#09152:13
#09158:0000001600000000
#09155:00000016
#04552:14
#0455a:00140000
#04956:14140000
#04856:14140000
#0535a:14
#05352:00140000
#05656:14140000
#05756:14140000
#01852:14
#0185a:14
#0003b0:13
#000370:00230000
#000321:00130000
#000361:0023
#001321:13
#001361:00230000
#0013b0:00130000
#001370:0023
#002320:13
#002350:0053230000000000
#002381:00130000
#0023b1:0000005323000000
#0023b1:0000000000000013
#003381:5323000000000000
#003350:0013000000000000
#003320:0000532300000000
#003380:00000013
#0043b0:23
#004321:13
#004361:00230000
#0043b0:00130000
#004370:0023
#0053b0:13
#005370:00230000
#005321:00130000
#005361:0023
#0063b1:13
#006381:00230000
#006350:00130000
#006320:0023
#0063b1:0013
#006381:00000023
#006350:00000013
#007320:23
#007361:14
#0073a1:0000002400000000
#008361:13
#008321:00230000
#008370:00130000
#0083b0:0023
#009370:13
#0093b0:00230000
#009361:00130000
#009321:0023
#0103b1:13
#010381:0053230000000000
#010350:00130000
#010320:0000005323000000
#010320:0000000000000013
#011350:5323000000000000
#011381:0013000000000000
#0113b1:0000532300000000
#011351:00000013
#012321:23
#012370:13
#0123b0:00230000
#012361:00130000
#012321:0023
#013361:13
#013321:00230000
#013370:00130000
#0133b0:0023
#014320:13
#014350:00230000
#0143b1:13
#014381:00230000
#014351:0000000000000013
#015321:0023000000000000
#016321:00142400
#016341:0000003400000000
#016380:00001424
#016360:0000000000340000
#016321:00000014
#016341:0000000000000034
#017321:24
#0173a1:00142400
#017381:0000003400000000
#017340:00001424
#017360:0000000000340000
#0173a1:00000014
#017381:0000000000000034
#0183a1:24
#018321:00142400
#018341:0000003400000000
#018380:00001424
#018360:0000000000340000
#018321:00000014
#018341:0000000000000034
#019321:24
#019381:00000013
#0203b1:23
#0233b1:0000001300000000
#023371:00000023
#026321:00001333
#026351:0000000000330033
#027321:00000023
#029321:0013
#029351:00000023
#0313b1:0013
#031381:00000023
#033321:0013
#033351:00000023
#0353b1:13
#035381:00230000
#036381:0013
#0363b1:00000023
#0373b1:0013
#038381:23
#038351:0013
#038321:00000023
#039321:0013
#040351:23
#040381:0013
#0403b1:00000023
#042381:13
#0423b1:0033333333333333
#0433b1:23
#042350:13
#042320:0033333333333333
#043320:23
#045320:0013
#045350:0000000000230000
#045381:0000000000130000
#0453b1:00000023
#045320:00000013
#045350:0000000000000023
#045381:0000000000000013
#0463b1:23
#046360:14
#046320:00240000
#0463a1:00140000
#046361:0024
#046361:0000000000000014
#0473a1:0024000000000000
#047320:0014000000000000
#047360:0000002400000000
#0473a0:00000014
#048360:24
#050350:13
#050320:00230000
#0503b1:00130000
#050381:0023
#050350:0013
#050320:00000023
#0503b1:00000013
#051381:23
#051320:13
#051360:0000002400000000
#051360:00000014
#0523a0:24
#0533b0:0013
#053380:0000000000230000
#053351:0000000000130000
#053321:00000023
#0533b0:00000013
#053380:0000000000000023
#053351:0000000000000013
#054321:23
#054360:14
#0543a0:00240000
#054321:00140000
#054361:0024
#054361:0000000000000014
#055321:0024000000000000
#0553a0:0014000000000000
#055360:0000002400000000
#055320:00000014
#056360:24
#0583b0:13
#058380:00230000
#058351:00130000
#058321:0023
#058381:0000000000000013
#0593b1:0023000000000000
#060381:12
#0603b1:00520000
#0613b1:22
#061340:12
#061370:00520000
#062370:22
#0623b1:12
#062381:00520000
#063381:22
#063360:12
#063330:00520000
#064330:22
#064381:12
#0643b1:00520000
#0653b1:22
#065340:12
#065370:00520000
#066370:22
#0663b1:12
#066381:00520000
#067381:22
#067330:12
#067370:0052000000000000
#067320:002c
#069320:0013
#069350:0000000000230000
#069381:0000000000130000
#0693b1:00000023
#069320:00000013
#069350:0000000000000023
#069381:0000000000000013
#0703b1:23
#070360:14
#070320:00240000
#0703a1:00140000
#070361:0024
#070361:0000000000000014
#0713a1:0024000000000000
#071320:0014000000000000
#071360:0000002400000000
#0713a0:00000014
#072360:24
#074320:13
#074340:00240000
#074381:00130000
#0743a1:0024
#074351:0000000000000013
#075321:0023000000000000
#076351:00130023
#076321:0033
#0783b1:00130033
#078381:0033
#079381:23
#0793b1:0000000000130000
#080381:23
#079350:0000000000130000
#080320:23
#080380:00130023
#0803b0:0033
#082350:0013
#082320:0000000000003323
#083350:00000013
#084320:24
#0843a1:14
#084351:00000054
#0853a1:0024
#086321:14
#086371:00000054
#087321:0024
#088381:13
#0883b1:0053230000000000
#088320:00130000
#088350:0000005323000000
#088350:0000000000130000
#088320:0000000000005323
#0883b1:0000000000000013
#089381:5323000000000000
#089351:00000013
#089321:0000000000000053
#090321:23
#0903b0:13
#090380:0053230000000000
#090351:00130000
#090321:0000005323000000
#0903b0:0013
#090380:0000000000532300
#090351:00000013
#090321:0000000000000053
#091321:23
#092321:1323000000000000
#092321:0000132300000000
#092321:0000000013230000
#092321:0000000000001323
#093321:1323000000000000
#093321:0000132300000000
#093321:0000000013230000
#093321:0000000000001323
#094351:1323000000000000
#094351:0000132300000000
#094351:0000000013230000
#094351:0000000000001323
#095351:1323000000000000
#095351:0000132300000000
#095351:0000000013230000
#095351:0000000000001323
