This file was generated by Ched 2.7.0.0.
#TITLE ""
#ARTIST ""
#DESIGNER ""
#DIFFICULTY 0
#PLAYLEVEL
#SONGID ""
#WAVE ""
#WAVEOFFSET 0
#JACKET ""
#REQUEST "ticks_per_beat 480"
#00002: 4
#BPM01: 190
#00008: 01
#TIL00: ""
#VOLUME: ""
#HISPEED 00
#MEASUREHS 00
#00012:13
#00018:0000000000130000
#00015:00130013
#0001b:0000000000000013
#00212:13
#00218:0013
#00215:00000013
#0021b:0000000000000013
#00318:0000000000130000
#00315:0000001300001300
#00718:0013
#00715:0000000000130000
#0071b:00000013
#00712:0000001300000000
#00812:24001313
#00818:0000000000130013
#0081a:00240000
#00810:41
#01215:24000013
#0121b:0000000000000013
#01212:0013
#01218:0000000000130000
#0121a:00240000
#01515:00131300
#01518:0000001300130000
#01512:00000013
#0161a:14
#0191b:0013000000000000
#01918:0000130000130000
#01915:0000001300001300
#01912:0013
#01910:41
#0201b:00130013
#02018:0013
#02015:00130013
#02012:0013
#02118:13
#02115:0013000000000013
#0211b:0000001300000000
#02112:0000001300000000
#02218:13000013
#02212:00130000
#02215:0013
#0221b:00130000
#0231b:13130000
#02315:0013001300000000
#0281b:1313
#02815:0013001300130013
#02818:00230023
#02918:0013000013000000
#02912:0000001300000000
#02915:0000230000000013
#0291b:13
#03412:14000024
#03416:0014
#0341a:00240000
#0351b:13000023
#03512:0000001300000000
#03518:0013
#03515:0000000000130000
#03615:0013001300000000
#03618:00131300
#03612:0000000000000013
#03718:13
#03715:0013000000000000
#0371b:00131300
#03712:0000001300000000
#03815:0013000000000000
#03818:00130000
#03812:0013
#0381b:0000000000000013
#03915:13
#03918:0013000000000000
#03912:00131300
#0391b:0000001300000000
#04018:0013001300000000
#04015:00131300
#0401b:0000000000000013
#04115:1313
#04118:0013000000130000
#04112:00130013
#0411b:0000001300000013
#0441a:24001414
#04416:0000000000140014
#04412:00240000
#04410:41
#04616:00140014
#0461a:14
#04612:0000000000000014
#04716:0014000000140000
#0471a:00000014
#0501a:14
#05012:0014
#0511a:0000001400140000
#05116:00001414
#0511b:13
#05115:13
#06818:0000000000130000
#0681a:0000000000000013
#06812:2424
#06816:00240000
#06814:00000024
#0681f:21
#07016:00140014
#07012:24
#0701a:0000000000000024
#07112:0000000000140000
#0711a:00000014
#07116:0014000000000000
#07215:0000000000130013
#07216:24
#07212:00240000
#0721a:0024
#07218:00000024
#07412:0000140000000013
#07416:24
#0741a:0000000000240000
#07518:00131300
#07515:0000001300130000
#0751a:00000024
#07315:0000000000130000
#07313:0000000000000013
#0731a:2424
#07316:00240000
#07318:00000024
#07612:14
#0761b:0013
#07618:00130000
#07715:13000013
#07718:0000130000000013
#07712:0000001300000000
#0771b:0000000000130000
#07918:00130000
#07915:0000001300000000
#0791b:0000000000130000
#0811b:1300001300000000
#08115:0000130000000013
#08112:0000000000130000
#08118:00000013
#0821b:13131300
#08215:0013001300000013
#08318:0013000000130000
#0831b:0000001300000000
#08312:0000001300000000
#08315:00000013
#08416:00000014
#0841a:24
#08410:41
#08616:00000014
#08612:24
#08918:0000130000130000
#08915:0000001300000000
#08912:0013000000001300
#09118:0013000000001300
#09115:0000130000130000
#0911b:0000001300000000
#09112:13
#09218:0013001300130013
#09212:13131313
#0931b:0013001300130013
#09315:13131313
#09418:0013001300130013
#09415:13131313
#09518:0013001300130013
#09512:13131313
#00115:13
#00112:00130013
#0011b:0000000000130000
#00118:0000000000000013
#0041b:13
#00415:0000000000130000
#00418:00130013
#00412:0000000000000013
#0061b:1313
#00618:00130013
#00518:13
#0051b:00130013
#00512:0000000000130000
#00515:0000000000000013
#00915:00001313
#0091b:0000000000130013
#00912:24
#0091a:00240000
#01012:14
#01018:0014
#01014:00000014
#0101a:0000000000000014
#01114:0000001400000000
#01118:0000000000140000
#01112:00000014
#01315:00000013
#0131b:0000000000000013
#01312:2413
#01318:0000000000130000
#01317:00240000
#01412:14
#01418:0014
#01414:0000000000140000
#0141b:0000000000000013
#02412:00130013
#02415:1313
#02418:00130013
#0241b:1313
#02515:13
#02518:0013000000000013
#02512:0000001300000000
#0251b:0000001300000000
#02615:13001313
#0261b:00130000
#02612:00130000
#02618:0000000000130013
#03012:1313
#03018:0013001300130013
#03015:00230023
#03010:41
#03115:0013000013000000
#0311b:0000001300000000
#03112:13
#03118:0000230000000013
#0321b:1313
#03215:0013001300130013
#03218:00230023
#03318:0013000013000000
#03312:0000001300000000
#0331b:13
#03315:00230000
#04212:14
#04216:0034343434340000
#0451a:2414
#04512:0000240000140014
#04516:00000014
#0481a:0014
#04812:0000240000140014
#04816:24000014
#0491a:00001414
#04916:2400000000140014
#04912:00240000
#05212:24001414
#05216:0000000000140014
#0521a:00240000
#05312:2414
#0531a:0000240000140014
#05316:00000014
#05416:00140014
#05412:14
#0541a:0000000000000014
#05516:0014000000140000
#05512:00000014
#05812:14
#05818:0014
#05814:0000000000140000
#0581b:0000000000000013
#05612:0014
#0561a:0000240000140014
#05616:24000014
#05712:00001414
#05716:2400000000140014
#0571a:00240000
#05915:00131300
#05918:0000001300130000
#05912:00000013
#0591f:11
#06115:13
#0601b:13
#06218:13
#06312:13
#0641b:13
#0641a:00130000
#06419:0013
#06418:00000013
#06512:13
#06513:00130000
#06514:0013
#06515:00000013
#06517:13
#06616:13
#0661b:13
#06618:00130000
#06615:0013
#06612:00000013
#0671b:13
#0691b:0000000000130000
#06918:0000000000000013
#06916:24
#0691a:00240000
#06912:0024
#06914:00000024
#06910:41
#07812:00130013
#07815:0013
#08015:00130000
#08012:0013
#08516:00000014
#0881b:1300000000000013
#08815:13001313
#08818:0000130000130000
#08812:00130000
#0901b:00130000
#09012:0013
#09018:00000013
#00252:53
#00258:0013
#0025b:0000000000000063
#00355:0000001300006300
#0075b:13000013
#00852:14
#0085a:00140000
#01552:00000013
#0165a:14
#01752:14
#01955:00000063
#01954:14
#0215b:0000001300000000
#02152:0000001300000000
#02355:0000005300000000
#02958:0053
#0355b:53
#03658:0053
#0375b:0063
#03852:0063
#03952:0053
#04055:0053
#0445a:14
#04452:00140000
#0475a:00000054
#04756:0064000000000000
#04752:0000001400000000
#0505a:54
#05056:00140014
#05052:0064
#05156:00000064
#0515b:53
#05155:53
#0715a:0000001400005400
#07156:0064000000000000
#07452:0000640000000063
#07456:14
#06852:14
#06856:00140000
#06956:14
#0695a:00140000
#07256:14
#07252:00140000
#0735a:14
#07356:00140000
#0755a:00000014
#07758:0000000000000013
#0795b:0000000000530000
#07955:13
#0825b:0053
#08355:00000053
#0845a:54
#08456:00000024
#08656:00000024
#08652:64
#08955:0000001300000000
#08952:00000053
#09055:13
#0905b:00130000
#09052:0013
#09058:00000013
#00052:53
#00055:00530000
#00155:63
#00152:00630000
#0045b:63
#00458:00630000
#0065b:6363
#00658:00630063
#00558:53
#0055b:00530000
#01052:54
#01058:0014
#0105a:0000000000000064
#01154:0000001400000000
#01152:00000054
#01255:14
#0125a:00140000
#01452:54
#0145b:0000000000000053
#0185a:14
#02552:0000001300000000
#0255b:0000001300000000
#02658:0000000000000063
#03155:0063
#03358:0053
#04252:54
#04356:14
#0465a:5414
#04656:00540000
#04652:0000000000000064
#05252:14
#0525a:00140000
#05552:00000064
#05556:0054000000000000
#0555a:0000001400000000
#05852:64
#05856:00140000
#0585b:0000000000000053
#05452:6414
#05456:00640000
#0545a:0000000000000054
#05952:00000013
#06155:53
#0605b:53
#06258:63
#06352:63
#0675b:53
#06756:0014
#07052:5414
#07056:00540000
#0705a:0000000000000064
#07658:00630013
#0765b:0063
#07852:00630053
#07855:0063
#08055:00530013
#08052:0053
#00952:14
#0095a:00140000
#01352:14
#01357:00140000
#0455a:14
#04552:00140000
#04856:14
#04852:00140000
#04956:14
#04952:00140000
#05352:14
#0535a:00140000
#05656:14
#0565a:00140000
#05756:14
#0575a:00140000
#000320:1323
#000350:00330000
#001350:1323
#001320:00330000
#002320:13
#002350:0053230000000000
#0023b0:0000000000000013
#003380:5323000000000000
#003350:00000013
#004320:23
#0043b1:1323
#004381:00330000
#005381:1323
#0053b1:00330000
#0063b1:1300005333000053
#006381:0053330000533300
#0073b1:23
#010321:14
#010351:0054240000000000
#0103a1:0000000000000014
#011371:5424000000000000
#011321:00000014
#011351:0000000000000054
#012351:24
#014321:14
#014361:00240000
#0143b1:0000000000000013
#015381:0023000000000000
#016321:00143434
#016341:0000003400340034
#017321:24
#0173a1:00143434
#017381:0000003400340034
#0183a1:24
#018341:00143434
#018321:0000003400340034
#019341:24
#019351:00000013
#020321:23
#023351:0000001300000000
#023321:00000023
#026381:0000000000000013
#0273b1:0023
#029381:0013
#0293b1:00000023
#031351:0013
#031321:00000023
#033381:0013
#0333b1:00000023
#0353b1:13
#035381:00230000
#036381:0013
#0363b1:00000023
#0373b1:0013
#038381:23
#038321:0013
#038351:00000023
#039321:0013
#040351:23
#040351:0013
#040321:00000023
#042321:14
#042361:0034343434343434
#043361:24
#0463a1:1424
#046361:00340000
#046321:0000000000000014
#047361:0034000000000000
#047321:0000002400000000
#0473a1:00000014
#048361:24
#0503a1:14
#050361:00240000
#050321:0014
#050361:00000024
#0513b1:13
#051381:00230000
#051350:13
#051320:00230000
#051360:00000014
#052320:24
#054320:1424
#054360:00340000
#0543a0:0000000000000014
#055360:0034000000000000
#0553a0:0000002400000000
#055320:00000014
#056360:24
#058320:14
#058360:00240000
#0583b0:0000000000000013
#059380:0023000000000000
#0603b0:13
#061380:23
#061351:13
#062321:23
#062380:13
#0633b0:23
#063321:13
#064351:23
#0673b1:13
#067361:0024
#070321:1424
#070361:00340000
#0703a1:0000000000000014
#071361:0034000000000000
#0713a1:0000002400000000
#0713a1:00000014
#072361:24
#074321:00140000
#074361:0024
#074321:0000000000000013
#075351:0023000000000000
#076381:00130023
#0763b1:0033
#078321:00130033
#078351:0033
#079351:23
#0793b1:0000000000130000
#080381:23
#080351:00130023
#080321:0033
#0823b1:0013
#082381:00000023
#083351:00000013
#084321:23
#0843a0:14
#084360:00000054
#0853a0:0024
#086320:14
#086360:00000054
#087320:0024
#089320:00000013
#090350:23
