This file was generated by Ched 2.7.0.0.
#TITLE ""
#ARTIST ""
#DESIGNER ""
#DIFFICULTY 0
#PLAYLEVEL
#SONGID ""
#WAVE ""
#WAVEOFFSET 0
#JACKET ""
#REQUEST "ticks_per_beat 480"
#00002: 4
#BPM01: 190
#00008: 01
#TIL00: ""
#VOLUME: ""
#HISPEED 00
#MEASUREHS 00
#0001a:1414
#00014:00240024
#00118:1414
#00112:00240024
#0021a:14241424
#00314:14241424
#0041a:1414
#00414:00240024
#00518:1414
#00512:00240024
#0061a:1414
#00614:00240024
#0071a:14
#00718:00343400
#0081a:0014
#00818:24
#00812:00240000
#00814:00000024
#00810:41
#00918:14
#0091a:0014
#00912:00240000
#00914:00000024
#01018:14
#0101a:00343400
#01114:14
#01112:00343400
#01218:14
#0121a:0014
#01212:00240000
#01214:00000024
#01318:14
#0131a:0014
#01312:00240000
#01314:00000024
#0141a:14
#01418:00343400
#01514:1414
#01518:00240024
#01618:00141414
#01612:26
#0171a:00141414
#01712:26
#01818:00140014
#0181a:0014
#01812:26
#0191a:00140014
#01918:0014
#01912:26
#01910:41
#02012:14
#02018:00140000
#02014:0014
#0211a:14
#02114:00140000
#02118:0014
#02214:14
#02218:00140000
#02212:0014
#02318:14
#02314:00140000
#0231a:0014
#02412:14
#02418:00140000
#02414:0014
#0251a:14
#02514:00140000
#02518:0014
#02614:14
#02618:00140000
#02612:0014
#02718:14
#02714:00140000
#0271a:0014
#02812:1414
#02818:00240024
#02912:14
#02914:00343400
#0301a:1414
#03014:00240024
#03010:41
#0311a:14
#03118:00343400
#03214:1414
#03218:00240024
#03314:14
#03312:00343400
#03418:1414
#03414:00240024
#03518:14
#0351a:00343400
#03612:14
#03613:00140000
#03614:0014
#03615:00000014
#0371a:14
#03719:00140000
#03718:0014
#03717:00000014
#03812:14
#03813:00140000
#03814:0014
#03815:00000014
#0391a:14
#03919:00140000
#03918:0014
#03917:00000014
#04012:14
#04018:00140000
#04014:0014
#0401a:00000014
#04112:14
#04118:00140000
#04114:0014
#0411a:00000014
#04212:14
#04214:0034343434340000
#04418:0014
#0441a:14
#04414:00240000
#04412:00000024
#04410:41
#04518:0014
#0451a:14
#04514:00240000
#04512:00000024
#04618:14
#04614:00140000
#04612:00000014
#0461a:0014
#04718:14
#04714:00140000
#0471a:0014
#04712:00000014
#04818:0014
#0481a:14
#04814:00240000
#04812:00000024
#04918:0014
#0491a:14
#04914:00240000
#04912:00000024
#05118:14
#0511a:00343400
#05214:0014
#05212:14
#05218:00240000
#0521a:00000024
#05314:0014
#05312:14
#05318:00240000
#0531a:00000024
#05414:14
#05418:00140000
#05412:0014
#0541a:00000014
#05514:14
#05518:00140000
#05512:0014
#0551a:00000014
#05614:0014
#05612:14
#05618:00240000
#0561a:00000024
#05714:0014
#05712:14
#05718:00240000
#0571a:00000024
#05814:14
#05817:00140000
#0581a:0014
#05812:0014
#05914:1414
#05918:00140014
#0591f:11
#06012:14
#06113:14
#06214:14
#0641a:14
#06519:14
#06618:14
#06814:0014
#06812:14
#06818:00240000
#0681a:00000024
#0681f:21
#06914:0014
#06912:14
#06918:00240000
#0691a:00000024
#06910:41
#07014:14
#07018:00140000
#07012:0014
#0701a:00000014
#07114:14
#07118:00140000
#07112:0014
#0711a:00000014
#07214:0014
#07212:14
#07218:00240000
#0721a:00000024
#07314:0014
#07312:14
#07318:00240000
#0731a:00000024
#07414:14
#07417:00140000
#0741a:0014
#07412:0014
#07514:1414
#07518:00140014
#07616:0000000000000014
#07612:14343434
#07816:0000000000000014
#0781a:14343434
#08016:0000000000000014
#08012:14343434
#08218:1414
#08214:00140014
#0831a:1414
#08312:00140014
#0841a:00000014
#08418:24
#08410:41
#08612:00000014
#08614:24
#0881a:14
#08814:00140000
#08818:0014
#08912:14
#08918:00140000
#08914:0014
#09117:00140014
#0911a:24
#09114:0024
#0921a:14
#09215:00141414
#09319:14
#09314:00141414
#09418:14
#09413:00141414
#09517:14
#09512:00141414
#0901a:2424
#09014:00240024
#07712:34343400
#0791a:34343400
#08112:34343400
#00858:14
#0075a:54
#01058:54
#01154:64
#0145a:64
#01652:16
#02952:54
#0315a:64
#03354:64
#03558:54
#04252:54
#04354:14
#04752:00000014
#05158:54
#0515a:00000014
#0555a:00000014
#06254:54
#06153:54
#06052:54
#0645a:64
#06559:64
#06658:64
#06757:0014
#0715a:00000014
#07652:54
#07656:0000000000000024
#07856:0000000000000024
#0785a:64
#08056:0000000000000024
#08052:54
#0845a:00000024
#08458:54
#08652:00000024
#08654:64
#08858:0014
#08954:0014
#0925a:14
#0073a0:14
#007380:00343434
#008380:24
#010380:14
#0103a0:00343424
#011340:14
#011320:00343424
#0143a0:14
#014380:00343424
#029320:14
#029340:00343424
#0313a0:14
#031380:00343424
#033340:14
#033320:00343424
#035380:14
#0353a0:00343424
#042320:14
#042340:0034343434343434
#043340:24
#0503a0:14
#050380:00240000
#050340:0014
#050320:00000024
#051380:14
#0513a0:00343424
#060320:14
#060330:00540000
#061330:34
#061340:00540000
#062340:34
#062350:00540000
#063350:24
#0643a0:14
#064390:00540000
#065390:34
#065380:00540000
#066380:34
#066370:00540000
#067370:3424
#076320:14343434
#076360:0000000000000054
#077320:34343424
#0783a0:14343434
#078360:0000000000000054
#0793a0:34343424
#080320:14343434
#080360:0000000000000054
#081320:34343424
#084380:14
#0843a0:00000054
#085380:0024
#086340:14
#086320:00000054
#087340:0024
