This file was generated by Ched 2.7.0.0.
#TITLE ""
#ARTIST ""
#DESIGNER ""
#DIFFICULTY 0
#PLAYLEVEL
#SONGID ""
#WAVE ""
#WAVEOFFSET 0
#JACKET ""
#REQUEST "ticks_per_beat 480"
#00002: 4
#BPM01: 83
#00008: 01
#TIL00: ""
#VOLUME: ""
#HISPEED 00
#MEASUREHS 00
#00113:0012000000000000
#00114:00120000
#00118:0000001200000000
#00115:0000001200000000
#00112:12
#0011a:0000000000320000
#00117:0000000000320000
#0021b:0012000000000000
#0021a:00120000
#00216:0000001200000000
#00219:0000001200000000
#0021c:12
#00214:0000000000320000
#00217:0000000000320000
#00313:1200000000320000
#00316:0000001200000000
#00317:1200000000320000
#00318:0012000000000000
#00319:00120000
#0031a:0000001200000000
#00310:41
#0041b:1200000000325200
#00418:0000001200000052
#00417:1200000000325200
#00416:000000120000000000000000000000000000005200000000
#00415:000000120000000000005200
#00414:0000001200000052
#0041a:000000000000000000000000000000000000005200000000
#00419:000000000052
#0051a:00000012000000000000000000000000
#00517:1200001200001200
#00513:1200001200000000
#00515:0012120000000000
#0051b:00000012
#00614:00000012000000000000000000000000
#00617:1200001200001200
#0061b:1200001200000000
#00619:0012120000000000
#00613:00000012
#00716:0000001200000000
#00719:22
#00718:0000002200000000
#00819:0012001200120000
#0081b:00120012
#00817:0012
#0081a:24
#00810:41
#00915:0012001200120000
#00913:00120012
#00917:0012
#01016:14
#01019:0012001200120000
#0101b:00120012
#01017:0012
#01116:14120000
#01112:0000001400000000
#0111a:0000001400000000
#01114:0012000000000000
#01213:12
#01217:00120000
#01219:0000001200000000
#01215:0000001200000000
#0121a:22
#01412:12
#01418:00120000
#0141b:0000001200000000
#01415:0000001200000000
#0141a:12
#01410:41
#0151c:12
#01516:00120000
#01513:0000001200000000
#01519:0000001200000000
#01514:12
#0131b:12
#01317:00120000
#01315:0000001200000000
#01319:0000001200000000
#01314:12
#0161c:12
#01614:22120000
#01617:0000001200000000
#01619:0000001200000000
#01712:12
#0171a:12120000
#01717:0000001200000000
#01715:0000001200000000
#01819:12
#01817:00120000
#01814:2200001200000000
#0181c:0000001200000000
#01915:12
#01917:00120000
#0191a:1200001200000000
#01912:0000001200000000
#02115:12
#02119:12
#02113:0012000000000000
#0211b:00120000
#02116:0000001200000000
#02212:0012000000000000
#02214:00120000
#0221a:0000000000120000
#0221b:0000000000000012
#02218:00000012
#02213:0000000000000012
#02216:00000012
#0231c:0012000000000000
#0231a:00120000
#02314:0000000000120000
#02313:0000000000000012
#02316:00000012
#0231b:0000000000000012
#02318:00000012
#02414:0012000000000000
#02415:00120000
#02418:12000012
#02416:0000001200000012
#0241a:0012
#02419:0000000000120000
#02515:0000001300000000
#0251a:006200000000000000000000000000000000000000000000000000000000000000000000000000000000000000000000140000000000000000000000000000000000000000000000000000000000000000000000000000000000000000000000
#02518:2200000000140000
#02516:00000014
#02514:0000000000000014
#02512:00001423
#0251c:006200000000000000000000000000000000000000000000000000000000000000000000000000000000000000000000
#02612:14
#02618:26000000130013000000330000130000
#02615:00000000001300130000000013001300
#0261a:0014
#0261f:21
#02610:0041
#02712:14000000000000000000000000000013
#0271b:0000000000130000
#02716:00000000240000000000001300000000
#02719:00000013
#02714:00000000000000000000000000130000
#02717:0000000000000013
#02718:26
#02815:16000000130013000000003333133333
#02812:0000000000130000
#0281b:0000000000130000
#02818:00000000000000130000003333133333
#02918:0013000000002600
#02915:00000013000000000000000000002600
#0291a:00000000001400000000000000000000
#02912:0000001400000000
#02916:00000000000000000014000000000000
#0301a:1424
#03015:0000131300000000
#03018:00000000001300000000240000000000
#03012:2614
#03016:00000024
#03014:0000000000000024
#0311a:14
#03118:0000131300000000
#03115:00000000001300000000000000000000
#03112:24000000000000000000001300000000
#03117:00000013
#03114:00000000000000000000000000130000
#03119:0000000000000013
#03116:00000000000000000000000000000013
#03215:0013001300130000
#03218:00000013001300000000001300130000
#0321a:2414
#03212:0000240000002414
#03210:41
#0331a:1424
#03315:00000000001300130000000000000000
#03318:0000001300240000
#03316:00000024
#03314:0000000000000024
#03914:0012000000120000
#03918:00120012
#03916:0000001200000012
#0391a:0012
#04014:0012001200000000
#04017:00120000
#0401a:2200001200000000
#03415:00001300000000130000130000000000
#03418:26000013000013000000001300130000
#0341a:0014
#03412:2400240000002414
#0351a:14
#03515:0000131300000000
#03518:00000000001300130000000000002600
#03512:0026
#03514:0000000000260000
#03516:00000026
#03618:0016
#03612:26
#03713:00120012
#03716:1212
#03718:0012
#0371b:00000012
#03710:41
#03818:1212
#0381a:00120012
#03814:00000012
#03816:0012
#0201f:11
#02017:22
#04316:52
#04318:62
#00158:0000005200000000
#00155:0000005200000000
#00256:0000006200000000
#00259:0000006200000000
#00353:22
#00356:0000005200000000
#0035a:0000005200000000
#0045b:22
#00458:0000006200000000
#00454:0000006200000000
#0055a:00000022000000000000000000000000
#00557:6200006200000000
#00553:0000006200000000
#00654:00000022000000000000000000000000
#00657:5200005200000000
#0065b:0000005200000000
#0085b:00000012
#00953:00000012
#01056:64
#0105b:00000012
#01156:64000012
#01158:00000012
#01152:0000006400000000
#0115a:0000006400000000
#01259:0000006200000000
#0125a:12
#01257:00000012
#0125b:00000012
#01255:0000006200000000
#0145b:0000006200000000
#01455:0000006200000000
#01457:00000012
#01459:00000012
#01553:0000005200000000
#01559:0000005200000000
#01557:00000012
#01555:00000012
#01355:0000005200000000
#01359:0000005200000000
#01357:00000012
#01353:00000012
#01655:00000012
#0165b:00000012
#01657:0000006200000000
#01659:0000006200000000
#01654:12
#01757:0000005200000000
#01755:0000005200000000
#01753:00000012
#01759:00000012
#01854:1200006200000000
#0185c:0000006200000000
#01859:00000012
#01857:00000012
#0195a:0000005200000000
#01952:0000005200000000
#01955:00000012
#01957:00000012
#02153:00000012
#02156:0000006200000000
#0225b:0000000000000022
#02258:0000001200006200
#02253:0000000000000022
#02256:00000062
#02353:0000000000000022
#02356:0000001200005200
#0235b:0000000000000022
#02358:00000062
#02458:62
#02456:0000006200000000
#02658:16
#02652:64
#0265a:0054
#02758:66
#02752:14
#02756:0000001400000000
#02855:66000000000000000000000000230000
#0285b:0000130000630000
#02852:0000000000530000
#02858:00000000000000530000000000230000
#02956:00000000000000000024000000000000
#02952:1400006400000000
#0295a:14
#0305a:54
#03052:1614
#03152:64
#0315a:14
#03158:0000001300000000
#0325a:1414
#03252:0000000000000064
#0335a:14
#0405a:0000006200000000
#04054:0000005200000000
#0345a:0014
#03452:0000000000000064
#03458:16
#0355a:14
#03658:0056
#03652:56
#03753:00220022
#03756:5252
#03758:0052
#0375b:00000022
#03858:5252
#0385a:00220022
#03854:00000022
#03856:0052
#001380:1200003200000000
#0013a0:0000000000322200
#001351:0000001200000000
#001371:0000000000322200
#002361:1200003200000000
#002341:0000000000322200
#002390:0000001200000000
#002370:0000000000322200
#003330:1200000000322200
#003360:0000003200000000
#0033a1:0000001200000000
#003371:0000000000322200
#0043b1:1200000000322200
#004381:0000003200000000
#004340:0000001200000000
#004370:0000000000322200
#005370:1200003200000000
#0053a0:00000052000000000000000000000000
#0053b0:0000000000220000
#005331:0000001200000000
#005371:0000000000220000
#006371:1200003200000000
#006341:00000052000000000000000000000000
#006331:0000000000220000
#0063b0:0000001200000000
#006370:0000000000220000
#007350:12220000
#007391:12220000
#008321:14
#009351:23
#009380:13
#0103a0:24
#010361:14
#011321:23
#011360:14
#0113a0:0000003400000000
#011380:00000022
#011321:0000001400000000
#011361:00000022
#012351:0012003200000000
#012371:00000022
#012390:0000001200000000
#0123b0:00000022
#013390:0012003200000000
#013370:00000022
#013351:0000001200000000
#013331:00000022
#014351:0012003200000000
#014371:00000022
#0143b0:0000001200000000
#014390:00000022
#015390:0012003200000000
#015370:00000022
#015331:0000001200000000
#015351:00000022
#016391:0012003200000000
#0163b1:00000022
#016370:0000001200000000
#016350:00000022
#017350:0012003200000000
#017330:00000022
#017371:0000001200000000
#017391:00000022
#0183c1:0012003200000000
#018391:00000022
#018340:0000001200000000
#018370:00000022
#019320:0012003200000000
#019350:00000022
#0193a1:0000001200000000
#019371:00000022
#020371:12000022
#021361:0000001200000000
#021331:00000022
#022381:1200002200000000
#022360:0000001200003200
#022330:0000000000000052
#023360:3200002200000000
#022381:00000012
#0223b1:0000000000000052
#023381:22
#023381:0000001200003200
#0233b1:0000000000000052
#024381:32
#0243b1:0000002200000000
#023360:00000012
#023330:0000000000000052
#024360:22
#024360:0000001200000000
#024330:00000022
#026320:14
#026350:00230000
#0263a0:0014
#026380:0000000000332300
#027380:16
#0273b0:00230000
#027361:0000142400000000
#028351:16
#0283b1:00230000
#028381:00000000000000130000003333333333
#0283b1:0000000000330000
#0293a1:24
#028320:0000000000130000
#028350:00000000000000000000003333333333
#029320:24
#029320:0000001400002400
#029360:00000000000000000054000000000000
#0303a0:14
#030380:00230000
#031320:14
#031350:00230000
#032320:0000000000000014
#033360:24
#034320:0000000000000014
#035360:24
#036320:16
#036360:0032
#037360:3232
#037330:00520052
#038360:3232
#038340:00000052
#039360:22
#036381:0016
#037381:3232
#0373b1:00000052
#038381:3232
#0383a1:00520052
#039381:22
#0403a1:1200003200000000
#043381:22
#040340:0000001200000000
#043360:22
#004970:00000012
#004940:000000000000000000000000000000000000000000000000000000000000000000000000000000000000000000000000000000000000000000000000000000000000000000000000000000000000000000000000000000000000000000000000000000000000000000000000000000000000000000000000000000000000000000000000000000000000000000000000000000000000000000000000000000000000000000000000000000000000000000000000000000000000000000000000000000000000000000000000000000000000000000000000000000000000000000000000000000000000000000000000000000000000000000000000000000000000000000000000000000000000000000000000000000000000000000000000000000000000000000000000000000000000000000000000000000000000000000000000000000000000000000000000000000000000000000000000000000000000000000000000000000000000000000000000000000000000000000000000000000000000000000000000000000000000000000000000000000000000000000000000000000000000000000000000000000000000000000000000000000000000000000000000000000000000000000000000000000000000000000000000000000000000000000000000000000000000000000000000000000000000000000000000000000000000000000000000000000000000000000000000000000000000000000000000000000000000000000000000000000000000000000000000000000000000000000000000000000000000000000000000000000000000000000000000000000000000000000000000000000000000000000000000000000000000000000000000000000000000000000000000000000000000000000000000000000000000000000000000000000000000000000000000000000000000000000000000000000000000000000000000000000000000000000000000000000000000000000000000000000000000000000000000000000000000000000000000000000000000000000000000000000000000000000000000000000000000000000000000000000000000000000000000000000000000000000000000000000000000000000000000000000000000000000000000000000000000000000000000000000000000000000000000000000000000000000000000000000000000000000000000000000000000000000000000000000000000000000000000000000000000000000000000000000000000000000000000000000000000000000000000000000000000000000000000000000000000000000000000000000000000000000000000000000000000000000000000000000000000000000000000000000000000000000000000000000000000000000000000000000000000000000000000000000000000000000000000000000000000000000000000000000000000000000000000000000000000000000000000000000000000000000000000000000000000000000000000000000000000000000000000000000000000000000000000000000000000000000000000000000000000000000000000000000000000000000000000000000000000000000000000000000000000000000000000000000000000000000000000000000000000000000000000000000000000000000000000000000000000000000000000000000000000000000000000000000000000000000000000000000000000000000000000000000000000000000000000000000000000000000000000000000000000000000000000000000000000000000000000000000000000000000000000000000000000000000000000000000000000000000000000000000000000000000000000000000000000000000000000000000000000000000000000000000000000000000000000000000000000000000000000000000000000000000000000000000000000000000000000000000000000000000000000000000000000000000000000000000000000000000000000000000000000000000000000000000000000000000000000000000000000000000000000000000000000000000000000000000000000000000000000000000000000000000000000000000000000000000000000000000000000000000000000000000000000000000000000000000000000000000000000000000000000000000000000000000000000000000000000000000000000000000000000000000000000000000000000000000000000000000005252220000000000000000000000000000000000000000000000000000000000000000000000000000000000000000000000000000000000000000000000000000000000000000000000000000000000000000000000000000000000000000000000000000000000000000000000000000000000000000000000000000000000000000000000000000000000000000000000000000000000000000000000000000000000000000000000000000000000000000000000000000000000000000000000000000000000000000000000000000000000000000000000000000000000000000000000000000000000000000000000
#0049b1:00000012
#004981:000000000000000000000000000000000000000000000000000000000000000000000000000000000000000000000000000000000000000000000000000000000000000000000000000000000000000000000000000000000000000000000000000000000000000000000000000000000000000000000000000000000000000000000000000000000000000000000000000000000000000000000000000000000000000000000000000000000000000000000000000000000000000000000000000000000000000000000000000000000000000000000000000000000000000000000000000000000000000000000000000000000000000000000000000000000000000000000000000000000000000000000000000000000000000000000000000000000000000000000000000000000000000000000000000000000000000000000000000000000000000000000000000000000000000000000000000000000000000000000000000000000000000000000000000000000000000000000000000000000000000000000000000000000000000000000000000000000000000000000000000000000000000000000000000000000000000000000000000000000000000000000000000000000000000000000000000000000000000000000000000000000000000000000000000000000000000000000000000000000000000000000000000000000000000000000000000000000000000000000000000000000000000000000000000000000000000000000000000000000000000000000000000000000000000000000000000000000000000000000000000000000000000000000000000000000000000000000000000000000000000000000000000000000000000000000000000000000000000000000000000000000000000000000000000000000000000000000000000000000000000000000000000000000000000000000000000000000000000000000000000000000000000000000000000000000000000000000000000000000000000000000000000000000000000000000000000000000000000000000000000000000000000000000000000000000000000000000000000000000000000000000000000000000000000000000000000000000000000000000000000000000000000000000000000000000000000000000000000000000000000000000000000000000000000000000000000000000000000000000000000000000000000000000000000000000000000000000000000000000000000000000000000000000000000000000000000000000000000000000000000000000000000000000000000000000000000000000000000000000000000000000000000000000000000000000000000000000000000000000000000000000000000000000000000000000000000000000000000000000000000000000000000000000000000000000000000000000000000000000000000000000000000000000000000000000000000000000000000000000000000000000000000000000000000000000000000000000000000000000000000000000000000000000000000000000000000000000000000000000000000000000000000000000000000000000000000000000000000000000000000000000000000000000000000000000000000000000000000000000000000000000000000000000000000000000000000000000000000000000000000000000000000000000000000000000000000000000000000000000000000000000000000000000000000000000000000000000000000000000000000000000000000000000000000000000000000000000000000000000000000000000000000000000000000000000000000000000000000000000000000000000000000000000000000000000000000000000000000000000000000000000000000000000000000000000000000000000000000000000000000000000000000000000000000000000000000000000000000000000000000000000000000000000000000000000000000000000000000000000000000000000000000000000000000000000000000000000000000000000000000000000000000000000000000000000000000000000000000000000000000000000000000000000000000000000000000000000000000000000000000000000000000000000000000000000000000000000000000000000000000000000000000000000000000000000000000000000000000000000000000000000000000000000000000000000000000000000000000000005252220000000000000000000000000000000000000000000000000000000000000000000000000000000000000000000000000000000000000000000000000000000000000000000000000000000000000000000000000000000000000000000000000000000000000000000000000000000000000000000000000000000000000000000000000000000000000000000000000000000000000000000000000000000000000000000000000000000000000000000000000000000000000000000000000000000000000000000000000000000000000000000000000000000000000000000000000000000000000000000000
#025981:12
#0259c1:000000000000000000000000000000000000000000000000000000000000000000000000000052522200000000000000000000000000000000000000000000000000000000000000000000000000000000000000000000000000000000000000000000000000000000000000000000000000000000000000000000000000000000000000000000000000000000000000000000000000000000000000000000000000000000000000000000000000000000000000000000000000000000000000000000000000000000000000000000000000000000000000000000000000000000000000000000000000000000000000000000000000000000000000000000000000000000000000000000000000000000000000000000000000000000000000000000000000000000000000000000000000000000000000000000000000000000000000000000000000000000000000000000000000000000000000000000000000000000000000000000000000000000000000000000000000000000000000000000000000000000000000000000000000000000000000000000000000000000000000000000000000000000000000000000000000000000000000000000000000000000000000000000000000000000000000000000000000000000000000000000000000000000000000000000000000000000000000000000000000000000000000000000000000000000000000000000000000000000000000000000000000000000000000000000000000000000000000000000000000000000000000000000000000000000000000000000000000000000000000000000000000000000000000000000000000000000000000000000000000000000000000000000000000000000000000000000000000000000000000000000000000000000000000000000000000000000000000000000000000000000000000000000000000000000000000000000000000000000000000000000000000000000000000000000000000000000000000000000000000000000000000000000000000000000000000000000000000000000000000000000000000000000000000000000000000000000000000000000000000000000000000000000000000000000000000000000000000000000000000000000000000000000000000000000000000000000000000000000000000000000000000000000000000000000000000000000000000000000000000000000000000000000000000000000000000000000000000000000000000000000000000000000000000000000000000000000000000000000000000000000000000000000000000000000000000000000000000000000000000000000000000000000000000000000000000000000000000000000000000000000000000000000000000000000000000000000000000000000000000000000000000000000000000000000000000000000000000000000000000000000000000000000000000000000000000000000000000000000000000000000000000000000000000000000000000000000000000000000000000000000000000000000000000000000000000000000000000000000000000000000000000000000000000000000000000000000000000000000000000000000000000000000000000000000000000000000000000000000000000000000000000000000000000000000000000000000000000000000000000000000000000000000000000000000000000000000000000000000000000000000000000000000000000000000000000000000000000000000000000000000000000000000000000000000000000000000000000000000000000000000000000000000000000000000000000000000000000000000000000000000000000000000000000000000000000000000000000000000000000000000000000000000000000000000000000000000000000000000000000000000000000000000000000000000000000000000000000000000000000000000000000000000000000000000000000000000000000000000000000000000000000000000000000000000000000000000000000000000000000000000000000000000000000000000000000000000000000000000000000000000000000000000000000000000000000000000000000000000000000000000000000000000000000000000000000000000000000000000000000000000000000000000000000000000000000000000000000000000000000000000000000000000000000000000000000000000000000000000000000000000000000000000000000000000000000000000000000000000000000000000000000000000000000000000000000000000000000000000000000000000000000000000000000000000000000000000000000000000000000000000000000000000000000000000000000000000000000000000000000000000000000000000000000000000000000000000000000000000000000000000000000000000000000000000000000000000000000000000000000000000000000000000000000000000000000000000000000000000000000000000000000000000000000000000000000000000000000000000000000
