This file was generated by Ched 2.7.0.0.
#TITLE ""
#ARTIST ""
#DESIGNER ""
#DIFFICULTY 0
#PLAYLEVEL
#SONGID ""
#WAVE ""
#WAVEOFFSET 0
#JACKET ""
#REQUEST "ticks_per_beat 480"
#00002: 4
#BPM01: 83
#00008: 01
#TIL00: ""
#VOLUME: ""
#HISPEED 00
#MEASUREHS 00
#00016:0000000000000012
#00018:00000000000000000000000000000012
#00119:0000000000120000
#00117:00000012
#00115:0000000000000012
#00116:12
#00113:0032320000000000
#00214:0000000000120000
#0021a:00000012
#00216:0000000000000012
#00218:12000000000000000000000000000012
#0021b:0032320000000000
#00313:13
#00319:0000000000120000
#00315:00000012
#00317:0000000000000012
#00316:0032320000000000
#00310:41
#0041a:13
#00416:0000000000000012
#00418:00000000000000000000000000000012
#00519:0000000000120000
#00517:00000012
#00515:0033330000000012
#00513:13
#00516:00000013000000000000000000000000
#0061a:13
#00617:00000013000000000000000000001200
#00615:0000000000120000
#00619:00000012
#00618:0033330000000000
#00714:13
#00717:0000005200000000
#00815:0013000000001300
#00818:0000130000000013
#0081b:0000001300000000
#00812:2400000000130000
#0081a:24
#00810:41
#0091b:0013000000000000
#00918:0000130000130000
#00915:0000001300001300
#00912:2300000000000013
#01015:0013000000001300
#01018:0000130000000013
#0101b:2300001300000000
#01012:0000000000130000
#01115:00001300000000000000000000000013
#01118:0000130000000013
#0111b:0000001300000000
#01112:23000013
#0121b:13
#01212:0000000000130013
#01218:0033330000001300
#01318:1300000000000013
#01312:0000000000130000
#01315:00000013
#0131b:0033330000000000
#01412:13
#0141b:0000000000130013
#01415:0033330000001300
#01410:41
#01515:13000000000000000000000000000013
#01518:0000000000000013
#0161b:13
#01618:00003313330000000000000000000000
#01615:0000000000130000
#0161a:00000013
#01613:0000000000000013
#01718:13000013
#0171b:00003313330000000000000000001300
#01715:0000000000130000
#01812:13
#01815:00003313330000000000000000000000
#01818:0000000000130000
#01813:00000013
#0181a:0000000000000013
#01915:13
#01912:00003313330000000000000000000000
#01918:00000013
#02018:00130000
#02015:00000013
#0201f:11
#02118:00000013
#02119:00000000000000000000000000530000
#0211a:0000000000000053
#02215:0013005300001300
#02218:0000000000130000
#02212:00000000000000000000000000000033
#02214:00000053005300000000000000000000
#02213:00530000
#02312:13000013
#02318:0000001300000000
#02315:00000033000000000000000000000053
#02313:00000000000000000000000000530000
#02314:0000000000000053
#02418:00001300000000005300001300000000
#02415:00000013000000000000130000130000
#0241b:00000000001300000000000000000000
#02419:00000000000000530000000000000000
#0241a:0000005300000000
#02515:0000001300000000
#0251a:0024
#02518:0000000000240000
#02516:00000024
#02514:0000000000000024
#0261b:00130000
#02618:00000013
#02615:0000000000000013
#02612:2400000000130000
#0261f:21
#02617:00000000003333330000000000000000
#02610:0041
#02818:00000000000013000000003333133333
#02815:00000000000000130000000000000000
#0281b:0000000000130000
#02915:00001300001300000000000000000000
#02918:00000013000013000000000000000000
#0291b:0013
#02916:0000000000000024
#02912:00000024
#02715:00000000000000000000003333133333
#02712:0000000000130000
#0271a:24
#03015:00130023
#03012:0000001300000023
#0301a:24
#0301b:0023
#03018:0000000000230000
#03118:23000000000000000000001300000000
#03115:0000000000131300
#03112:00000000000000000000000000333333
#03218:00001300001300001300000000000000
#03215:00000013000013000000000000000000
#0321b:00000000000000000000333313333300
#03210:41
#03315:0000130000230000
#03318:0000001300002300
#03312:0023
#0331b:0000000000000023
#03418:0013001300000000
#03415:00000013000000130000000000000000
#03412:24000000000000000000331300333300
#03518:0000130000230000
#03515:0000001300002300
#0351b:0023
#03512:0000000000000023
#03712:0013001300000000
#03718:00130000
#03715:0000000000130013
#0371b:00000013
#03710:41
#03818:0013001300000000
#03812:00130000
#0381b:0000000000130013
#03815:00000013
#03912:1313
#03918:0013000000001300
#03915:0000130000130000
#0391b:0000001300000013
#04012:14
#04016:0014000000000000
#0401a:00140000
#04019:0000002300000000
#03619:24
#04316:52
#04318:62
#00353:63
#00356:0000001200000000
#00156:52
#00153:0000001300000000
#00258:62
#0025a:0000001300000000
#0045a:53
#00458:0000001200000000
#00553:6300001300000000
#00556:00000023000000000000000000000000
#0065a:5300001300000000
#00657:00000023000000000000000000000000
#00754:63
#0115b:0000001300000000
#01258:0000001300000000
#0125b:63
#01358:53
#0135b:0000001300000000
#01452:53
#01455:0000001300000000
#01555:63
#01552:0000001300000000
#0165b:6300001300000000
#01658:00000023000000000000000000000000
#01758:5300001300000000
#0175b:00000023000000000000000000000000
#01852:5300001300000000
#01855:00000023000000000000000000000000
#01955:6300001300000000
#01952:00000023000000000000000000000000
#02155:0000001300000000
#02255:00000063
#02352:63
#02558:13
#02652:14
#0265b:00630000
#02657:0013
#02756:0000001400000000
#0275a:64
#02755:00000000000000000000000000230000
#02752:0000000000630000
#0295b:0023
#02958:0000006300000000
#0305a:14
#02852:13
#02858:00000000000000000000000000230000
#0285b:0000000000530000
#0315b:0000001300000000
#03158:63
#03155:00000053
#03258:0053
#0325b:00000023
#03252:13
#03455:00000000000000630000000000000000
#03452:14000000000000000000002300000000
#03358:13
#03555:13
#001360:12
#001330:0032322300000000
#002380:12
#0023b0:0032320000000000
#0023a0:0000002300000000
#003330:13
#003360:0032322200000000
#0043a0:13
#004380:0000002200000000
#005330:1300002300000000
#005350:0033330000000000
#005360:00000053000000000000000000000000
#0063a0:1300002300000000
#006380:0033330000000000
#006370:00000053000000000000000000000000
#007340:13
#007370:0000002200000000
#0123b0:13
#012380:0033332300000000
#013380:13
#0133b0:0033332300000000
#014320:13
#014350:0033332300000000
#015350:13
#015320:0000002300000000
#0163b0:1300002300000000
#016380:00003353330000000000000000000000
#017380:1300002300000000
#0173b0:00003353330000000000000000000000
#018320:1300002300000000
#018350:00003353330000000000000000000000
#019350:1300002300000000
#019320:00003353330000000000000000000000
#019350:0000000000000013
#020350:0023000000000000
#020380:0000001300230000
#020350:0000000000000013
#021350:0000002300000000
#022350:00000013
#022320:00000000000000000000000000000033
#023320:33
#023350:00000033230000000000000000000000
#024380:0000000000000013
#025380:23
#0263b0:00130000
#026370:00000000003333332300000000000000
#0273a0:14
#027360:0000342400000000
#027320:0000000000130000
#027350:00000000000000000000003333333333
#028320:23
#0283b0:0000000000130000
#028380:00000000000000000000003333333333
#0293b0:23
#029380:0000001300230000
#0293b0:0053
#031380:13
#0313b0:00000000333323000000000000000000
#031350:00000013
#031320:00000000000000000000000000333333
#032320:23
#032380:0013
#0323b0:00000000000000000000333353333300
#033380:23
#034350:00000000000000130000000000000000
#034320:00000000000000000000333300333300
#035350:23
#036390:14
#037390:24
#036331:0014
#037331:24
#040391:0000001300000000
#043381:22
#040340:0000001300000000
#043360:22
#021980:00000013
#0219a0:000000000000000000000000000000000000000000000000000000000000000000000000000000000000000000000000000000000000000000000000000000000000000000000000000000000000000000000000000000000000000000000000000000000000000000000000000000000000000000000000000000000000000000000000000000000000000000000000000000000000000000000000000000000000000000000000000000000000000000000000000000000000000000000000000000000000000000000000000000000000000000000000000000000000000000000000000000000000000000000000000000000000000000000000000000000000000000000000000000000000000000000000000000000000000000000000000000000000000000000000000000000000000000000000000000000000000000000000000000000000000000000000000000000000000000000000000000000000000000000000000000000000000000000000000000000000000000000000000000000000000000000000000000000000000000000000000000000000000000000000000000000000000000000000000000000000000000000000000000000000000000000000000000000000000000000000000000000000000000000000000000000000000000000000000000000000000000000000000000000000000000000000000000000000000000000000000000000000000000000000000000000000000000000000000000000000000000000000000000000000000000000000000000000000000000000000000000000000000000000000000000000000000000000000000000000000000000000000000000000000000000000000000000000000000000000000000000000000000000000000000000000000000000000000000000000000000000000000000000000000000000000000000000000000000000000000000000000000000000000000000000000000000000000000000000000000000000000000000000000000000000000000000000000000000000000000000000000000000000000000000000000000000000000000000000000000000000000000000000000000000000000000000000000000000000000000000000000000000000005353230000000000000000000000000000000000000000000000000000000000000000000000000000000000000000000000000000000000000000000000000000000000000000000000000000000000000000000000000000000000000000000000000000000000000000000000000000000000000000000000
#022950:000000000000000000000000000000000000000000000000000000000000000000000000000000000000000000000000000000000000000000000000000000000000000000000000000000000000000000000000000000000000000000000000000000000000000000000000000000000000000000000000000000000000000000000000000000000000000000000000000000000000000000000000000000000000000000000000000000000000000000000000000000000000000000000000000000000000000000000000000000000000000000000000000000000000000000000000000000000000000000000000130000000000000000000000000000000000000000000000000000000000000000000000000000000000000000000000000000000000000000000000000000000000000000000000000000000000000000000000000000000000000000000000000000000000000000000000000000000000000000000000000000000000000000000000000000000000000000000000000000000000000000000000000000000000000000000000000000000000000000000000000000000000000000000000000000000000000000000000000000000000000000000000000000000000000000000000000000000000000000000000000000000000000000000000000000000000000000000000000000000000000000000000000000000000000000000000000000000000000000000000000000000000000000000000000000000000000000000000000000000000000000000000000000000000000000000000000000000000000000000000000000000000000000000000000000000000000000000000000000000000000000000000000000000000000000000000000000000000000000000000000000000000000000000000000000000000000000000000000000000000000000000000000000000000000000000000000000000000000053535353230000000000000000000000000000000000000000000000000000000000000000000000000000000000000000000000000000000000000000000000000000000000000000000000000000000000000000000000000000000000000000000000000000000000000000000000000000000000000000000000000000000000000000000000000000000000000000000000000000000000000000000000000000000000000000000000000000000000000000000000000000000000000000000000000000000000000000000000000000000000000000000000000000000000000000000000000000000000000000000000000000000000000000000000000000000000000000000000000000000000000000000000000000000000000000000000000000000000000000000000000000000000000000000000000000000000000000000000000000000000000000000000000000000000000000000000000000000000000000000000000000000000000000000000000000000000000000000000000000000000000000000000000000000000000000000000000000000000000000000000000000000000000000000000000000000000000000000000000000000000000000000000000000000000000000000000000000000000000000000000000000000000000000000000000000000000000000000000000000000000000000000000000000000000000000000000000000000000000000000000000000000000000000000000000000000000000000000000000000000000000000000000000000000000000000000000000000000000000000000000000000000000000000000000000000000000000000000000000000000000000000000000000000000000000000000000000000000000000000000000000000000000000000000000000000000000000000000000000000000000000000000000000000000000000000000000000000000000000000000000000000000000000000000000000000000000000000000000000000000000000000000000000000000000000000000000000000000000000000000000000000000000000000000000000000000000000000000000000000000000000000000000000000000000000000000000000000000000000000000000000000000000000000000000000000000000000000000000000000000000000000000000000000000000000000000000000000000000000000000000000000000000000000000000000000000000000000000000000000000000000000000000000000000000000000000000000000000000000000000000000000000000000000000000000000000000000000000000000000000000000000000000000000000000000000000000000000000000000000000000000000000000000000000000000000000000000000000000000000000000000000000000000000000000000000000000000000000000000000000000000000000000000000000000000000000000000000000000000000000000000000000000000000000000000000000000000000000000000000000000000000000000000000000000000000000000000000000000000000000000000000000000000000000000000000000000000000000000000000000000
#022930:00530000
#023920:00000013
#023950:000000000000000000000000000000000000000000000000000000000000000000000000000000000000000000000000000000000000000000000000000000000000000000000000000000000000000000000000000000000000000000000000000000000000000000000000000000000000000000000000000000000000000000000000000000000000000000000000000000000000000000000000000000000000000000000000000000000000000000000000000000000000000000000000000000000000000000000000000000000000000000000000000000000000000000000000000000000000000000000000000000000000000000000000000000000000000000000000000000000000000000000000000000000000000000000000000000000000000000000000000000000000000000000000000000000000000000000000000000000000000000000000000000000000000000000000000000000000000000000000000000000000000000000000000000000000000000000000000000000000000000000000000000000000000000000000000000000000000000000000000000000000000000000000000000000000000000000000000000000000000000000000000000000000000000000000000000000000000000000000000000000000000000000000000000000000000000000000000000000000000000000000000000000000000000000000000000000000000000000000000000000000000000000000000000000000000000000000000000000000000000000000000000000000000000000000000000000000000000000000000000000000000000000000000000000000000000000000000000000000000000000000000000000000000000000000000000000000000000000000000000000000000000000000000000000000000000000000000000000000000000000000000000000000000000000000000000000000000000000000000000000000000000000000000000000000000000000000000000000000000000000000000000000000000000000000000000000000000000000000000000000000000000000000000000000000000000000000000000000000000000000000000000000000000000000000000000000000000000000000000000000000000000000000000000000000000000000000000000000000000000000000000000000000000000000000000000000000000000000000000000000000000000000000000000000000000000000000000000000000000000000000000000000000000000000000000000000000000000000000000000000000000000000000000000000000000000000000000000000000000000000000000000000000000000000000000000000000000000000000000000000000000000000000000000000000000000000000000000000000000000000000000000000000000000000000000000000000000000000000000000000000000000000000000000000000000000000000000000000000000000000000000000000000000000000000000000000000000000000000000000000000000000000000000000000000000000000000000000000000000000000000000000000000000000000000000000000000000000000000000000000000000000000000000000000000000000000000000000000000000000000000000000000000000000000000000000000000000000000000000000000000000000000000000000000000000000000000000000000000000000000000000000000000000000000000000000000000000000000000000000000000000000000000000000000000000000000000000000000000000000000000000000000000000000000000000000000000000000000000000000000000000000000000000000000000000000000000000000000000000000000000000000000000000000000000000000000000000000000000000000000000000000000000000000000000000000000000000000000000000000000000000000000000000000000000000000000000000000000000000000000000000000000000000000000000000000000000000000000000000000000000000000000000000000000000000000000000000000000000000000000000000000000000000000000000000000000000000000000000000000000000000000000000000000000000000000000000000000000000000000000000000000000000000000000000000000000000000000000000000000000000000000000000000000000000000000000000000000000000000000000000000000000000000000000000000000000000000000000000000000000000000000000000000000000000000000000000000000000000000000000000000000000000000000000000000000000000000000000000000000000000000000000000000000000000000000000000000000005353230000000000000000000000000000000000000000000000000000000000000000000000000000000000000000000000000000000000000000000000000000000000000000000000000000000000000000000000000000000000000000000000000000000000000000000000000000000000000000000000
#0249b0:00000000001300000000000000000000
#024980:000000000000000000000000000000000000000000000000000000000000000000000000000000000000000000000000000000000000000000000000000000000000000000000000000000000000000000000000000000000000000000000000000000000000000000000000000000000000000000000000000000000000000000000000000000000000000000000000000000000000000000000000000000000000000000000000000000000000000000000000000000000000000000000000000000000000000000000000000000000000000000000000000000000000000000000000000000000000000000000000000000000000000000000000000000000000000000000000000000000000000000000000000000000000000000000000000000000000000000000000000000000000000000000000000000000000000000000000000000000000000000000000000000000000000000000000000000000000000000000000000000000000000000000000000000000000000000000000000000000000000000000000000000000000000000000000000000000000000000000000000000000000000000000000000000000000000000000000000000000000000000000000000000000000000000000000000000000000000000000000000000000000000000000000000000000000000000000000000000000000000000000000000000000000000000000000000000000000000000000000000000000000000000000000000000000000000000000000000000000000000000000000000000000000000000000000000000000000000000000000000000000000000000000000000000000000000000000000000000000000000000000000000000000000000000000000000000000000000000000000000000000000000000000000000000000000000000000000000000000000000000000000000000000000000000000000000000000000000000000000000000000000000000000000000000000000000000000000000000000000000000000000000000000000000000000000000000000000000000000000000000000000000000000000000000000000000000000000000000000000000000000000000000000000000000000000000000000000000000000000000000000000000000000000000000000000000000000000000000000000000000000000000000000000000000000000000000000000000000000000000000000000000000000000000000000000000000000000000000000000000000000000000000000000000000000000000000000000000000005353230000000000000000000000000000000000000000000000000000000000000000000000000000000000000000000000000000000000000000000000000000000000000000000000000000000000000000000000000000000000000000000000000000000000000000000000000000000000000000000000000000000000000000000000000000000000000000000000000000000000000000000000000000000000000000000000000000000000000000000000000000000000000000000000000000000000000000000000000000000000000000000000000000000000000000000000000000000000000000000000000000000000000000000000000000000000000000000000000000000000000000000000000000000000000000000000000000000000000000000000000000000000000000000000000000000000000000000000000000000000000000000000000000000000000000000000000000000000000000000000000000000000000000000000000000000000000000000000000000000000000000000000000000000000000000000000000000000000000000000000000000000000000000000000000000000000000000000000000000000000000000000000000000000000000000000000000000000000000000000000000000000000000000000000000000000000000000000000000000000000000000000000000000000000000000000000000000000000000000000000000000000000000000000000000000000000000000000000000000000000000000000000000000000000000000000000000000000000000000000000000000000000000000000000000000000000000000000000000000000000000000000000000000000000000000000000000000000000000000000000000000000000000000000000000000000000000000000000000000000000000000000000000000000000000000000000000000000000000000000000000000000000000000000000000000000000000000000000000000000000000000000000000000000000000000000000000000000000000000000000000000000000000000000000000000000000000000000000000000000000000000000000000000000000000000000000000000000000000000000000000000000000000000000000000000000000000000000000000000000000000000000000000000000000000000000000000000000000000000000000000000000000000000000000000000000000000000000000000000000000000000000000000000000000000000000000000000000000000000000000
