This file was generated by Ched 2.7.0.0.
#TITLE ""
#ARTIST ""
#DESIGNER ""
#DIFFICULTY 0
#PLAYLEVEL
#SONGID ""
#WAVE ""
#WAVEOFFSET 0
#JACKET ""
#REQUEST "ticks_per_beat 480"
#00002: 4
#BPM01: 83
#00008: 01
#TIL00: ""
#VOLUME: ""
#HISPEED 00
#MEASUREHS 00
#00818:0014
#00812:24
#00810:41
#00914:14
#0091a:0014
#01012:14
#01018:0014
#01112:0000001400000000
#01114:14
#0121a:1400001400000000
#01314:1400001400000000
#01418:1400001400000000
#01410:41
#01512:1400001400000000
#0221a:14
#02214:0014
#02318:14
#02312:0014
#02514:0014
#02614:00140014
#02618:2614
#0261f:21
#02610:0041
#02812:14
#02818:00140014
#02814:0014
#03014:00140000
#03018:26001414
#03112:14
#03118:00140000
#03114:00001414
#03314:0014
#03318:00000014
#03518:0014
#03514:00000014
#03712:14
#03718:0014
#03710:41
#03814:14
#0381a:0014
#0201f:11
#0361a:24
#03210:41
#00310:41
#0431b:53
#00758:0000001400000000
#00852:14
#01152:0000006400000000
#01154:64
#01858:0000001400000000
#01952:0000001400000000
#0165a:0000001400000000
#01754:0000001400000000
#02558:14
#02554:0014
#02658:16
#0275a:0014
#02952:0014
#0335a:14
#03552:14
#0013a0:1400003400002400
#002340:1400003400002400
#003380:1400003400002400
#004320:1400003400002400
#0053a0:14
#005380:0000003400002400
#006320:14
#006340:0000003400002400
#007380:1400002400000000
#011340:14000024
#011320:0000003400000000
#0163a0:1400002400000000
#017340:1400002400000000
#018380:1400002400000000
#019320:1400002400000000
#020380:14
#021380:24
#0243a0:14
#024390:0034
#025380:24
#0273a0:14342400
#029320:14342400
#0323a0:14
#032390:00340034
#032380:0034
#0333a0:24
#034320:14
#034330:00340034
#034340:0034
#035320:24
#0363a0:1424
#036321:1424
#039341:1424
#040381:1434343400000000
#0433b1:23
