This file was generated by Ched 2.7.0.0.
#TITLE ""
#ARTIST ""
#DESIGNER ""
#DIFFICULTY 0
#PLAYLEVEL
#SONGID ""
#WAVE ""
#WAVEOFFSET 0
#JACKET ""
#REQUEST "ticks_per_beat 480"
#00002: 4
#BPM01: 138
#00008: 01
#TIL00: ""
#VOLUME: ""
#HISPEED 00
#MEASUREHS 00
#0001b:13
#00018:0000130013001313
#00015:00000000000000000000000000130013
#00012:13
#00118:1300130013001313
#00215:0000130013001313
#00218:00000000000000000000000000130013
#00212:13
#0021b:13
#00315:1300130013001313
#00412:13
#0041b:13
#00418:0000130013001313
#00415:00000000000000000000000000130013
#0081b:00000000001300000000000000000000
#00815:00000000000013000000000000000013
#00818:00000000000000130000001300001300
#00812:00000000000000000000000000130000
#00810:41
#00915:00000013000013000000000000001300
#0091b:00000000001300000000000000000013
#00912:00000000000000000000001300000000
#00918:00000000000000130000130000000000
#01015:00000000001300000000001300000000
#0101b:00000000000013000000000000000013
#01012:00000000000000130000000000001300
#01018:00000013000000000000000000130000
#01118:00000013001300000000000000000000
#01115:0000001300000013
#0111b:00000000000000130000000000000013
#01113:0000000000130000
#01119:00000000000000000000001300000000
#01112:0013
#0111a:00000000000000000013000000130000
#01114:00000013
#01614:0014000000000013
#01616:00140013
#01618:0000001400000000
#0161a:0014
#0161b:00000013
#01612:24
#0171b:0013
#01718:0000000000130000
#01715:00000013
#01712:1300000000000013
#01717:13
#01719:00130000
#01714:00130000
#01716:0013
#01818:0014000000001300
#01815:0000000000000013
#0181a:14
#01816:00140000
#01814:0000001400000000
#01812:0014
#01810:41
#01918:13130013
#0191b:0000001300130000
#01915:1300000013000013
#01912:0013000000130000
#02415:0013001300000000
#02412:24131300
#0241b:00001313
#02419:0000000000000013
#02418:00130000
#02416:00000013
#02414:0000000000000013
#02517:13
#0251b:00131313
#02518:0000000000130000
#02515:0000000000000013
#02512:13000013
#02516:00130000
#02612:1313
#02618:0013001300000013
#02615:00130013
#0261b:1313
#03015:0013001300001300
#03018:0000130000000013
#0301b:1313
#03012:1313
#03216:00140000
#03212:2414
#03215:00000013
#03214:0014001400000000
#0321b:0013
#03218:0000000000000013
#03415:00130013
#03412:1313
#0341b:1313
#03418:0013001300000013
#03512:1333000013001300
#03518:0000133300000000
#03516:0000000000140000
#0351b:13000013
#0401b:00131313
#04012:13131300
#04016:00000013
#04015:0013000000000000
#04018:0000001300000000
#04019:0000000000000013
#04014:0000000000000013
#0401a:24
#04216:13001313
#0421b:13131313
#04214:0013001300000013
#04212:00130000
#04219:0000000000000013
#04412:13131313
#0441b:13131300
#04417:00000013
#04416:0014001400000000
#04419:0000000000000013
#04414:0000000000000013
#0451b:13131313
#04516:0014001400001300
#04519:0000000000000013
#04512:13131300
#04514:0000000000000013
#04612:1313
#04617:1313
#04614:0013000000000000
#0461b:00130000
#04616:00130000
#04619:0000001300000000
#04615:0000000000001313
#04618:00000000000000000000000000130013
#04715:13000000000000000000000000130013
#04718:0000000000001313
#0471f:0011
#0641b:13
#06418:00001200001200120000000000005252
#06416:00000000120000000000525200000000
#06414:00000000000000000012000000000000
#0641a:00000000000000000000000000120000
#06412:13
#0651a:00000000005200000000120000000012
#06518:00000000000000520000000012000000
#06516:00000000520000000000000000120000
#06514:00005200000000000000120000000012
#06513:00120000000000000000000000000000
#0651b:00120000
#06515:00000052000000000000000000000000
#06519:0000005200000000
#06517:0052
#06712:00000000000000000000001200000000
#06716:0000000012000012
#0671a:12
#06714:00000012000000000000000000000000
#06718:0000001200000000
#06719:00520000000000000000000000000000
#06715:00520000
#0681a:0000000000120000
#06818:00120000000012000000000012001200
#06816:00001200120000001200000000000012
#0681c:00121200
#06814:0000000000120000
#06812:0000001200001200
#0691c:0012
#0691a:12520000000000000000120000001200
#06918:00000012
#06914:00000000125200000000120000000000
#06916:0012
#06912:00000012
#06910:41
#06919:00000000000000000000000000000052
#07216:0012001200000000
#07218:0000120012000012
#07214:12000012
#07219:52
#07318:00000012
#0731a:0000000000000000000000000052000000000000000000000000000012000000
#07319:0000005200000000
#0731b:00000000000000520000000000000000
#0731c:0000000000000000000000000000005200000000000000000000000000000000
#0741c:12
#0741a:0012000000001200
#07418:00120000
#07416:0000001200000012
#07512:00120000
#0751c:0012
#07514:00000012
#0751b:00000000000000000052000000000000
#0751a:0000000000520000
#07519:00000000000000000000005200000000
#07518:00000052
#07515:00000000000000000000000000520000
#07516:0000000000000052
#0761a:12
#07618:0012001200000012
#07616:00121212
#07716:0012001200001200
#07718:0000120012000012
#07714:12
#0781a:12
#07818:0012000000000012
#07816:00120000
#07814:0000001200001200
#07812:0012
#07916:12
#0791a:00001200000000120000000000520000
#07912:00121200
#07918:00000000001200000000000012000000
#07914:00000000000012000052000000000000
#07913:0000000000000000000000000000000000520000000000000000000000000000
#07915:0000000000000000000000000000000000000052000000000000000000000000
#07919:0000000000000000000000000000000000000000000000000052000000000000
#0791b:0000000000000000000000000000000000000000000000000000005200000000
#00518:1300130013001313
#00612:13
#00615:0000130013001313
#00618:00000000000000000000000000130013
#0061b:13
#00715:13131300
#0071b:00000023
#00712:00000023
#01212:00000000001300000000000000000000
#01218:00000013000013000000000000000013
#01215:00000000000000130000001300001300
#0121b:00000000000000000000000000130000
#01318:00000013000013000000000000001300
#01312:00000000001300000000000000000013
#0131b:00000000000000000000001300000000
#01315:00000000000000130000130000000000
#01418:00000000001300000000001300000000
#01412:00000000000013000000000000000013
#0141b:00000000000000130000000000001300
#01415:00000013000000000000000000130000
#0201a:14
#02018:0014000000000000
#02016:00140000
#02014:0000001400000000
#02012:13001413
#02019:0000000000000013
#02017:00000013
#02112:0013
#02115:0000000000130000
#02118:00000013
#0211b:1300000000000013
#02116:13
#02114:00130000
#02119:00130000
#02117:0013
#02212:14000013
#02214:0014000000000000
#02216:0000140000000013
#02218:0000001400000000
#0221a:0014
#02217:00000013
#0221b:0000000000000013
#02312:13002424
#02317:13
#02316:000000130000002400002400
#0231b:00130000
#0231a:000000000000000024000024
#07012:1212
#0701c:00120012
#07013:0052000000000000000000520000000000000000
#07014:00520000000052000000
#07015:0000005200000000000000000052000000000000
#07016:00005200000000520000
#07017:00525252
#0701b:00000052000000005200
#0701a:0000000000000052000000000000000000520000
#07019:00000000520000000052
#07018:5200000000000000005200000000000000000052
#02715:13130013
#02712:0000001300130000
#02718:1300000013000013
#0271b:0013000000130000
#0281b:13131300
#02818:0013001300000000
#02812:13001313
#02814:0000000000000013
#02815:00130000
#02817:00000013
#02819:0000000000000013
#02810:41
#02916:13
#02912:00131313
#02915:0000000000130000
#02918:0000000000000013
#0291b:13000013
#02917:00130000
#0311a:140000240000002400002400
#03112:24142424
#03116:000000000000000024000024
#03316:00140000
#0331a:1414
#03318:0014001400001300
#03312:1313
#03315:0000000000000013
#03616:00140000
#0361a:1414
#03618:0014001400001300
#03612:1313
#03615:0000000000000013
#03818:00130013
#0381b:1313
#03812:1313
#03815:0013001300000013
#03810:41
#0391b:1333000000000000
#03915:0000133300000000
#03912:130000000000000024000024
#0391a:00002424
#03916:000000000000002400002400
#03716:00140000
#03712:1414
#03715:00000013
#03714:0014001400000000
#0371b:1313
#03718:0000000000000013
#0411b:13131300
#04112:13131313
#04118:0013000000000000
#04115:0000001300000000
#04117:00000013
#04114:0000000000000013
#04119:0000000000000013
#04317:13002323
#04312:13131313
#04319:0013001300000000
#0431b:0000130000230000
#04814:00130013
#04812:0013
#0481b:13
#04817:0013
#04919:00130013
#0491b:0013
#04912:13
#04916:0013
#05014:00130013
#05012:0013
#0501b:13
#05017:0013
#05119:00130013
#0511b:0013
#05112:13
#05116:0013
#05212:00130000
#0521b:00000013
#05315:00130000
#05318:00000013
#05412:00130000
#05418:00000013
#05515:00130000
#05513:000000000000242424000000
#05519:000000000000000000242424
#05616:0014000000001400
#0561a:0000001400000014
#05612:24242424
#0561f:21
#05718:0014000000000000
#05716:0000001400000000
#0571a:0000000000001414
#05712:24242424
#05710:41
#05816:0014000000001414
#0581a:0000001400000000
#05812:24242424
#05918:0014000000000000
#0591a:0000001400001400
#05916:0000000000000014
#05912:24242424
#06016:0014000000001400
#06012:0000001400000014
#0601a:24242424
#06114:0014000000000000
#06116:0000001400001414
#0611a:24242424
#06212:0014000000140000
#06216:0000001400000014
#0621a:24242424
#0631b:1323
#06318:0013000000000000
#06315:00130000
#06312:0000001300002300
#06316:00002424
#06618:00120000000012000000000000000000
#06614:00000000001200000000000000000000
#06616:00000000000000120000000000001200
#06612:00000012
#06619:0052000000000000
#07112:12
#07113:0052000000120000000000000000000000000000
#07114:00520052001200000000
#07115:0000000000000052000000520000001200000000
#07117:5200000000000000000000000000000000520000
#0711b:0000000000520000520000000000005200005200
#0711a:0000000052000000005200000000520000000052
#0711c:0000000000000052000000000000000000520000
#07119:0000005200000000000052000052000000000000
#07116:0000005252
#07118:00520000000052000000
#01518:00000000001300130000000000000000
#01515:00000013000013000000000000000000
#01512:000000242400
#01516:000000000000002400002400
#0151a:000000000000000000240024
#08017:22
#00052:13
#00452:13
#0065b:13
#0025b:13
#0165a:0014
#01752:13
#01852:0014
#01955:5353
#01952:0023000000230000
#01958:00630000
#0195b:0000002300000000
#02052:0014
#0215b:13
#0225a:0014
#02352:13
#0235b:00130000
#0245b:0013
#02452:0013
#02552:53
#02556:00230000
#02557:13
#02758:6363
#0275b:0023000000230000
#02755:00530000
#02752:0000002300000000
#0285b:0013
#02852:0013
#0295b:63
#02957:00230000
#02956:13
#0305b:0053
#03152:14
#0315a:00140000
#0325b:0053
#03252:0014
#0335a:0014
#03352:0063
#03452:0013
#03552:53
#03558:00530000
#0365a:0014
#03652:0063
#0385b:0013
#0395b:63
#03955:00630000
#03752:0014
#0375b:0053
#04052:00130000
#0405b:0013
#0405a:14
#04152:1313
#0415b:00130000
#0425b:13131300
#04352:13131300
#0445b:1313
#04452:00130000
#04552:1313
#0455b:00130000
#04657:1313
#04656:00130000
#04755:13
#0485b:53
#04857:0023
#04952:63
#04956:0023
#0505b:53
#05057:0023
#05152:63
#05156:0023
#05652:14141414
#05752:14141414
#05852:14141414
#05952:14141414
#0605a:14141414
#0615a:14141414
#0625a:14141414
#0635b:0013
#06352:00000013
#08057:12
#02652:0013
#0083b0:13000023000000000000000000000000
#008321:13000023000000000000000000000000
#008321:00000000000000001300002300000000
#0093b1:13000023000000000000000000000000
#009321:0000000013230000
#0093b1:0000000000001323
#010351:13000023000000000000000000000000
#010381:00000000000000001300002300000000
#011351:13000023000000000000000000000000
#012321:13000023000000000000000000000000
#0123b1:00000000000000001300002300000000
#013321:13000023000000000000000000000000
#0133b1:0000000013230000
#013321:0000000000001323
#014381:13000023000000000000000000000000
#014351:00000000000000001300002300000000
#015381:13000023000000000000000000000000
#019351:13230000
#019321:0033000000000000
#019380:00132300
#0193b0:0000003300000000
#019351:00001323
#019321:0000000000330000
#025321:1323
#025361:00330000
#027381:13230000
#0273b1:0033000000000000
#027350:00132300
#027320:0000003300000000
#027381:00001323
#0273b1:0000000000330000
#0293b1:1323
#029371:00330000
#0303b1:0013
#030381:00000023
#0323b1:0013
#032381:00000023
#033321:0013
#033351:00000023
#035321:1333000000000000
#035351:00230000
#035380:0000133300000000
#0353b0:0023
#036320:0013
#036350:00000023
#0373b0:0013
#037380:00000023
#0393b0:1333000000000000
#039380:00230000
#039351:0000133300000000
#039321:0023
#0483b1:13
#048371:0053
#0493b1:23
#049320:13
#049360:0053
#050320:23
#0503b1:13
#050371:0053
#0513b1:23
#051320:13
#051360:0053
#052320:23
#0523b1:13
#052381:0023
#052350:0013
#053320:23
#053381:13
#0533b1:0023
#053320:0013
#054350:23
#054381:13
#0543b1:0023
#054350:0013
#055320:23
#0553b1:13
#055381:0023
#0663a1:00001222
#0673c1:0000000012000022
#067381:00000000000000000000003200000000
#073341:12000022
#074341:00001222
#075381:12220000
#064940:00000000000000000012000000000000
#064960:00000000000000000000522200000000
#0649a0:00000000000000000000000000120000
#064980:00000000000000000000000000005222
#065930:00120000000000000000000000000000
#065960:00220000
#0659b1:00120000
#065971:0022
#066981:00120000000000000000000000000000
#066991:0022000000000000
#0679a1:12
#067991:00220000000000000000000000000000
#067941:00000012000000000000000000000000
#067951:00220000
#0699a1:12220000000000000000000000000000
#069941:00000000122200000000000000000000
#0699a1:0000000000000012
#070981:22
#070920:12
#070970:00220000
#0709c1:00120000
#070971:0022
#070920:0012
#070970:00000022
#0709c1:00000012
#071971:22
#071920:12
#071940:00220000000000000000
#071981:00120000000000000000
#0719b1:00220000
#071930:00120000
#071950:0000000000000022000000000000000000000000
#0719c1:0000000000000012000000000000000000000000
#071991:0022
#071940:0012
#071960:0000002200
#071981:0000001200
#0719b1:00000022
#071950:00000012
#071970:0000000000000000000000000000000000220000
#0719c1:0000000000000000000000000000000000120000
#072991:22
#073991:0000001200000000
#0739c1:0000000000000000000000000000002200000000000000000000000000000000
#0759c1:0012
#075981:00000022
#075940:00000012
#075960:0000000000000022
#079920:0012
#079950:0000000000000000000000000000000000000022000000000000000000000000
#079980:00000012
#0799b0:0000000000000000000000000000000000000000000000000000002200000000
