This file was generated by Ched 2.7.0.0.
#TITLE ""
#ARTIST ""
#DESIGNER ""
#DIFFICULTY 0
#PLAYLEVEL
#SONGID ""
#WAVE ""
#WAVEOFFSET 0
#JACKET ""
#REQUEST "ticks_per_beat 480"
#00002: 4
#BPM01: 138
#00008: 01
#TIL00: "63'0:10000, 63'240:1, 47'0:10000, 47'960:1"
#VOLUME: ""
#HISPEED 00
#MEASUREHS 00
#00012:12121200
#00019:00130000
#00017:0013
#0001b:1300000000001313
#00016:00000000000000000000000000140014
#0011b:13000013
#00117:00130000
#00116:0000000000000014
#00119:0013
#00112:00121212
#0041b:1300000013001313
#00412:12121200
#00418:00130000
#00417:00000000000000000000000000140014
#00416:0012001200120000
#00812:13000000001300001300000000140000
#00818:0000001300000014
#00815:00000000000000130000000000000014
#00816:1414
#00810:41
#00912:13000000001400000000000000001300
#00916:14000000000000140000001400000014
#0091b:0000000013130000
#0091a:0000001400000000
#0161a:0000001414001400
#01612:2414000000140000
#01616:0000000000001314
#03216:00000000140000000000001200001200
#03212:2414
#03214:0000001400000000
#0321a:14001414
#03218:00001400000000000000120000000012
#0321c:00120000
#0321b:0000001300000000
#03512:0000141414001400
#03515:0000000000130000
#0351a:1414000014001400
#03518:0000000000130000
#04012:0000001414001313
#04016:00000014
#04018:0000000000130014
#04015:0000000000130000
#0401a:2414000000000000
#0421a:14141400
#0421b:00000013
#04216:00000014
#04219:0000000000130013
#04214:0000000000130013
#04614:0000000000001414
#04618:16000000160000001600121200140014
#04612:16161600
#04615:0016001600000000
#0641a:14
#06418:00001200001200120000121200000000
#06416:00000000120000000000000000120000
#06412:14000000000000000012000000000000
#0641c:00000000000000000000000000001212
#06414:00000000000000120000000000000000
#06518:0012000000120000
#0651c:00000000000000000000000012000012
#06516:00000000001200120000000000120012
#06513:00120012000000000000000000000000
#0651b:0000121212000000
#06512:0000000000120000
#0671c:00000012120000000000000000001200
#06712:12120000000000000000000000000000
#06718:00120000000012000000000000000000
#0681a:0000120000120000
#06818:00121200001200000000000012001200
#06812:00121200000000000000000012000000
#06816:00000000000012000000000000000012
#06814:00000000000000120000120000000000
#0681c:0012
#0691c:0012
#0691a:12120000121200000000120000000000
#06918:00000000000000000000000012001212
#06914:00000000121200000000120000000000
#06916:0012
#06912:00000012
#06910:41
#07215:0012001200000000
#07218:00121200
#07216:00000012
#07219:0000000000000012
#07212:1212
#0721c:52
#07318:00000000000000520000000012000000
#0731a:0000000000000012
#07316:1200005200000000
#07317:0000000000000000000000000052000000000000000000000000000000000000
#07319:0000000000000000000000000000005200000000000000000000000000000000
#0741c:12
#0741a:0012000000001200
#07418:0000120000000012
#07416:1200001200000000
#07414:0012000000000000
#07412:00120000
#0761c:12
#0761a:0012000000000012
#07618:00121212
#07616:0000001200000000
#07612:12000000520000005200000052525252
#07718:00121212
#0771a:0012000000000012
#0771c:12
#07716:0000001200000000
#07712:5200520052005252
#0781c:12
#0781a:0012000000001200
#07818:0000120012000012
#07816:0000001200000000
#07812:52000000520000005200000052525252
#0791a:1200000000000000000000000000000000000052000000000052000000000000
#07918:0000000012000000000000000000000000520000000000000000000000000000
#07914:00000000001200000000000000000000
#07912:520000000000000000000000000000000000000000120000240000002400000024000000240000002400000024000000
#07919:00000000000012000052000012000000
#07917:0012
#0791b:00000000120000000000000000520000
#0791c:0000000000000000000000000000000000000000000000000000005200000000
#0051b:13130013
#00518:0000000013000013
#00516:0012001200120000
#00515:0000000000000013
#00512:00121212
#02312:142c002c24001400
#0231a:00141424
#02317:13
#02316:00130000
#02319:000000000000001400002400
#02318:000000000000000014000024
#02313:000000000000002400001400
#02314:000000000000000024000014
#07012:12121212
#07014:0052000000005200000000520000000052000000
#07016:0000520000000052000000005200000000520000
#07018:0000005200000000520000000052000000005200
#0701a:0000000052000000005200000000520000000052
#0701c:00525252
#03118:160000260000141414000000
#03112:260000160000000000141414
#03114:000000000000242424000000
#0311a:000000000000000000242424
#04316:0000000000241400
#04312:1400140024000018
#0431a:00000024
#06618:00121200000000120000000000000000
#06614:00121200001200000000000000000000
#06616:0000001212000012
#06612:00000012
#0661c:0000000000000012
#07112:12
#07113:0052000000120000000000000000000000000000
#07114:00520052001200000000
#07115:0000000000000052000000520000001200000000
#07116:00520000000052005200
#07117:0000005200000052000000000000000000520000
#07118:0052525200
#07119:0000000000520000005200000052000000520000
#0711a:00000000005200520052
#0711b:0000000000000000000000000000005200000052
#0711c:52
#0021c:12121200
#00214:00130000
#00216:00000000000000001300000000140014
#00212:1300000000001313
#00312:13000013
#00316:0000130000000014
#00314:0013
#0031c:00121212
#01112:0000001413000000
#0111a:00000000001400000000000053000000
#01116:14000000000000140000530000005300
#0111b:13
#01114:00000000000000000053000000000053
#01118:00000000000000000000005300530000
#01216:1400000014000014
#0121b:00000000001300000000000000000000
#01218:00000000000013000000000000140000
#01215:00000000000000130000000000000000
#01214:00000000000000000000000000000014
#01212:5313
#01312:1300000000000013
#01316:14000000000000000000001400000014
#0131b:0000000013130000
#01317:00000000001414000000000000000000
#01314:00000000000000140000000000000000
#0151a:000000000000141414000000
#01514:000000000000000000141414
#01515:00000000001414000000000000000000
#01518:000000000000000000000000000000000000000000140000000000000000000000000000240000002400000024000000
#01516:14
#0151b:13
#01512:000000000000242424000000
#01416:1400000014000014
#0141b:1313
#01412:00000000001300000000000000000000
#01415:0000001300000000
#01418:00000000000000130000000000000014
#01414:00000000000000000000000000140000
#01913:14000000140000001414141414141414
#01916:000000000000000000000000000000000000000000000000000000000000000000000000000000000000000000000000000000000000000000000000000000000000000000000000000000000000000000000000000000000000000000000000000000000000000000000000000000000000000000000000000000000000000000000000000000000000000000000000000000000000000000000000000000000000000000000000000000000000000000000000000000000000000000000000000000000000000000000000000000000000000000000000000000000000000000000000000000000000000000000000141400000000000000000000000000000000000000000000000000000000000000000000000000000000000000000000000000000000000000000000000000000000000000000000000000000000000000000000000000000000000000000000000000000000000000000000000000000000000000000000000000000000000000000000000000000000000000000000000000000000000000000000000000000000000000000000000000000000000000000000000000000000000000000000000000000000000000000000000000000000000000000000000000000000000000000000000000000000000000000000000000000000000000000000000000000000000000000000000000000000000000000000000000000000000000000000000000000000000000000000000000000000000000000000000000000000000000000000000000000000000000000000000000000000000000000000000000000000000000000000000000000000000000000000000000000000000000000000000000000000000000000000000000000000000000000000000000000000000000000000000000000000000000000000000000000000000000000000000000000000000000000000000000000000000000000000000000000000000000000000141400000000000000000000000000000000000000000000000000000000000000000000000000000000000000000000000000000000000000000000000000000000000000000000000000000000000000000000000000000000000000000000000000000000000000000000000000000000000000000000000000000000000000000000000000000000000000000000000000000000000000000000000000000000000000000000000000000000000000000000000000000000000000000000000000000000000000000000000000000000000000000000000000000000000000000000000000000000000000000000000000000000000000000000000000000000000000000000000000000000000000000000000000000000000000000000000000000000000000000000141400000000000000000000000000000000000000000000000000000000000000000000000000000000000000000000000000000000000000000000000000000000000000000000000000000000000000000000000000000000000000000000000000000000000000000000000000000000000000000000141400000000000000000000000000000000000000000000000000000000000000000000000000000000000000000000000000000000000000000000000000000000000000000000000000000000000000000000000000000000000000000000000000000000000000000000000000000000000000000000141400000000000000000000000000000000000000000000000000000000000000000000000000000000000000000000000000000000000000000000000000000000000000000000000000000000000000000000000000000000000000000000000000000000000000000000000000000000000000000000141400000000000000000000000000000000000000000000000000000000000000000000000000000000000000000000000000000000000000000000000000000000000000000000000000000000000000000000000000000000000000000000000000000000000000000000000000000000000000000000141400000000000000000000000000000000000000000000000000000000000000000000000000000000000000000000000000000000000000000000000000000000000000000000000000000000000000000000000000000000000000000000000000000000000000000000000000000000000000000000141400000000000000000000000000000000000000000000000000000000000000000000000000000000000000000000000000000000000000000000000000000000000000000000000000000000000000000000000000000000000000000000000000000000000000000000000000000000000000000000141400000000000000000000000000000000000000000000000000000000000000000000000000000000000000000000000000000000000000000000000000000000000000000000000000000000000000000000000000000000000000000000000000000000000000000000000000000000000000000000141400000000000000000000000000000000000000000000000000000000000000000000000000000000000000000000000000000000000000000000
#01919:14000000140000001414141414141414
#01712:1400001300000000
#01717:13
#0171b:0013000000000000
#01715:00130000
#01716:0014001400140014
#01812:00001814
#0181a:1400000000140000
#01816:0014001400000014
#01817:00000013
#01810:41
#02012:0014001414001400
#0201a:0014000000140000
#02016:0000140000000014
#02017:00000013
#0211a:14
#02116:1314001400140014
#02112:0013000000000000
#02118:00130000
#0211b:0000001300000000
#02216:0014001418001314
#02212:1400000000140000
#0221a:00000014
#02918:00000000000000121200130000001300
#0291b:00000013
#02915:00000000000000000000001300001300
#02912:00140013
#0291a:1400001214000000
#02917:12
#02914:0012000000000000
#02916:00000012120000000000000000000000
#03012:16001313
#0301b:13000000001300000013000000000013
#03018:00130013000013000000001300130000
#03015:00001300160000130000130000001300
#03418:00000000000014000000001200001200
#03412:1400121314001400
#0341a:1414
#03414:0014000000000000
#03416:00000000140000000000120000000012
#0331a:1414
#03316:0000140000120014
#03318:00000000000014000000001200000000
#03312:1400121314001400
#03314:0014000000000000
#03612:1414
#03616:00000000140000000000121200001200
#03614:0014001400000000
#0361a:1414
#03618:00001400000014000000000014000012
#0371a:1414
#03716:00000000140000000000000000000012
#03718:00001400000014000000121200001200
#03712:1414
#03714:0014001400001400
#0381a:1414
#03816:00000000140000000000000000000012
#03818:00001400000014000000121200001200
#03812:1414
#03814:0014001400001400
#03810:41
#03912:14001424
#03916:00140000
#03914:000000140000000000140000000000001400000000002400
#0391a:14002414
#03918:000000140000000000140000000000002400000000001400
#03913:000000000000001400002400
#03919:000000000000002400001400
#0411a:0000001414000000
#04116:00000014
#0411b:0000000000001313
#04114:0000000000000014
#04112:1414000000000000
#04118:0000000000130000
#04115:0000000000130000
#04412:1600140016000018
#0441a:14001412
#04416:0014001400001400
#04418:0000160000120000
#04518:1616
#04512:14161400
#04516:0014001400121418
#0451a:00140000
#04514:00000012
#0481a:14
#04816:0014
#04812:1414
#04912:14
#04916:0014
#0491a:0014
#0501a:14
#05016:0014
#05012:0014
#05112:14
#05116:0014
#0511a:0014
#0521a:14
#05214:00140000
#05216:0014
#05212:0014
#05312:14
#05318:00140000
#05316:0014
#0531a:0014
#0541a:14
#05414:00140000
#05416:0014
#05412:0014
#05519:000000140000002400001400
#05513:000000140000001400002400
#05512:000000000000140000000024
#05514:000000000000000014240000
#05518:000000000000000024140000
#0551a:000000000000240000000014
#05618:16131616
#0561b:0013000000000000
#05615:0000001300000013
#05612:26262626
#0561f:21
#05718:13131616
#0571b:0013000000000013
#05715:0000001300000000
#05712:26262626
#05710:41
#05818:13001616
#05815:0013001300000013
#0581b:00130000
#05812:26262626
#05918:13131616
#0591b:0013000000000000
#05915:0000001300000016
#05912:26262626
#06012:1613000016001600
#06015:00130000
#06018:2600261326002613
#06115:13130000
#06112:0013000016001613
#06118:2600261326002600
#06215:1300000000160016
#06218:2613261326002600
#06212:00131616
#07516:12000000000000000000120000120000
#0751c:0012
#0751a:00000000000000000012000000000000
#07514:00000000000000000000001200001200
#07518:00000012
#00612:1300000013001313
#0061c:12121200
#00615:00000000130000000000000000140014
#00618:0012001200120000
#00712:1313002c
#00715:0013
#00718:0012001200000000
#0071c:00121200
#0241a:14141214
#02418:00001200000000120000000000000000
#02416:00000012000012000000000000000000
#02412:2414
#02419:0000000000120000
#02417:00000000000000000000001200000012
#02415:0000000000001212
#02414:00120000
#02512:14000000000000001400000000000013
#02519:12
#0251a:0012140000000000
#02518:00000012000000001200001300001300
#02516:00000000120000120000000000000000
#02514:0000001200000000
#0251b:0000000000131300
#02515:00000000000000000000000000130000
#02615:19
#0261a:0012000000000000
#02618:00000012000000001600121200000000
#02612:00160016
#02614:0000001200000000
#02616:00000000000000120000000000001212
#02718:16
#02712:00140000001400001400001400140000
#02716:00001400140000140014000014000014
#0271a:00000014000014000000140000001400
#02812:14140014
#02816:00001200000000121200000000000000
#02818:00000012120012000000000000000000
#0281a:0014
#02815:0000000000120000
#02817:00000000000000000000001212000012
#02819:0000000000000012
#02810:41
#0101b:13000000001300001300000000000000
#01015:0000001300000000
#01018:00000000000000130000000000000000
#01016:1414
#0101a:00000000000000000000000000140000
#01014:0000000000000014
#01017:00000000000000000000000000000014
#0471f:0011
#04712:0053
#0471b:007300000000000000000000000000000000000000000000000000000000000000000000000000000000000000000000000000000000000000000000000000000000000000000000000000000000000000000000000000000000000000000000000000000000000000000000000000000000000000000000000000000000000000000000000000000000000000000000000000000000000000000000000000000000000000000000000000000000000000000000000000000000000000000000000000000000000000000000000000000000000000000000000000000000000000000000000000000000000000000000000000000000000000000000000000000000000000000000000000000000000000000000000000000000000000000000000000000000000000000000000000000000000000000000000000000000000000000000000000000000000000000000000000000000000000000000000000000000000000000000000000000000000000000000000000000000000000000000000000000000000000000000000000000000000000000000000000000000000000000000000000000000000000000000000000000000000000000000000000000000000000000000000000000000000000000000000000000000000000000000000000000000000000000000000000000000000000000000000000000000000000000000000000000000000000000000000000000000000000000000000000000000000000000000000000000000000000000000000000000000000000000000000000000000000000000000000000000000000000000000000000000000000000000000000000000000000000000000000000000000000000000000000000000000000000000000000000000000000000000000000000000000000000000000000000000000000000000000000000000000000000000000000000000000000000000000000000000000000000000000000000000000000000000000000000000000000000000000000000000000000000000000000000000000000000000000000000000000000000000000000000000000000000000000000000000000000000000000000000000000000000000000000000000000000000000000000000000000000000000000000000000000000000000000000000000000000000000000000000000000000000000000000000000000000000000000000000000000000000000000000000000000000000000000000000000000000000000000000000000000000000000000000000000000000000000000000000000000000000000000000000000000000000000000000000000000000000000000000000000000000000000000000000000000000000000000000000000000000000000000000000000000000000000000000000000000000000000000000000000000000000000000000000000000000000000000000000000000000000000000000000000000000000000000000000000000000000000000000000000000000000000000000000000000000000000000000000000000000000000000000000000000000000000000000000000000000000000000000000000000000000000000000000000000000000000000000000000000000000000000000000000000000000000000000000000000000000000000000000000000000000000000000000000000000000000000000000000000000000000000000000000000000000000000000000000000000000000000000000000000000000000000000000000000000000000000000000000000000000000000000000000000000000000000000000000000000000000000000000000000000000000000000000000000000000000000000000000000000000000000000000000000000000000000000000000000000000000000000000000000000000000000000000000000000000000000000000000000000000000000000000000000000000000000000000000000000000000000000000000000000000000000000000000000000000000000000000000000000000000000000000000000000000000000000000000000000000000000000000000000000000000000000000000000000000000000000000000000000000000000000000000000000000000000000000000000000000000000000000000000000000000000000000000000000000000000000000000000000000000000000000000000000000000000000000000000000000000000000000000000000000000000000000000000000000000000000000000000000000000000000000000000000000000000000000000000000000000000000000000000000000000000000000000000000000000000000000000000000000000000000000000000000000000000000000000000000000000000000000000000000000000000000000000000000000000000000000000000000000000000000000000000000000000000000000000000000000000000000000000000000000000000000000000000000000000000000000000000000000000000000000000000000000000000000000000000000000000000000000000000000000000000000000000000000000000000000000000000000000000000
#08017:22
#08012:24
#06312:008c8c000000000000000000000000000000000000000000000000000000000000000000000000000000000000000000000000000000000000000000000000000000000000000000000000000000000000000000000000000000000000000000000000000000000000000000000000000000000000000000000000000000000000000000000000000000000000000000000000000000000000000000000000000000000000000000000000000000000000000000000000000000000000000000000000000000000000000000000000000000000000000000000000000000000000000000000000000000000000000000000000000000000000000000000000000000000000000000000000000000000000000000000000000000000000000000000000000000000000000000000000000000000000000000000000000000000000000000000000000000000000000000000000000000000000000000000000000000000000000000000000000000000000000000000000000000000000000000000000000000000000000000000000000000000000000000000000000000000000000000000000000000000000000000000000000000000000000000000000000000000000000000000000000000000000000000000000000000000000000000000000000000000000000000000000000000000000000000000000000000000000000000000000000000000000000000000000000000000000000000000000000000000000000000000000000000000000000000000000000000000000000000000000000000000000000000000000000000000000000000000000000000000000000000000000000000000000000000000000000000000000000000000000000000000000000000000000000000000000000000000000000000000000000000000000000000000000000000000000000000000000000000000000000000000000000000000000000000000000000000000000000000000000000000000000000000000000000000000000000000000000000000000000000000000000000000000000000000000000000000000000000000000000000000000000000000000000000000000000000000000000000000000000000000000000000000000000000000000000000000000000000000000000000000000000000000000000000000000000000000000000000000000000000000000000000000000000000000000000000000000000000000000000000000000000000000000000000000000000000000000000000000000000000000000000000000000000000000000000007c7c2c00000000000000000000000000000000000000000000000000000000000000000000000000000000000000000000000000000000000000000000000000000000000000000000000000000000000000000000000000000000000000000000000000000000000000000000000000000000000000000000000000000000000000000000000000000000000000000000000000000000000000000000000000000000000000000000000000000000000000000000000000000000000000000000000000000000000000000000000000000000000000000000000000000000000000000000000000000000000000000000000000000000000000000000000000000000000000000000000000000000000000000000000000000000000000000000000000000000000000000000000000000000000000000000000000000000000000000000000000000000000000000000000000000000000000000000000000000000000000000000000000000000000000000000000000000000000000000000000000000000000000000000000000000000000000000000000000000000000000000000000000000000000000000000000000000000000000000000000000000000000000000000000000000000000000000000000000000000000000000000002c0000000000000000000000000000000000000000000000000000000000000000000000000000000000000000000000000000000000000000000000000000000000000000000000000000000000000000000000000000000000000000000000000000000000000000000000000000000000000000000000000000000000000000000000000000000000000000000000000000000000000000000000000000000000000000000000000000000000000000000000000000000000000000000000000000000000000000000000000000000000000000000000000000000000000000000000000000000000000000000000000000000000000000000000000000000000000000000000000000000000000000000000000000000000000000000000000000000000000000000000000000000000000000000000000000000000000000000000000000000000000000000000000000000000000000000000000000000000000000000000000000000000000000000000000000000000000000000000000000000000000000000000000000000000000000000000000000000000000000000000000000000000000000000000000000000000000000000000000000000000000000000000000000000000000000000000000000000000000000000000
#0005b:13
#0045b:13
#0165a:0014
#02352:14
#0235a:00140000
#03152:16
#03158:00160000
#03252:0014
#0425a:14141400
#04256:00000014
#00252:13
#00856:2424
#00852:2323
#01256:2424
#01252:2323
#01356:24
#01352:23
#01456:2424
#0145b:2323
#01953:24000000240000002424242424242424
#01959:24000000240000002424242424242424
#01956:000000000000000000000000000000000000000000000000000000000000000000000000000000000000000000000000000000000000000000000000000000000000000000000000000000000000000000000000000000000000000000000000000000000000000000000000000000000000000000000000000000000000000000000000000000000000000000000000000000000000000000000000000000000000000000000000000000000000000000000000000000000000000000000000000000000000000000000000000000000000000000000000000000000000000000000000000000000000000000000000546400000000000000000000000000000000000000000000000000000000000000000000000000000000000000000000000000000000000000000000000000000000000000000000000000000000000000000000000000000000000000000000000000000000000000000000000000000000000000000000000000000000000000000000000000000000000000000000000000000000000000000000000000000000000000000000000000000000000000000000000000000000000000000000000000000000000000000000000000000000000000000000000000000000000000000000000000000000000000000000000000000000000000000000000000000000000000000000000000000000000000000000000000000000000000000000000000000000000000000000000000000000000000000000000000000000000000000000000000000000000000000000000000000000000000000000000000000000000000000000000000000000000000000000000000000000000000000000000000000000000000000000000000000000000000000000000000000000000000000000000000000000000000000000000000000000000000000000000000000000000000000000000000000000000000000000000000000000000000000000546400000000000000000000000000000000000000000000000000000000000000000000000000000000000000000000000000000000000000000000000000000000000000000000000000000000000000000000000000000000000000000000000000000000000000000000000000000000000000000000000000000000000000000000000000000000000000000000000000000000000000000000000000000000000000000000000000000000000000000000000000000000000000000000000000000000000000000000000000000000000000000000000000000000000000000000000000000000000000000000000000000000000000000000000000000000000000000000000000000000000000000000000000000000000000000000000000000000000000000000545400000000000000000000000000000000000000000000000000000000000000000000000000000000000000000000000000000000000000000000000000000000000000000000000000000000000000000000000000000000000000000000000000000000000000000000000000000000000000000000545400000000000000000000000000000000000000000000000000000000000000000000000000000000000000000000000000000000000000000000000000000000000000000000000000000000000000000000000000000000000000000000000000000000000000000000000000000000000000000000545400000000000000000000000000000000000000000000000000000000000000000000000000000000000000000000000000000000000000000000000000000000000000000000000000000000000000000000000000000000000000000000000000000000000000000000000000000000000000000000545400000000000000000000000000000000000000000000000000000000000000000000000000000000000000000000000000000000000000000000000000000000000000000000000000000000000000000000000000000000000000000000000000000000000000000000000000000000000000000000545400000000000000000000000000000000000000000000000000000000000000000000000000000000000000000000000000000000000000000000000000000000000000000000000000000000000000000000000000000000000000000000000000000000000000000000000000000000000000000000545400000000000000000000000000000000000000000000000000000000000000000000000000000000000000000000000000000000000000000000000000000000000000000000000000000000000000000000000000000000000000000000000000000000000000000000000000000000000000000000546400000000000000000000000000000000000000000000000000000000000000000000000000000000000000000000000000000000000000000000000000000000000000000000000000000000000000000000000000000000000000000000000000000000000000000000000000000000000000000000546400000000000000000000000000000000000000000000000000000000000000000000000000000000000000000000000000000000000000000000
#01752:1400002300000000
#01757:53
#01755:00530000
#0175b:0023000000000000
#01756:0000000000340044
#01852:0018
#02052:0014
#0215a:14
#02156:6300000000440034
#02152:0023000000000000
#02158:00630000
#0215b:0000002300000000
#02256:0018
#03352:0014
#0345a:0014
#0365a:0014
#03752:0014
#03852:0014
#04052:00140000
#0405a:1414
#04056:00000014
#04152:1414
#0415a:00140000
#04156:00000014
#04352:14141400
#04356:00000014
#04452:3636
#04458:00460000
#04456:00000014
#04652:3636
#04658:00460000
#0355a:00000014
#03552:00000014
#04558:4646
#04552:00360000
#04556:00000014
#04856:0054
#0485a:24
#04852:0024
#04952:24
#04956:0064
#0495a:0024
#0505a:24
#05056:0054
#05052:0024
#05152:24
#05156:0064
#0515a:0024
#0525a:24
#05256:0054
#05252:0024
#05352:24
#05356:0064
#0535a:0024
#0545a:24
#05456:0054
#05452:0024
#05652:36363636
#05752:36363636
#05852:36363636
#05952:36363636
#06058:46464646
#06158:46464646
#06258:46464646
#00652:13
#00956:24
#00952:23
#06352:00004c3c
#0245a:00440044
#02452:0034
#02552:3434
#0255a:00440000
#02652:00360036
#02658:0046
#02758:46
#02852:00340034
#0285a:0044
#0295a:4444
#02952:00340000
#01056:2424
#0105b:2323
#01156:24
#0115b:23
#01556:24
#0155b:23
#08057:12
#008360:14
#0083a0:00000024000000000000000000000000
#008321:13
#008361:00000023000000000000000000000000
#008361:0014
#0083a1:00000000000000000000002400000000
#008320:0013
#008360:00000000000000000000002300000000
#009360:14
#0093a0:00000024000000000000000000000000
#009321:13
#009361:00000023000000000000000000000000
#009321:0000000014240000
#0093a1:0000000000001424
#010361:14
#010321:00000024000000000000000000000000
#0103b0:13
#010370:00000023000000000000000000000000
#010360:0014
#010320:00000000000000000000002400000000
#0103b1:0013
#010371:00000000000000000000002300000000
#011361:14
#011321:00000024000000000000000000000000
#0113b0:13
#011370:00000023000000000000000000000000
#012320:13
#012360:00000023000000000000000000000000
#012361:14
#0123a1:00000024000000000000000000000000
#012361:0014
#0123a1:00000000000000000000002400000000
#012320:0013
#012360:00000000000000000000002300000000
#013360:14
#0133a0:00000024000000000000000000000000
#013321:13
#013361:00000023000000000000000000000000
#013321:0000000014240000
#0133a1:0000000000001424
#014361:14
#014321:00000024000000000000000000000000
#0143b0:13
#014370:00000023000000000000000000000000
#014360:0014
#014320:00000000000000000000002400000000
#0143b1:0013
#014371:00000000000000000000002300000000
#015361:14
#015321:00000024000000000000000000000000
#0153b0:13
#015370:00000023000000000000000000000000
#0163a0:14
#016360:0034240000000000
#016321:00140000
#016361:0000003424000000
#017371:13
#0173b1:0033000000000000
#017381:00230000
#017350:00130000
#017320:0000003300000000
#017360:0023
#0173a1:0000000014240000
#017321:0000000000001424
#018361:14
#018321:0034240000000000
#018360:00140000
#0183a0:0000003424000000
#019330:1400000034343434
#019360:0000000034000000000000003400000000540054005400540054005400540054
#019390:00000000340000000054005400540054
#020330:24
#019391:1400000034343434
#019361:000000000000000000000000000000000000000000000000000000000000000000000000000000000000000000000000000000000000000000000000000000000000000000000000000000000000000000000000000000000000000000000000000000000000000000000000000000000000000000000000000000000000000000000000000000000000000000000000000000000000000000000000000000000000000000000000000000000000000000000000000000000000000000000000000000000000000000000000000000000000000000000000000000000000000000000000000000000000000000000000005400000000000000000000000000000000000000000000000000000000000000000000000000000000000000000000000000000000000000000000000000000000000000000000000000000000000000000000000000000000000000000000000000000000000000000000000000000000000000000000000000000000000000000000000000000000000000000000000000000000000000000000000000000000000000000000000000000000000000000000000000000000000000000000000000000000000000000000000000000000000000000000000000000000000000000000000000000000000000000000000000000000000000000000000000000000000000000000000000000000000000000000000000000000000000000000000000000000000000000000000000000000000000000000000000000000000000000000000000000000000000000000000000000000000000000000000000000000000000000000000000000000000000000000000000000000000000000000000000000000000000000000000000000000000000000000000000000000000000000000000000000000000000000000000000000000000000000000000000000000000000000000000000000000000000000000000000000000000000000000005400000000000000000000000000000000000000000000000000000000000000000000000000000000000000000000000000000000000000000000000000000000000000000000000000000000000000000000000000000000000000000000000000000000000000000000000000000000000000000000000000000000000000000000000000000000000000000000000000000000000000000000000000000000000000000000000000000000000000000000000000000000000000000000000000000000000000000000000000000000000000000000000000000000000000000000000000000000000000000000000000000000000000000000000000000000000000000000000000000000000000000000000000000000000000000000000000000000000000000000005400000000000000000000000000000000000000000000000000000000000000000000000000000000000000000000000000000000000000000000000000000000000000000000000000000000000000000000000000000000000000000000000000000000000000000000000000000000000000000000005400000000000000000000000000000000000000000000000000000000000000000000000000000000000000000000000000000000000000000000000000000000000000000000000000000000000000000000000000000000000000000000000000000000000000000000000000000000000000000000005400000000000000000000000000000000000000000000000000000000000000000000000000000000000000000000000000000000000000000000000000000000000000000000000000000000000000000000000000000000000000000000000000000000000000000000000000000000000000000000005400000000000000000000000000000000000000000000000000000000000000000000000000000000000000000000000000000000000000000000000000000000000000000000000000000000000000000000000000000000000000000000000000000000000000000000000000000000000000000000005400000000000000000000000000000000000000000000000000000000000000000000000000000000000000000000000000000000000000000000000000000000000000000000000000000000000000000000000000000000000000000000000000000000000000000000000000000000000000000000005400000000000000000000000000000000000000000000000000000000000000000000000000000000000000000000000000000000000000000000000000000000000000000000000000000000000000000000000000000000000000000000000000000000000000000000000000000000000000000000005400000000000000000000000000000000000000000000000000000000000000000000000000000000000000000000000000000000000000000000000000000000000000000000000000000000000000000000000000000000000000000000000000000000000000000000000000000000000000000000005400000000000000000000000000000000000000000000000000000000000000000000000000000000000000000000000000000000000000000000
#019331:00000000340000000054005400540054
#020391:24
#0203a1:00140000
#020361:0000003424000000
#021361:13
#021321:0033000000000000
#021351:00230000
#021380:00130000
#0213b0:0000003300000000
#021370:0023
#021321:0000000014240000
#0213a1:0000000000001424
#022361:14
#0223a1:0034240000000000
#022360:00140000
#022320:0000003424000000
#035320:14
#035360:0024000000000000
#0353a0:00140000
#035360:0000002400000000
#040320:14240000
#040370:0033000000000000
#0403a1:00142400
#040361:0000003300000000
#0413a1:14240000
#041361:0033000000000000
#041320:00142400
#041370:0000003300000000
#042320:14342400
#042380:0033003300000000
#0433a0:14342400
#043350:0033003300000000
#047320:13535c00000000000000000000000000000000000000000000000000000000000000000000000000000000000000000000000000000000000000000000000000000000000000000000000000000000000000000000000000000000000000000000000000000000000000000000000000000000000000000000000000000000000000000000000000000000000000000000000000000000000000000000000000000000000000000000000000000000000000000000000000000000000000000000000000000000000000000000000000000000000000000000000000000000000000000000000000000000000000005c390000000000000000000000000000000000000000000000000000000000000000000000000000000000000000000000000000000000000000000000000000000000000000000000000000000000000000000000000000000000000000000000000000000000000000000000000000000000000000000000000000000000000000000000000000000000000000000000000000000000000000000000000000000000000000000000000000000000000000000000000000000000000000000000000000000000000000000000000000000000000000000000000000000000000000000000000000000000000000000059360000000000000000000000000000000000000000000000000000000000000000000000000000000000000000000000000000000000000000000000000000000000000000000000000000000000000000000000000000000000000000000000000000000000000000000000000000000000000000000000000000000000000000000000000000000000000000000000000000000000000000000000000000000000000000000000000000000000000000000000000000000000000000000000000000000000000000000000000000000000000000000000000000000000000000000000000000000000000000000056330000000000000000000000000000000000000000000000000000000000000000000000000000000000000000000000000000000000000000000000000000000000000000000000000000000000000000000000000000000000000000000000000000000000000000000000000000000000000000000000000000000000000000000000000000000000000000000000000000000000000000000000000000000000000000000000000000000000000000000000000000000000000000000000000000000000000000000000000000000000000000000000000000000000000000000000000000000000000000000000230000000000000000000000000000000000000000000000000000000000000000000000000000000000000000000000000000000000000000000000000000000000000000000000000000000000000000000000000000000000000000000000000000000000000000000000000000000000000000000000000000000000000000000000000000000000000000000000000000000000000000000000000000000000000000000000000000000000000000000000000000000000000000000000000000000000000000000000000000000000000000000000000000000000000000000000000000000000000000000000000000000000000000000000000000000000000000000000000000000000000000000000000000000000000000000000000000000000000000000000000000000000000000000000000000000000000000000000000000000000000000000000000000000000000000000000000000000000000000000000000000000000000000000000000000000000000000000000000000000000000000000000000000000000000000000000000000000000000000000000000000000000000000000000000000000000000000000000000000000000000000000000000000000000000000000000000000000000000000000000000000000000000000000000000000000000000000000000000000000000000000000000000000000000000000000000000000000000000000000000000000000000000000000000000000000000000000000000000000000000000000000000000000000000000000000000000000000000000000000000000000000000000000000000000000000000000000000000000000000000000000000000000000000000000000000000000000000000000000000000000000000000000000000000000000000000000000000000000000000000000000000000000000000000000000000000000000000000000000000000000000000000000000000000000000000000000000000000000000000000000000000000000000000000000000000000000000000000000000000000000000000000000000000000000000000000000000000000000000000000000000000000000000000000000000000000000000000000000000000000000000000000000000000000000000000000000000000000000000000000000000000000000000000000000000000000000000000000000000000000000000000000000000000000000000000000000000000000000000000000000000000000000000000000000000000000000000000000000000000000
#0473b1:132300000000000000000000000000000000000000000000000000000000000000000000000000000000000000000000000000000000000000000000000000000000000000000000000000000000000000000000000000000000000000000000000000000000000000000000000000000000000000000000000000000000000000000000000000000000000000000000000000000000000000000000000000000000000000000000000000000000000000000000000000000000000000000000000000000000000000000000000000000000000000000000000000000000000000000000000000000000000000000000000000000000000000000000000000000000000000000000000000000000000000000000000000000000000000000000000000000000000000000000000000000000000000000000000000000000000000000000000000000000000000000000000000000000000000000000000000000000000000000000000000000000000000000000000000000000000000000000000000000000000000000000000000000000000000000000000000000000000000000000000000000000000000000000000000000000000000000000000000000000000000000000000000000000000000000000000000000000000000000000000000000000000000000000000000000000000000000000000000000000000000000000000000000000000000000000000000000000000000000000000000000000000000000000000000000000000000000000000000000000000000000000000000000000000000000000000000000000000000000000000000000000000000000000000000000000000000000000000000000000000000000000000000000000000000000000000000000000000000000000000000000000000000000000000000000000000000000000000000000000000000000000000000000000000000000000000000000000000000000000000000000000000000000000000000000000000000000000000000000000000000000000000000000000000000000000000000000000000000000000000000000000000000000000000000000000000000000000000000000000000000000000000000000000000000000000000000000000000000000000000000000000000000000000000000000000000000000000000000000000000000000000000000000000000000000000000000000000000000000000000000000000000000000000000000000000000000000000000000000000000000000000000000000000000000000000000000000000000000000000000000000000000000000000000000000000000000000000000000000000000000000000000000000000000000000000000000000000000000000000000000000000000000000000000000000000000000000000000000000000000000000000000000000000000000000000000000000000000000000000000000000000000000000000000000000000000000000000000000000000000000000000000000000000000000000000000000000000000000000000000000000000000000000000000000000000000000000000000000000000000000000000000000000000000000000000000000000000000000000000000000000000000000000000000000000000000000000000000000000000000000000000000000000000000000000000000000000000000000000000000000000000000000000000000000000000000000000000000000000000000000000000000000000000000000000000000000000000000000000000000000000000000000000000000000000000000000000000000000000000000000000000000000000000000000000000000000000000000000000000000000000000000000000000000000000000000000000000000000000000000000000000000000000000000000000000000000000000000000000000000000000000000000000000000000000000000000000000000000000000000000000000000000000000000000000000000000000000000000000000000000000000000000000000000000000000000000000000000000000000000000000000000000000000000000000000000000000000000000000000000000000000000000000000000000000000000000000000000000000000000000000000000000000000000000000000000000000000000000000000000000000000000000000000000000000000000000000000000000000000000000000000000000000000000000000000000000000000000000000000000000000000000000000000000000000000000000000000000000000000000000000000000000000000000000000000000000000000000000000000000000000000000000000000000000000000000000000000000000000000000000000000000000000000000000000000000000000000000000000000000000000000000000000000000000000000000000000000000000000000000000000000000000000000000000000000000000000000000000000000000000000000000000000000000000000000000000000000000000000000000000000000000000000000000000000000000000000000000000000000
#0483a0:14
#048360:0054
#049320:34
#049360:0054
#0503a0:34
#050360:0054
#051320:34
#051360:0054
#0523a0:34
#052360:0054
#053320:34
#053360:0054
#0543a0:34
#054360:0054
#055320:24
#048321:0014
#0493a1:24
#0493a1:0014
#050321:24
#050321:0014
#0513a1:24
#0513a1:0014
#052321:24
#052321:0014
#0533a1:24
#0533a1:0014
#054321:24
#054321:0014
#0553a1:24
#063321:1c2c
#063320:001c00000000000000000000000000000000000000000000000000000000000000000000000000000000000000000000000000000000000000000000000000000000000000000000000000000000000000000000000000000000000000000000000000000000000000000000000000000000000000000000000000000000000000000000000000000000000000000000000000000000000000000000000000000000000000000000000000000000000000000000000000000000000000000000000000000000000000000000000000000000000000000000000000000000000000000000000000000000000000000000000000000000000000000000000000000000000000000000000000000000000000000000000000000000000000000000000000000000000000000000000000000000000000000000000000000000000000000000000000000000000000000000000000000000000000000000000000000000000000000000000000000000000000000000000000000000000000000000000000000000000000000000000000000000000000000000000000000000000000000000000000000000000000000000000000000000000000000000000000000000000000000000000000000000000000000000000000000000000000000000000000000000000000000000000000000000000000000000000000000000000000000000000000000000000000000000000000000000000000000000000000000000000000000000000000000000000000000000000000000000000000000000000000000000000000000000000000000000000000000000000000000000000000000000000000000000000000000000000000000000000000000000000000000000000000000000000000000000000000000000000000000000000000000000000000000000000000000000000000000000000000000000000000000000000000000000000000000000000000000000000000000000000000000000000000000000000000000000000000000000000000000000000000000000000000000000000000000000000000000000000000000000000000000000000000000000000000000000000000000000000000000000000000000000000000000000000000000000000000000000000000000000000000000000000000000000000000000000000000000000000000000000000000000000000000000000000000000000000000000000000000000000000000000000000000000000000000000000000000000000000000000000000000000000000000000000000000000000000000002c00000000000000000000000000000000000000000000000000000000000000000000000000000000000000000000000000000000000000000000000000000000000000000000000000000000000000000000000000000000000000000000000000000000000000000000000000000000000000000000000000000000000000000000000000000000000000000000000000000000000000000000000000000000000000000000000000000000000000000000000000000000000000000000000000000000000000000000000000000000000000000000000000000000000000000000000000000000000000000000000000000000000000000000000000000000000000000000000000000000000000000000000000000000000000000000000000000000000000000000000000000000000000000000000000000000000000000000000000000000000000000000000000000000000000000000000000000000000000000000000000000000000000000000000000000000000000000000000000000000000000000000000000000000000000000000000000000000000000000000000000000000000000000000000000000000000000000000000000000000000000000000000000000000000000000000000000000000000000000000000000000000000000000000000000000000000000000000000000000000000000000000000000000000000000000000000000000000000000000000000000000000000000000000000000000000000000000000000000000000000000000000000000000000000000000000000000000000000000000000000000000000000000000000000000000000000000000000000000000000000000000000000000000000000000000000000000000000000000000000000000000000000000000000000000000000000000000000000000000000000000000000000000000000000000000000000000000000000000000000000000000000000000000000000000000000000000000000000000000000000000000000000000000000000000000000000000000000000000000000000000000000000000000000000000000000000000000000000000000000000000000000000000000000000000000000000000000000000000000000000000000000000000000000000000000000000000000000000000000000000000000000000000000000000000000000000000000000000000000000000000000000000000000000000000000000000000000000000000000000000000000000000000000000000000000000000000000000000000000000000000
#063322:00001c00000000000000000000000000000000000000000000000000000000000000000000000000000000000000000000000000000000000000000000000000000000000000000000000000000000000000000000000000000000000000000000000000000000000000000000000000000000000000000000000000000000000000000000000000000000000000000000000000000000000000000000000000000000000000000000000000000000000000000000000000000000000000000000000000000000000000000000000000000000000000000000000000000000000000000000000000000000000000000000000000000000000000000000000000000000000000000000000000000000000000000000000000000000000000000000000000000000000000000000000000000000000000000000000000000000000000000000000000000000000000000000000000000000000000000000000000000000000000000000000000000000000000000000000000000000000000000000000000000000000000000000000000000000000000000000000000000000000000000000000000000000000000000000000000000000000000000000000000000000000000000000000000000000000000000000000000000000000000000000000000000000000000000000000000000000000000000000000000000000000000000000000000000000000000000000000000000000000000000000000000000000000000000000000000000000000000000000000000000000000000000000000000000000000000000000000000000000000000000000000000000000000000000000000000000000000000000000000000000000000000000000000000000000000000000000000000000000000000000000000000000000000000000000000000000000000000000000000000000000000000000000000000000000000000000000000000000000000000000000000000000000000000000000000000000000000000000000000000000000000000000000000000000000000000000000000000000000000000000000000000000000000000000000000000000000000000000000000000000000000000000000000000000000000000000000000000000000000000000000000000000000000000000000000000000000000000000000000000000000000000000000000000000000000000000000000000000000000000000000000000000000000000000000000000000000000000000000000000000000000000000000000000000000000000000000000000000000000000002c000000000000000000000000000000000000000000000000000000000000000000000000000000000000000000000000000000000000000000000000000000000000000000000000000000000000000000000000000000000000000000000000000000000000000000000000000000000000000000000000000000000000000000000000000000000000000000000000000000000000000000000000000000000000000000000000000000000000000000000000000000000000000000000000000000000000000000000000000000000000000000000000000000000000000000000000000000000000000000000000000000000000000000000000000000000000000000000000000000000000000000000000000000000000000000000000000000000000000000000000000000000000000000000000000000000000000000000000000000000000000000000000000000000000000000000000000000000000000000000000000000000000000000000000000000000000000000000000000000000000000000000000000000000000000000000000000000000000000000000000000000000000000000000000000000000000000000000000000000000000000000000000000000000000000000000000000000000000000000000000000000000000000000000000000000000000000000000000000000000000000000000000000000000000000000000000000000000000000000000000000000000000000000000000000000000000000000000000000000000000000000000000000000000000000000000000000000000000000000000000000000000000000000000000000000000000000000000000000000000000000000000000000000000000000000000000000000000000000000000000000000000000000000000000000000000000000000000000000000000000000000000000000000000000000000000000000000000000000000000000000000000000000000000000000000000000000000000000000000000000000000000000000000000000000000000000000000000000000000000000000000000000000000000000000000000000000000000000000000000000000000000000000000000000000000000000000000000000000000000000000000000000000000000000000000000000000000000000000000000000000000000000000000000000000000000000000000000000000000000000000000000000000000000000000000000000000000000000000000000000000000000000000000000000000000000000000000000000000000000000
#0663a1:00001222
#067361:00122200
#0673c2:0012
#067382:00000000000000000000002200000000
#067321:00000000000000000000001200000000
#067361:0000000000000022
#073321:12000022
#074341:00001222
#0753c1:12220000
#075322:00122200
#011920:0013
#0119a0:00000053
#012920:23
#070920:12
#070960:00220000000000000000
#070980:0000001200000000000000000000000000000000
#0709c0:00220000
#070921:00120000
#070961:0000000000000022000000000000000000000000
#070981:0000120000
#0709c1:0022
#070920:0012
#070960:0000002200
#070980:0000000000000000000000000012000000000000
#0709c0:00000022
#070921:00000012
#070961:0000000000000000000000000000000000220000
#070981:00000000000000000012
#0719c1:22
#071920:12
#071940:00220000000000000000
#071961:00120000000000000000
#071991:00220000
#071930:00120000
#071950:0000000000000022000000000000000000000000
#071971:0000000000000012000000000000000000000000
#0719a1:0022
#071940:0012
#071960:0000002200
#071981:0000001200
#0719b1:00000022
#071950:00000012
#071970:0000000000000000000000000000000000220000
#071991:0000000000000000000000000000000000120000
#0729c1:22
#073961:0000001200000000
#073991:0000000000000000000000000000002200000000000000000000000000000000
#076921:12
#078921:00000000000000000000000052525252
#079921:22
#079971:0012
#0799a1:0000000000000000000000000000000000000022000000000000000000000000
#079991:00000012
#0799c1:0000000000000000000000000000000000000000000000000000002200000000
