This file was generated by Ched 2.7.0.0.
#TITLE ""
#ARTIST ""
#DESIGNER ""
#DIFFICULTY 0
#PLAYLEVEL
#SONGID ""
#WAVE ""
#WAVEOFFSET 0
#JACKET ""
#REQUEST "ticks_per_beat 480"
#00002: 4
#BPM01: 138
#00008: 01
#TIL00: ""
#VOLUME: ""
#HISPEED 00
#MEASUREHS 00
#0001a:14
#00014:00140000
#00018:0014
#00118:0000140000001414
#00114:0014
#00212:14
#00218:00140000
#00214:0014
#00314:0000140000001414
#00318:0014
#0041a:14
#00414:00140000
#00418:0014
#00518:0000140000001414
#00514:0014
#00612:14
#00618:00140000
#00614:0014
#00714:00140024
#00718:0014
#0081a:1414
#00814:00140014
#00810:41
#01012:1414
#01018:00140014
#01218:14
#01212:00140000
#01219:0014
#01213:00000014
#01414:14
#0141a:00140000
#01413:0014
#01419:00000014
#0161a:14140000
#01614:00001414
#01718:1400140000140014
#01712:00001414
#0191a:00001414
#01914:0000000000140014
#0201a:14140000
#02014:00001414
#02118:1400140000140014
#02112:00001414
#02414:00140014
#0241a:0014
#02518:14001414
#02512:00140000
#02514:0000000000140014
#0261a:14
#02614:00140000
#02618:0014
#02612:00000014
#02814:00140014
#0281a:1414
#02810:41
#02918:14001414
#02912:00140000
#02914:0000000000140014
#0301a:14
#03014:00140000
#03018:0014
#03012:00000014
#0321a:1414
#03214:00140000
#03312:1414
#03318:00140000
#03418:1414
#03412:00140000
#03514:1414
#0351a:00140000
#0361a:1414
#03614:00140000
#03712:1414
#03718:00140000
#03818:1414
#03812:00140000
#03810:41
#03914:1414
#0391a:00140000
#0401a:1414
#04014:00140014
#04118:1400000014000014
#04112:00140014
#04212:1414
#04218:00140014
#04314:1400000014000014
#0431a:00140014
#0441a:1414
#04414:00140014
#04518:1400000014000014
#04512:00140014
#04612:1414
#04618:00140014
#04714:14
#0471f:0011
#05614:00140014
#0561a:2424
#0561f:21
#05712:00140014
#05718:2400000024000014
#05710:41
#05818:00140014
#05812:2424
#0591a:00140014
#05914:2400000024000014
#0631a:14002424
#06312:00002424
#06412:14
#06418:00140000
#06414:0014
#0641a:00000014
#0661a:14
#06614:00140000
#06618:0014
#06612:00000014
#06812:14
#06818:00140000
#06814:0014
#0681a:00000014
#0701a:14
#07014:00140000
#07018:0014
#07012:00000014
#03119:24240000
#03113:00002424
#0601a:2424
#06012:00240024
#06118:2424
#06114:00240024
#0621a:24
#06212:00240000
#06218:0024
#06214:00000024
#0091a:00343400
#01112:00343400
#01318:00343400
#01514:00343400
#06514:00343400
#06718:00343400
#06912:00343400
#06910:41
#0711a:00343400
#01810:41
#0245a:14
#0325a:0014
#03352:0014
#03458:0014
#03554:0014
#0365a:0014
#03752:0014
#03858:0014
#03954:0014
#0405a:14
#04158:14
#04252:14
#04354:14
#0445a:14
#04558:14
#04652:14
#04754:14
#0635a:14
#000320:00000000000000000000000014343434
#001320:24
#0023a0:00000000000000000000000014343434
#0033a0:24
#004320:00000000000000000000000014343434
#005320:24
#0063a0:00000000000000000000000014343434
#0073a0:24
#009380:14
#0093a0:00343424
#011340:14
#011320:00343424
#0133a0:14
#013380:00343424
#015320:14
#015340:00343424
#018320:14240000
#018380:00001424
#019340:14240000
#022320:14240000
#022380:00001424
#023340:14240000
#0233a0:000000000000143434343434
#0243a0:24
#027380:14
#027390:0034000000000000
#0273a0:00240000
#027340:0014
#027330:0000000000340000
#027320:00000024
#0483a0:14
#048390:0034
#049380:34
#049390:0034
#0503a0:34
#050390:0034
#051380:3424
#052320:14
#052330:0034
#053340:34
#053330:0034
#054320:34
#054330:0034
#055340:3424
#065320:14
#065340:00343424
#0673a0:14
#067380:00343424
#069340:14
#069320:00343424
#071380:14
#0713a0:00343424
#072340:14
#073320:34
#074340:34
#075320:24
#076380:14
#0773a0:34
#078380:34
#0793a0:340000340000343434343434
#0803a0:24
