This file was generated by Ched 2.7.0.0.
#TITLE ""
#ARTIST ""
#DESIGNER ""
#DIFFICULTY 0
#PLAYLEVEL
#SONGID ""
#WAVE ""
#WAVEOFFSET 0
#JACKET ""
#REQUEST "ticks_per_beat 480"
#00002: 4
#BPM01: 185
#00008: 01
#TIL00: ""
#VOLUME: ""
#HISPEED 00
#MEASUREHS 00
#00914:00130000
#00919:00130000
#00912:16
#00918:26
#01212:14
#0121a:14
#01215:0000001300130013
#01218:00231313
#0141a:14
#01417:00140000
#01412:0000000000000013
#0141b:0000000000000013
#01518:0013001300001300
#01515:0000130013000013
#0161b:13
#01612:0013
#01812:1400000000000013
#0181b:0000000000000013
#01815:00140000
#0191b:0013000000001300
#01915:0000130000000013
#01918:0000001300000000
#01912:0013
#0201b:13
#02012:0013
#0221a:14
#02217:00140000
#0221b:0000000000000013
#02212:0000000000000013
#02312:0013000000001300
#02318:0000130000000013
#02315:0000001300000000
#0231b:0013
#0241b:00130013
#02415:0000001300000013
#02418:0013
#02412:2300000000130000
#02518:13
#02515:00130000
#0251a:00002424
#02512:0000000000240000
#02612:1416141614161416
#0261a:24
#02812:1416141614161416
#03012:1416141614161416
#03212:1400003414000000
#03215:00140000
#03317:00140000
#0331a:2400003414000000
#04312:13
#04315:0013000000130013
#04318:00130013
#0431b:0000001300000000
#04415:0000000000130000
#04418:00000013
#04412:0000000000000013
#0471b:0013001300000000
#04715:00130000
#04712:0000000000130013
#04718:00000013
#0481a:14141400
#04815:0000000000130000
#04818:00000013
#04812:0000000000000014
#05012:13
#05018:13
#0501b:0013
#05015:0013
#0511b:0013001300000000
#05115:00130000
#05112:0000000000130000
#05118:0000000000000013
#0521b:00130000
#05212:00000013
#0541a:14
#05417:00140000
#05412:00000014
#05512:14
#05515:00000014000000000000000000000000
#0551a:00000014
#05514:0000000000000014
#05618:0013
#05615:00000013
#05612:0023
#0561b:00000023
#05718:1313
#0571b:00130013
#05715:0000001300000000
#05712:2300000000130000
#0571f:0011
#06415:0013001300130013
#06418:23131313
#0661b:0000000000000013
#06612:1400000000000013
#06615:00140000
#0661f:21
#07012:0000000000000013
#0701b:0000000000000013
#0701a:14
#07017:00140000
#0671b:0013000000001300
#06715:0000130000000013
#06718:0000001300000000
#06712:0013
#07412:1400000000000013
#0741b:0000000000000013
#07415:00140000
#0751b:0013000000001300
#07515:0000130000000013
#07518:0000001300000000
#07512:0013
#07615:13
#0761b:13
#07618:0013
#07612:0013
#0781a:14
#07817:00140000
#0781b:0000000000000013
#07812:0000000000000013
#07912:0013000000001300
#07918:0000130000000013
#07915:0000001300000000
#0791b:0013
#0681b:13
#06815:00130000
#06818:0013
#06812:00000013
#08015:0000140000000013
#08018:00000013
#08012:24
#0821a:00140000
#08117:00000014
#0811a:24
#08412:13000000000000000000005353535300
#08413:00530000000000000000530000000000
#08414:00005300000000000053000000000000
#08415:00000053535353535300000000000000
#08518:0013001300000000
#08515:00131300
#09816:0014
#09812:24
#09810:41
#09916:0014
#0991a:24
#10016:0014
#1001b:0013
#10012:24
#10116:0014
#10112:0013
#1011a:24
#10215:00140000
#10217:00000014
#10212:24
#1021a:0024
#07112:0013000000001300
#07118:0000130000000013
#07115:0000001300000000
#0711b:0013
#0721b:00130013
#07215:0000001300000013
#07218:0013
#07212:2300000000130000
#0031a:2424
#00317:00240024
#00118:0000000000240024
#00114:00000024
#0051a:2424
#00517:00240024
#0061a:24
#00812:00240000
#00816:0024
#0081a:00000024
#0101a:24
#01012:24
#01014:0023
#01019:0023
#01010:41
#01112:24
#0111a:24
#0131a:24
#01318:0024
#01315:00230000
#01312:00000023
#0171a:24000024
#01712:2424
#01718:0000002300000000
#01715:00230000
#0211a:24
#02118:0024
#02115:00230000
#02112:00000023
#0271a:2424
#02717:00240024
#02710:41
#0291a:2424
#02917:00240024
#0311a:2424
#03117:00240024
#03517:24002424
#0351a:00240000
#03717:2424
#0371a:00240000
#03917:24240024
#0391a:0024
#04112:25
#04119:25
#04118:00002424
#04114:0000000000240000
#0401a:24
#0451b:2333
#04918:0023000023002300
#04915:0000002300230023
#05315:23
#05815:2424
#0581a:2424
#05812:00240024
#05817:00240024
#0591a:2424
#05912:2424
#05918:00240000
#05914:0000002400000000
#0651a:24
#06514:00000024000000000000000000000000
#06518:0000002400002600
#06512:0024
#0691a:24
#06918:0024
#06915:00230000
#06912:00000023
#06910:41
#0771a:24
#07718:0024
#07715:00230000
#07712:00000023
#0731a:24000024
#07312:2424
#07318:0000002300000000
#07315:00230000
#08712:24240000
#08718:0024000000000000
#0871a:00002424
#08714:0000000000240000
#0891a:24240000
#08914:0024000000000000
#08912:00002424
#08918:0000000000240000
#0911a:24242400
#09115:0024002400000000
#09312:24242400
#09317:0024002400000000
#0951a:2424
#09512:0024000000240000
#09518:00240000
#09514:0000002400000000
#09718:26262600
#09712:0026002600000000
#06215:2424
#0621a:2424
#06212:00240024
#06217:00240024
#0631a:24
#06315:24
#06317:00000034000034000000000000000000
#06312:00000034000034000000000000000000
#09618:000000000000003400003400000034000000003400000000000000000000000000000000000000000000000000000000
#09614:000000000000003400003400000034000000003400000000000000000000000000000000000000000000000000000000
#04210:41
#08610:41
#0085a:14
#00852:14
#00952:6616
#00958:6616
#00959:00230000
#00954:00230000
#01152:64
#01155:0013
#0115a:54
#01158:0013
#0135a:14
#01358:0014
#0145a:6444
#01457:00240000
#01555:0013
#0165b:63
#01652:0053
#01952:0013
#0205b:63
#02052:0053
#0215a:14
#02158:0014
#0175a:00000014
#01752:0014
#01852:5434
#01855:00240000
#0225a:6444
#02257:00240000
#0235b:0013
#02558:13
#02652:6426642664266426
#02852:6426642664266426
#03052:6426642664266426
#03255:00640014
#03252:6464
#03357:00540014
#0335a:6454
#04159:15
#04152:15
#04852:0000000000000014
#05058:6300000000000013
#05052:6300000000000013
#0505b:0053
#05055:0053
#0515b:0000001300000000
#05152:0000000000130000
#05355:00000013
#0455b:00000013
#0545a:6414
#05457:00240000
#05552:5414
#05555:00000024000000000000000000000000
#0575b:00000013
#0595a:00000014
#05952:00000014
#06152:0014
#06552:0014
#06752:0013
#0695a:14
#06958:0014
#0705a:6444
#07057:00240000
#07552:0013
#07655:63
#0765b:63
#07658:0053
#07652:0053
#07452:5434
#07455:00240000
#0785a:6444
#07857:00240000
#0795b:0013
#0775a:14
#07758:0014
#0735a:00000014
#07352:0014
#06652:5434
#06655:00240000
#0685b:13
#06855:00130000
#06858:0013
#06852:00000013
#08052:64
#08055:00240000
#08157:00000064
#0825a:00640000
#08555:0013
#0915a:0014
#09055:0014
#0905a:0014
#09352:0014
#09252:0014
#09257:0014
#0945a:0000000000140000
#09452:0000000000140000
#09552:0000000000140000
#09758:0016
#09852:64
#09856:0024
#09956:0024
#0995a:54
#10056:0024
#10052:64
#10156:0024
#1015a:54
#10252:64
#10255:00240000
#10257:00000024
#1025a:0054
#1035a:0014
#10352:0014
#10656:0014
#04652:0000000000000013
#04658:0000000000000013
#0635a:54
#06355:54
#06357:0014
#06352:0014
#0715b:0013
#002320:14343434
#004320:34343434
#006320:3434
#006340:00340034
#007320:3434
#007340:00340034
#008320:24
#0063a1:1434
#006381:00340034
#0073a1:3434
#007381:00340034
#0083a1:24
#009321:1626
#009341:00530000
#009380:1626
#009390:00530000
#011320:14
#011350:0023
#0113a1:14
#011381:0023
#0143a1:1424
#014371:00540000
#0163b1:13
#016381:00230000
#016321:0013
#016351:00000023
#018321:1424
#018351:00540000
#0203b1:13
#020381:00230000
#020321:0013
#020351:00000023
#0223a1:1424
#022371:00540000
#026321:1456345634563456
#027321:54
#028321:3456345634563456
#029321:54
#030321:3456345634563456
#031321:54
#032321:3400003434000000
#032351:00340024
#0333a1:1400003434000000
#033371:00340024
#034321:14003434
#034351:00340000
#036321:3434
#036351:00340000
#038321:34340034
#038351:0034
#040321:3455545534553455345554555455545554555455545554552400000000000000
#0403a0:14543434345454545454545424000000
#040390:0055005500550055005500550055005500550055005500550000000000000000
#042320:13
#042350:00230000
#042381:13
#0423b1:00230000
#042321:0013
#042351:00000023
#042380:0013
#0423b0:00000023
#0443b0:1323
#044380:00330000
#0453b0:13003323
#045380:00330000
#0463b0:13
#046380:00230000
#046351:13
#046321:00230000
#046351:0013
#046321:0000000000003323
#0463b0:0013
#046380:0000000000003323
#050320:13
#050350:00230000
#050381:13
#0503b1:00230000
#0503b1:0013
#050381:0000000000003323
#050350:0013
#050320:0000000000003323
#052350:1323
#052381:0013
#053381:23
#053350:1300000033332300
#053320:00330000
#0543a0:1424
#054370:00540000
#055320:1400003424000000
#055350:00000054000000000000000000000000
#056380:14240000
#0593a0:00001424
#059321:00001424
#0603a1:1434
#060371:00340034
#0613a1:24
#061320:1424
#061350:00340000
#0633a0:14
#063370:00000034000034002400000000000000
#063351:14
#063321:00000034000034002400000000000000
#066321:1424
#066351:00540000
#0703a1:1424
#070371:00540000
#074321:1424
#074351:00540000
#076351:13
#076321:00230000
#0763b0:13
#076380:00230000
#076380:0013
#0763b0:00000023
#076321:0013
#076351:00000023
#0783a1:1424
#078371:00540000
#080321:1424
#080351:00540000
#0813a1:1434
#081371:00340034
#0823a1:00340000
#083371:00000024
#0863a1:1434340034342400
#086320:1434340034342400
#0883a0:1434340034342400
#088321:1434340034342400
#0903a1:1434343424000000
#090350:1434343424000000
#092320:1434343424000000
#092371:1434343424000000
#0943a1:1434343434240000
#094320:1434343434240000
#096380:140000540000543400543400540034540000543400540000540000540000540000540000240000000000000000000000
#096390:0054005400540054005400540054005400540054005400540000000000000000
#096341:140000540000543400543400540034540000543400540000540000540000540000540000240000000000000000000000
#096331:0054005400540054005400540054005400540054005400540000000000000000
#098321:14
#098361:0054
#099321:24
#0993a0:14
#099360:0054
#1003a0:24
#100321:14
#100361:0054
#101321:24
#1013a0:14
#101360:0054
#1023a0:24
#102321:1424
#102351:00540000
#1023a0:0014
#102370:00000054
#1033a0:34343434343434342400000000000000
#103321:14343434343434342400000000000000
#104361:0000000014545454
#104351:00000000000000000056005600560056
#105361:5454545454545454
#105351:00560056005600560056005600560056
#106361:5454545424000000
#106351:00560056005600560000000000000000
#084920:130000000000000000000000000000000000000000000000000000000000000000000000000000000000000000000000000000000000000000000000000000000000000000000000000000000000000000000000000000000000000000000000000000000000000000000000000000000000000000000000000000000000000000000000000000000000000000000000000000000000000000000000000000000000000000000000000000000000000000000000000000000000000000000000000000000000000000000000000000000000000000000000000000000000000000000000000000000000000000000000000000000000000000000000000000000000000000000000000000000000000000000000000000000000000000000000000000000000000000000000000000000000000000000000000000000000000000000000000000000000000000000000000000000000000000000000000000000000000000000000000000000000000000000000000000000000000000000000000000000000000000000000000000000000000000000000000000000000000000000000000000000000000000000000000000000000000000000000000000000000000000000000000000000000000000000000000000000000000000000000000000000000000000000000000000000000000000000000000000000000000000000000000000000000000000000000000000000000000000000000000000000000000000000000000000000000000000000000000000000000000000000000000000000000000000000000000000000000000000000000000000000000000000000000000000000000000000000000000000000000000000000000000000000000000000000000000000000000000000000000000000000000000000000000000000000000000000000000000000000000000000000000000000000000000000000000000000000000000000000000000000000000000000000000000000000000000000000000000000000000000000000000000000000000000000000000000000000000000000000000000000000000000000000000000000000000000000000000000000000000000000000000000000000000000000000000000000000000000000000000000000000000000000000000000000000000000000000000000000000000000000000000000000000000000000000000000000000000000000000000000000000000000000000000000000000000000000000000000000000000000000000000000000000000000000000000000000000000000000000000000000000000000000000000000000000000000000000000000000000000000000000000000000000000000000000000000000000000000000000000000000000000000000000000000000000000000000000000000000000000000000000000000000000000000000000000000000000000000000000000000000000000000000000000000000000000000000000000000000000000000000000000000000000000000000000000000000000000000000000000000000000000000000000000000000000000000000000000000000000000000000000000000000000000000000000000000000000000000000000000000000000000000000000000000000000000000000000000000000000000000000000000000000000000000000000000000000000000000000000000000000000000000000000000000000000000000000000000000000000000000000000000000000000000000000000000000000000000000000000000530000000000000000000000000000000000000000000000000000000000000000000000000000000000000000000000000000000000000000000000000000000000000000000000000000000000000000000000000000000000000000000000000000000000000000000000000000000000000000000000000000000000000000000000000000000000000000000000000000000000000000000000000000000000000000000000000000000000000000000000000000000000000000000000000000000000000000000000000000000000000000000000000000000000000000000000000000000000000000000000000000000000000000000000000000000000000000000000000000000000000000000000000000000000000000000000000000000000000000000000000000000000000000000000000000000000000000000000000000000000000000000000000000000000000000000000000000000000000053535353230000000000000000000000000000000000000000000000000000000000000000000000000000000000000000000000000000000000000000000000000000000000000000000000000000000000000000000000000000000000000000000000000000000000000000000000000000000000000000000000000000000000000000000000000000000000000000000000000000000000000000000000000000000000000000000000000000000000000000000000000000000000000000000000000000000000000000000000000000000000000000000000000000000000000000000000000000000000000000000000
#084950:00000053000000005300000000000000
