This file was generated by Ched 2.7.0.0.
#TITLE ""
#ARTIST ""
#DESIGNER ""
#DIFFICULTY 0
#PLAYLEVEL
#SONGID ""
#WAVE ""
#WAVEOFFSET 0
#JACKET ""
#REQUEST "ticks_per_beat 480"
#00002: 4
#BPM01: 185
#00008: 01
#TIL00: ""
#VOLUME: ""
#HISPEED 00
#MEASUREHS 00
#00218:1414
#00212:00140014
#0061a:14
#00614:00140000
#00618:0014
#00612:00000014
#0071a:14
#00714:00140000
#00718:0014
#00712:00000014
#01212:14
#01214:0014
#0121a:00000014
#01218:00240000
#01312:14
#01318:00140000
#01314:0014
#0191a:1414
#01914:00140000
#02012:14
#02018:00140000
#02014:0014
#0201a:00000014
#02112:1414
#02118:00140000
#01514:1414
#01518:00140000
#0161a:14
#01614:00140000
#01618:0014
#01612:00000014
#02312:1414
#02318:00140000
#0241a:14
#02414:00140000
#02418:0014
#02412:00000014
#02612:1414
#02618:00140014
#0281a:1414
#02814:00140014
#00414:1414
#0041a:00140014
#03012:1414
#03018:00140014
#0321a:14000014
#03214:00141400
#03218:0000001400000000
#0341a:14140000
#03414:00001414
#03612:1414
#03618:00140000
#0381a:14
#03814:00140000
#03818:0014
#03812:00000014
#0421a:1414
#04214:00140014
#04210:41
#0431a:14
#04312:0014
#0461a:14
#04612:0014
#04718:14
#04714:0014
#04418:1414
#04514:1414
#0481a:1414
#0501a:14
#05014:00140000
#05018:0014
#05112:14
#05118:00140000
#05114:0014
#05518:14
#0541a:14
#05714:14
#0571f:0011
#05612:14
#06012:1414
#06018:00140014
#06114:1414
#0611a:00140014
#0641a:14
#06418:00140000
#06416:0014
#06414:00000014
#06614:00140000
#06618:0014
#06612:00000014
#0661a:24
#0661f:21
#0671a:1414
#06714:00140000
#06812:14
#06818:00140000
#06814:0014
#0681a:00000014
#06912:1414
#06918:00140000
#06910:41
#0701a:14140000
#07014:00001414
#0711a:1414
#07114:00140000
#07212:14140000
#07218:00001414
#0741a:14140000
#07418:00000014
#07414:0014
#07512:14140000
#07518:0014
#07612:14140000
#07618:0014
#07614:00000014
#0771a:14140000
#07714:0014
#0781a:14
#07814:00140000
#07818:0014
#07812:00000014
#07918:14
#07914:00140000
#0791a:0014
#08612:1414
#08618:00140014
#08610:41
#0881a:1414
#08814:00140014
#09214:1454545454000000
#09012:1454545454000000
#09412:14
#09414:0034343400000000
#0981a:1414
#09814:00140014
#09810:41
#09918:1414
#09912:00140014
#1001a:14
#10014:00140000
#10018:0014
#10012:00000014
#1011a:14
#10114:00140000
#10118:0014
#10112:00000014
#10218:14140000
#10214:00001414
#00912:0026
#01018:26
#01012:0026
#01010:41
#01118:26
#09713:24
#09719:24
#00819:00343434
#02710:41
#00958:16
#01158:0016
#01354:0014
#02152:0014
#0255a:0014
#04159:14
#04153:14
#05558:54
#0545a:64
#05754:64
#05752:0014
#05652:54
#06552:0014
#06952:0014
#07352:0014
#07754:0014
#08252:14
#08558:14
#09454:0014
#09452:64
#09759:14
#09753:14
#10358:0014
#0033a0:14000024
#005320:14000024
#008390:14343434
#009380:26
#011380:1626
#0143a0:1424
#0173a0:1424
#018320:1424
#0223a0:1424
#0253a0:1424
#027320:14000024
#0293a0:14000024
#031320:14000024
#033320:14000024
#0353a0:14000024
#037320:14000024
#0393a0:14000024
#040330:14
#041330:24
#040391:14
#041391:24
#049341:1424
#052381:14
#0523a1:0024
#053341:14
#053321:0024
#0543a1:14
#054381:00003434
#055381:34
#0553a1:0024
#056321:14
#056341:00003434
#057341:34
#057321:0024
#0583a1:1434
#0593a1:3424
#062321:1434
#063321:3424
#065321:1424
#073321:1424
#080321:14
#081341:34
#082321:24
#084381:14
#085381:24
#087321:14000024
#0893a1:14000024
#091381:14000024
#0933a1:14000024
#094321:14
#094341:0034343424000000
#0953a1:14000024
#096331:14
#097331:24
#096390:14
#097390:24
#103380:1424
#104320:0014
#105340:0034
#106320:0024
#090920:140000000000000000000000000000000000000000000000000000000000000000000000000000000000000000000000000000000000000000000000000000000000000000000000000000000000000000000000000000000000000000000000000000000000000000000000000000000000000000000000000000000000000000000000000000000000000000000000000000000000000000000000000000000000000000000000000000000000000000000000000000000000000000000000000000000000000000000000000000000000000000000000000000000000000000000000000000000000000000000000000000000000000000000000000000000000000000000000000000000000000000000000000000000000000000000000000000000000000000000000000000000000000000000000000000000000000000000000000000000000000000000000000000000000000000000000000000000000000000000000000000000000000000000000000000000000000000000000000000000000000000000000000000000000000000000000000000000000000000000000000000000000000000000000000000000000000000000000000000000000000000000000000000000000000000000000000000000000000000000000000000000000000000000000000000000000000000000000000000000000000000000000000000000000000000000000000000000000000000000000000000000000000000000000000000000000000000000000000000000000000000000000000000000000000000000000000000000000000000000000000000000000000000000000000000000000000000000000000000000000000000000000000000000000000000000000000000000000000000000000000000000000000000000000000000000000000000000000000000000000000000000000000000000000000000000000000000000000000000000000000000000000000000000000000000000000000000000000000000000000000000000000000000000000000000000000000000000000000000000000000000000000000000000000000000000000000000000000000000000000000000000000000000000000000000000000000000000000000000000000000000000000000000000000000000000000000000000000000000000000000000000000000000000000000000000000000000000000000000000000000000000000000000000000000000000000000000000000000000000000000000000000000000000000000000000000000000000000000000000054240000000000000000000000000000000000000000000000000000000000000000000000000000000000000000000000000000000000000000000000000000000000000000000000000000000000000000000000000000000000000000000000000000000000000000000000000000000000000000000000000000000000000000000000000000000000000000000000000000000000000000000000000000000000000000000000000000000000000000000000000000000000000000000000000000000000000000000000000000000000000000000000000000000000000000000000000000000000000000000000000000000000000000000000000000000000000000000000000000000000000000000000000000000000000000000000000000000000000000000000000000000000000000000000000000000000000000000000000000000000000000000000000000000000000000000000000000000000000000000000000000000000000000000000000000000000000000000000000000000000000000000000000000000000000000000000000000000000000000000000000000000000000000000000000000000000000000000000000000000000000000000000000000000000000000000000000000000000000000000000000000000000000000000000000000000000000000000000000000000000000000000000000000000000000000000000000000000000000000000000000000000000000000000000000000000000000000000000000000000000000000000000000000000000000000000000000000000000000000000000000000000000000000000000000000000000000000000000000000000000000000000000000000000000000000000000000000000000000000000000000000000000000000000000000000000000000000000000000000000000000000000000000000000000000000000000000000000000000000000000000000000000000000000000000000000000000000000000000000000000000000000000000000000000000000000000000000000000000000000000000000000000000000000000000000000000000000000000000000000000000000000000000000000000000000000000000000000000000000000000000000000000000000000000000000000000000000000000000000000000000000000000000000000000000000000000000000000000000000000000000000000000000000000000000000000000000000000000000000000000000000000000000000000000000000000000000000000000000000000000
#092940:140000000000000000000000000000000000000000000000000000000000000000000000000000000000000000000000000000000000000000000000000000000000000000000000000000000000000000000000000000000000000000000000000000000000000000000000000000000000000000000000000000000000000000000000000000000000000000000000000000000000000000000000000000000000000000000000000000000000000000000000000000000000000000000000000000000000000000000000000000000000000000000000000000000000000000000000000000000000000000000000000000000000000000000000000000000000000000000000000000000000000000000000000000000000000000000000000000000000000000000000000000000000000000000000000000000000000000000000000000000000000000000000000000000000000000000000000000000000000000000000000000000000000000000000000000000000000000000000000000000000000000000000000000000000000000000000000000000000000000000000000000000000000000000000000000000000000000000000000000000000000000000000000000000000000000000000000000000000000000000000000000000000000000000000000000000000000000000000000000000000000000000000000000000000000000000000000000000000000000000000000000000000000000000000000000000000000000000000000000000000000000000000000000000000000000000000000000000000000000000000000000000000000000000000000000000000000000000000000000000000000000000000000000000000000000000000000000000000000000000000000000000000000000000000000000000000000000000000000000000000000000000000000000000000000000000000000000000000000000000000000000000000000000000000000000000000000000000000000000000000000000000000000000000000000000000000000000000000000000000000000000000000000000000000000000000000000000000000000000000000000000000000000000000000000000000000000000000000000000000000000000000000000000000000000000000000000000000000000000000000000000000000000000000000000000000000000000000000000000000000000000000000000000000000000000000000000000000000000000000000000000000000000000000000000000000000000000000000000000000054240000000000000000000000000000000000000000000000000000000000000000000000000000000000000000000000000000000000000000000000000000000000000000000000000000000000000000000000000000000000000000000000000000000000000000000000000000000000000000000000000000000000000000000000000000000000000000000000000000000000000000000000000000000000000000000000000000000000000000000000000000000000000000000000000000000000000000000000000000000000000000000000000000000000000000000000000000000000000000000000000000000000000000000000000000000000000000000000000000000000000000000000000000000000000000000000000000000000000000000000000000000000000000000000000000000000000000000000000000000000000000000000000000000000000000000000000000000000000000000000000000000000000000000000000000000000000000000000000000000000000000000000000000000000000000000000000000000000000000000000000000000000000000000000000000000000000000000000000000000000000000000000000000000000000000000000000000000000000000000000000000000000000000000000000000000000000000000000000000000000000000000000000000000000000000000000000000000000000000000000000000000000000000000000000000000000000000000000000000000000000000000000000000000000000000000000000000000000000000000000000000000000000000000000000000000000000000000000000000000000000000000000000000000000000000000000000000000000000000000000000000000000000000000000000000000000000000000000000000000000000000000000000000000000000000000000000000000000000000000000000000000000000000000000000000000000000000000000000000000000000000000000000000000000000000000000000000000000000000000000000000000000000000000000000000000000000000000000000000000000000000000000000000000000000000000000000000000000000000000000000000000000000000000000000000000000000000000000000000000000000000000000000000000000000000000000000000000000000000000000000000000000000000000000000000000000000000000000000000000000000000000000000000000000000000000000000000000000000000000000
