This file was generated by Ched 2.7.0.0.
#TITLE ""
#ARTIST ""
#DESIGNER ""
#DIFFICULTY 0
#PLAYLEVEL
#SONGID ""
#WAVE ""
#WAVEOFFSET 0
#JACKET ""
#REQUEST "ticks_per_beat 480"
#00002: 4
#BPM01: 210
#00008: 01
#TIL00: ""
#VOLUME: ""
#HISPEED 00
#MEASUREHS 00
#0081a:14
#00914:14
#01018:14
#01112:14
#0121a:14
#01210:41
#01314:14
#01612:14
#01718:14
#01814:14
#0191a:14
#02012:14
#02118:14
#0241a:14
#02410:41
#0251a:14
#02614:14
#02714:14
#02818:14
#02918:14
#03012:14
#03112:14
#04018:14
#04118:14
#04214:14
#04314:14
#0441a:14
#0451a:14
#04612:14
#04712:14
#04710:41
#04819:15
#0481f:11
#04916:0015
#05212:15
#05315:0015
#0561a:14
#05714:14
#05818:14
#05912:14
#0601a:14
#06114:14
#06518:0016
#06512:26
#0651f:21
#06612:16
#06618:0016
#06610:0041
#06918:0016
#06912:16
#07012:16
#07018:0016
#07312:2616
#07418:1616
#07512:16
#07518:0016
#07612:16
#07618:0016
#07712:1616
#07818:1616
#08412:0016
#08518:16
#08512:0016
#08712:16
#08718:0016
#08918:2616
#09012:1616
#09118:16
#09112:0016
#09312:16
#09318:0016
#09518:16
#09512:0016
#00018:26
#00212:26
#00418:26
#00512:26
#00618:2626
#00712:2626
#02214:24
#08118:26
#08112:0026
#08218:26
#08212:0026
#09814:24
#09918:24
#10012:0036363636363636
#10112:36003600360036003636363636363636
#03610:41
#08310:41
#04859:55
#04956:0025
#05252:65
#05355:0025
#000380:16
#001380:0026
#002320:16
#003320:0026
#014380:1400340034003434
#015380:0034340024000000
#022340:1400340034003434
#023340:0034340024000000
#0323a0:14
#033380:34
#0343a0:34
#035380:24
#036320:14
#037340:34
#038320:3400340034003434
#039320:0034340024000000
#048390:15
#049360:0055
#051390:25
#052320:15
#053350:0055
#055320:25
#062380:14
#064380:24
#067320:16362600
#068380:16362600
#071320:16362600
#072380:16362600
#079320:16363636
#080320:26
#083380:16363636
#084380:26
#086380:1626
#088320:1626
#092380:1626
#094320:1626
#096380:16
#097380:26
#100320:1636363636363636
#101320:36003600360036003636363636363636
#102350:36360000
#103350:00260000
