This file was generated by Ched 2.7.0.0.
#TITLE ""
#ARTIST ""
#DESIGNER ""
#DIFFICULTY 0
#PLAYLEVEL
#SONGID ""
#WAVE ""
#WAVEOFFSET 0
#JACKET ""
#REQUEST "ticks_per_beat 480"
#00002: 4
#BPM01: 210
#00008: 01
#TIL00: ""
#VOLUME: ""
#HISPEED 00
#MEASUREHS 00
#00815:00130000
#00818:0000000013000013
#00812:00000013
#0081b:13
#01118:00140000
#01114:1414
#02418:0000000013000013
#02415:00130013
#02410:41
#02515:00130000
#02518:0000001300000000
#0251a:00000014
#02512:0014
#03215:1300000000130000
#03212:00130000
#0321b:13000013
#03218:00131300
#05118:00130000
#0511b:0013
#05112:0013
#05114:24
#05218:0013000000130000
#05215:00130013
#0521b:0000001300000013
#05212:1313
#05418:00130013
#05415:0000000000130000
#0541b:0000000000000013
#05412:2413
#05512:14
#0651b:0013
#06512:00130000
#06515:00001313
#06518:2600130000000013
#0651f:21
#06712:0000130000000013
#0671b:0013
#06715:0000000000130000
#06718:00000013
#0681b:1313000000000000
#06815:0000131300000000
#06818:0013
#07315:0000130000000013
#0731b:00130013
#07312:2413
#07318:0013
#07418:0000001300000000
#07415:0013
#0741b:00000013
#07515:00130013
#07512:0000000013000023
#07518:0000000000130000
#0751b:0013
#07718:00130013
#07715:0000000013000013
#07712:00130013
#0771b:0013
#0771a:24
#07815:00131300
#07818:1300001300000000
#0781b:0013000000002300
#07812:00000023
#07918:0000130000130013
#07915:00001313
#07912:00230000
#0791b:0023
#08118:00130000
#0811b:23001323
#08112:23001323
#08115:0000000000130000
#0821b:1313
#08215:0013000000000000
#08218:00130000
#08212:0000001300000000
#08315:00130000
#08318:0000001300000000
#08312:23000000000000000033330033331300
#0831b:23
#08310:41
#08418:0013
#0841b:00130013
#08412:0000000000130000
#08415:0000001300000013
#0851b:13
#08518:00130023
#08515:0000000000230013
#08615:0000001300000000
#0861b:0013
#08618:00130000
#0871b:1313
#08715:0013000000130000
#08712:0000001300000013
#08718:00130013
#08818:0000000000130013
#08815:00000013
#0881b:0013
#0881a:24
#08812:00240000
#08918:00130013
#08915:0000000000130000
#0891b:2300000023000013
#08912:2323
#09018:0000001300000013
#09012:0013
#0901b:0000000000130000
#09015:00130013
#0911b:0000000000001323
#09112:0013
#09118:0013
#09115:0000000000001323
#09312:1400000000000014
#0931a:00000014
#09316:00000000001400000000000000000000
#01215:0013000000130000
#01218:00130013
#01212:0000001300000013
#0121b:2323
#01210:41
#01612:00140000
#01616:0000000014000014
#0161a:24000014
#02016:00140000
#0201a:24
#02012:00000000000000000034343400000000
#02612:14000000000000000000000000003434
#02616:0014
#03615:0013000013000000
#03618:0000130000130000
#0361b:0000001300000000
#03612:13000013
#03610:41
#0491a:0000000000000014
#06015:00130013
#06018:1313
#0601b:00230023
#06012:2323
#06218:0012001200000012
#06216:12120012
#06214:0012
#0621a:0000000000120000
#06615:0013
#0661b:00000013
#06610:0041
#09218:0013001300000000
#0921a:00000014
#09216:0000000000000014
#09215:00232300
#09612:14
#0961a:14
#09718:0000130000130013
#09715:00001313
#00918:00130000
#00915:0000000013000013
#0091b:00000013
#00912:13
#01015:00130000
#01018:0000000013000013
#01012:00000013
#0101b:13
#01315:0013000000130000
#01318:00130013
#01312:0000001300000013
#0131b:2323
#0171a:00140000
#01716:0000000014000014
#01712:24000014
#01812:00140000
#01816:0000000014000014
#0181a:24000014
#0191a:00140000
#01916:0000000014000014
#01912:24000014
#02116:00140000
#02112:24
#0211a:24000000000000000034343400000000
#02712:14
#02716:0014
#02815:0000000013000013
#02818:00130013
#02918:00130000
#02915:0000001300000000
#02912:00000014
#0291a:0014
#03018:1212
#03016:00120012
#03318:1300000000130000
#0331b:00130000
#03312:13000013
#03315:00131300
#03415:1300000000130000
#03412:00130000
#0341b:13000013
#03418:00131300
#03718:0013000013000000
#03715:0000130000130000
#03712:0000001300000000
#0371b:13000013
#04412:1454
#04416:00540014
#04413:00540000000000540000000000000000
#04414:0054005400000000
#04415:00000054005400000000000000000000
#0451a:1454
#04516:00540014
#04519:00540000000000540000000000000000
#04518:0054005400000000
#04517:00000054005400000000000000000000
#04612:1454
#04616:00540014
#04613:00540000000000540000000000000000
#04614:0054005400000000
#04615:00000054005400000000000000000000
#0471a:1454
#04710:41
#04719:00540000000000540054000000000054
#04718:0054005400540054
#04717:00000054005400000000005400540000
#04716:00540054
#04816:00000014
#04812:14
#0481f:11
#0481a:54
#05312:13
#0531a:0024
#05314:000024
#05318:000000000024
#0561b:0013
#05615:0013
#05616:24
#05712:13
#05718:13
#0571b:0013
#05715:0013
#05812:13
#05818:13
#0581b:0013
#05815:0013
#05912:13
#05918:13
#0591b:0013
#05915:0013
#06115:00130013
#06118:1313
#0611b:00230023
#06112:2323
#06912:0013
#0691b:23130000
#06918:00001313
#06915:0000130000000013
#0711b:0000130000000013
#07112:0013
#07118:0000000000130000
#07115:00000013
#07018:0013
#07012:00000023
#0761b:0013
#07615:0000000000130000
#07618:00000013
#07612:0000000000000013
#0941a:00142400
#09412:0000001400001300
#09418:00000013
#09815:0000130000130013
#09818:00001313
#09812:23
#0981b:23
#09918:0000130000130013
#09915:00001313
#0991b:23
#09912:23
#01418:2424
#01414:00240000
#01412:0000000000002424
#0351b:00230023
#03512:2323
#03518:2323
#03515:00230023
#03918:0026
#03912:0024240000000000
#0001b:23
#00015:23
#0151a:0024240000000000
#01512:0026
#03118:0026
#03112:00000026
#05012:000024
#05018:000000000024
#08012:24
#1021a:00240000
#10212:00240000
#1021b:63
#10216:63
#0951b:2323
#09515:0023000000002300
#09518:0000230000000023
#09512:0000002300000000
#00212:23
#00218:23
#0041b:23
#00415:23
#00512:23
#00518:23
#0061b:23
#00615:23
#00618:0023
#00612:0023
#0071b:23230000
#00715:23230000
#00718:00002323
#00712:00002323
#02214:2424
#02218:00240000
#0221a:0000000000002424
#02312:0024240000000000
#0231b:00000000000000000033333300333333
#03814:24646464640000000000000000000000000000000000000000000000000000002464646464000000000000000000000000000000000000000000000000000000
#03818:00000000000000000000000000000000246464646400000000000000000000000000000000000000000000000000000000000000000000000000000000000000
#0381a:0000000000002424
#10012:23630000
#1001b:23000000000000006363636363000000
#1001a:00630000000000000000000000000000
#10019:0063000000000000
#10018:00000063000000000000000000000000
#10013:00000000006300000000000000000000
#10014:0000006300000000
#10015:00000000000000630000000000000000
#10016:00000000000000006300000063636363
#10017:00630000
#10318:00640000
#10314:00640000
#10116:63
#10115:00630000000000000000000000000063
#10114:0063000000000063
#10113:00000063000000000000000000630000
#10112:00000000630000006363636363000000
#1011b:00630000
#1011a:00000000006300000000000000000063
#10119:0000006300000063
#10118:00000000000000630000000000630000
#10117:00006363
#01158:00140000
#01154:1414
#01552:0016
#02458:0000000000000053
#02552:0014
#0255a:00000014
#02652:54
#02656:0024
#03158:0016
#03152:00000016
#03958:0016
#0495a:0000000000000054
#05552:64
#06558:1600000000000053
#0665b:00000053
#06858:0053
#07355:0000000000000053
#07352:14
#0745b:00000053
#07552:0000000000000053
#08052:54
#08056:00000014
#0825b:0013
#0855b:53
#08558:00230000
#08555:0000000000000063
#0865b:0053
#0895b:0000000000000053
#09058:0000000000000053
#09352:5400000000000054
#09356:00000000002400000000000000000000
#09652:64
#0965a:54
#1025a:00540000
#10252:00640000
#0695b:13
#06955:0000000000000063
#0775a:14
#05656:14
#09255:0013
#02752:54
#02756:0024
#02855:0000000000000063
#02952:00000014
#0295a:0014
#04856:00000054
#04852:54
#06452:00000016
#07052:00000053
#08352:0000000000000053
#0945a:0014
#0003b0:13
#0013b0:00000023
#000351:13
#001351:00000023
#002321:13
#003321:00000023
#002380:13
#003380:00000023
#0043b0:13000023
#004351:13000023
#005321:13000023
#005380:13000023
#020320:00000000000000001434343400000000
#020360:00000024
#0213a0:00000000000000001434343400000000
#021360:00000024
#0233b0:00000000000000001333333300333333
#023380:00000033
#0243b0:23
#024380:0000000000000013
#0253b0:0023000000000000
#026320:14000000000000000000000000003434
#026360:0054
#027320:34
#027360:0054
#028320:24
#028350:0000000000000013
#029320:0023000000000000
#0313a0:12
#031380:0026
#040320:140000003434
#040340:003434340000
#041320:24
#0413a1:140000003434
#041381:003434340000
#0423a1:24
#042340:140000003434
#042320:003434340000
#043340:24
#043381:140000003434
#0433a1:003434340000
#044381:24
#048321:14
#048361:00000034
#049321:0000000000240000
#0493a1:0000000000000014
#050361:0024
#055321:14
#056361:24
#063361:1252525252525252
#063351:00520052005200520052005200520052
#064361:32
#064321:00000026
#065381:0000000000000013
#0663b1:00230000
#0663b1:00000013
#067381:23
#068381:0013
#0693b1:23
#069351:0000000000000013
#070321:00230000
#070321:00000013
#071351:23
#072321:1323000000000000
#072351:0000132300000000
#072381:0000000013230000
#0723b1:0000000000001323
#073351:0000000000000013
#074321:00230000
#0743b1:00000013
#075381:23
#075321:0000000000000013
#076351:00230000
#078321:00000013
#079321:23
#0783b0:00000013
#0793b0:23
#080320:14
#080360:00000000000000003434343424000000
#083320:00000000000000001333330033333300
#083350:00000000000000000000003300000000
#084360:0024000000000000
#0853b0:1323
#085380:00530000
#085350:0000000000000013
#086320:0023000000000000
#0863b0:0013
#086380:00000023
#0893b0:0000000000000013
#090380:0023000000000000
#090380:0000000000000013
#0913b0:00230000
#093320:1400000000240000
#093360:00000000005400000000000000000000
#093320:0000000000000014
#094360:0024000000000000
#096320:14
#097340:24
#0963a1:14
#097381:24
#1023a1:00140000
#103381:54240000
#102320:00140000
#103340:54240000
#038940:14240000000000000000000000000000
#038980:00000000142400000000000000000000
#038940:00000000000000001424000000000000
#044920:1424
#044960:00540000
#0459a0:1424
#045960:00540000
#046920:1424
#046960:00540000
#0479a0:1454
#047960:00540054
#0489a0:24
#1009b0:1353
#100970:00530000
#1019b0:00530000
#101970:00005353
#1029b0:23
#100921:13530000
#100961:0053
#101961:53
#101921:00530053
#102961:23
