This file was generated by Ched 2.7.0.0.
#TITLE ""
#ARTIST ""
#DESIGNER ""
#DIFFICULTY 0
#PLAYLEVEL
#SONGID ""
#WAVE ""
#WAVEOFFSET 0
#JACKET ""
#REQUEST "ticks_per_beat 480"
#00002: 4
#BPM01: 150
#00008: 01
#TIL00: ""
#VOLUME: ""
#HISPEED 00
#MEASUREHS 00
#00014:00140000
#00016:0014
#00018:00000014
#0001a:24
#00012:24
#00113:00140000
#00116:0014
#00119:00000014
#0011a:24
#00112:24
#00212:24140000
#00216:0014
#0021a:24000014
#00418:00001300000000000013001300001300
#00412:00000013000000001300130013000000
#00415:00000000000013000000000000000013
#0041b:00000000000000130000000000000000
#0051b:1300000013131300
#00512:00130000000000130000000000000000
#00518:00000000000013000000000000000013
#00515:00000000000000000013001300001300
#00714:1313000014000000
#00719:00130013000000000000000000000000
#00718:00000000002600260000000014000000
#00712:0000262600000000
#00612:13000000000033330000001300000000
#00618:00130000000000000000130013000000
#00615:00001300130000000013000000000000
#0061b:00000013000000001300000000003333
#00616:0000001400000014
#00613:00000000003300000000000000000000
#0061a:00000000000000000000000000330000
#00815:00001300001300000000000000000000
#00818:00130000000013000000001400001400
#0081b:00000013000000001300000000000000
#00814:00000000000000000000140000140000
#00812:2313
#02017:0016000000000000
#02015:0000001616000000
#02016:00160000
#0201b:0000000000000013
#02012:00000000000000130000000000000000
#02018:26
#02010:41
#01612:2616161616000000
#01618:00000000000000130000000000001300
#01615:00000000000000000000000000000013
#01815:2616161616000000
#01812:00000000000000130000000000000000
#0181b:0000000000000013
#01915:26001600160016001600001600000000
#0191b:0000000000130000
#01712:0000000000000013
#01718:2616161616000000
#01715:00000000000000130000000000000000
#02215:0000001616000013
#02218:26000000000000000000000000000013
#02217:0016000000000000
#02216:00160000
#02212:00000000000000130000000000000000
#02317:00000000000000000000000000140000
#02312:0000000016000014
#0231a:0000000000140000
#02315:00000000000000000000001400000000
#0321a:14141414
#03212:16140000161400001614000016140000
#0401b:00130000
#04014:0013000000000000
#04016:2400130000000013
#04019:0000001300000000
#04017:0013
#04012:1313
#0401f:11
#04116:1313
#0411b:1313
#04112:00130000
#04119:0013000000000000
#04117:0000130000000013
#04114:0000001300000000
#04217:1313
#04212:1313
#0421b:0000130000000013
#04214:0013000000000000
#04216:00130000
#04219:0000001300000000
#04316:1313
#04312:00130000
#04318:0000000000000013
#0431b:0013000013000000
#04317:00130000
#04319:0000001300000000
#04415:0013000000000013
#04418:00000013000000000000000000000013
#0441b:2300001300001300
#04414:00000000000000000013000000000000
#04419:0000000000130000
#04416:00000000000000000000001300000000
#04412:13000000000000130000000000000000
#04417:0023
#04515:00000000000000000000000000000013
#04518:0000000000000013
#04512:2300001300001300
#0451b:00130000000000130000000000000000
#04519:00000000000000000013000000000000
#04514:0000000000130000
#04517:00000000000000000000001300000000
#04516:0023
#04712:1313000056000000
#0471b:2323230000000000
#04718:0066
#04816:00000014000000000000000000000000
#0481b:0000000000130000
#04818:00000013
#04815:0000000000000013
#04812:1400000000130000
#0481a:24000014000000000000000000000000
#0481f:21
#04810:0000004100000000
#04916:00000014000000000000000000000000
#0491a:14
#04912:24000014000000000000130000000000
#04915:00000013
#04918:0000000000000013
#0491b:0000000000130000
#05216:24000014000014000000000000001300
#0521a:14
#05212:00000014000000000000130000000000
#05214:00000013
#05217:0000000000130000
#05219:00000013
#0521b:0000000000000013
#05316:24000014000014000000230000000000
#05312:1400000000000023
#0531a:00000014000000000000000000000000
#0531b:0000000000230000
#05319:00000023
#05317:0000000000000023
#05314:00000023
#0561a:1400001400240000
#05612:24000014000000000000000000000000
#05614:0000000000240000
#05616:00000024
#05618:0000000000000024
#05912:14141414
#0591a:14140014
#05916:0014001400140014
#0621a:0000001414001414
#06212:00000000000000000000000000140014
#06418:0000000000000013
#06415:00000000000000000000000000000013
#06413:2a
#06518:2600001616001600
#06515:00000026000000000000000000000000
#06512:0000002626002600
#00915:00001300001300000000130000000000
#00918:00130000000013000000001300000000
#0091b:00000013000000001300000000000000
#00912:1313
#00910:41
#01018:00001300001300000000140000140000
#01015:00130000000013000000000000000000
#01012:00000013000000001300000000000000
#01014:00000000000000000000001400001400
#0101b:2313
#01118:00001300001300000000000000000000
#01115:00130000000013000000000000000000
#01112:00000013000000001300000000000000
#0111b:13
#01212:00130000000000001300000000000000
#01218:00001300000013000000001400140000
#01215:00000013001300000000000000000000
#01214:0000000000140014
#0121b:23232300
#01517:00000000000000000013000000000000
#01514:0000000000130000
#01519:00000000000000000000001300000000
#0151b:00130000000000000000000000130000
#01515:0013001300000013
#01516:00000013
#01518:00000013001300000000000000000013
#01512:23232300
#02113:0016000000000000
#02115:0000001600000000
#02114:00160000
#0211b:00000000000000130000000000000000
#02112:26
#02415:00001300000000130000001300000000
#02418:00000013000013000000130000000000
#0241b:0013
#02412:00000000240000000013000000130013
#02417:0000000000000013
#0241a:24000024
#02518:0000000000000013
#02515:00000000000000000000000000000013
#02512:00240000
#0251a:00000024
#02615:0000001300130000
#02612:00001324
#0261b:00000000000000000013000000130013
#02618:00000000000000130000001300000000
#02616:0000000000000013
#0261a:00240000
#02717:0000000000000013
#0271a:00240000
#02712:00000024
#02816:00140014
#02818:0014001400140014
#0281a:2414
#02812:24242424
#02914:0014001400140014
#02916:00140014
#02912:2414
#0291a:24242424
#0301a:1414000024242424
#03016:0000141400001414
#03012:2424242414140000
#03010:41
#0311a:1414000000000000
#03118:0000262614000000
#03114:00000014
#03112:24002400002600260000000000000000
#0501a:24000014000000000000001400000000
#05016:00000014000000001400001400000000
#05012:1424
#05116:00000014000000000000130000000000
#05119:00000013
#05117:0000000000000013
#0511b:0000000000130000
#05114:00000013
#05112:1400000000000013
#05112:0000000000000013
#0511a:24000014000000000000000000000000
#05416:14
#0541a:14000000000000000000001400001400
#05412:00000014000014001400000000000000
#05518:0000000000140000
#05516:00000014000014000000000014000000
#05514:0000000000000014
#0551a:1414
#05512:0014
#07212:00140014001400140000001400000014
#07216:00002400000024000014000000140000
#0721a:2400240024242424
#00313:00140000
#00319:00140000
#0031a:24
#00312:24
#00315:0023
#00318:0023
#05718:0000000000140000
#05712:2400002400140000
#05716:00000014
#05714:0000000000000014
#0571a:24000024000000000000000000000000
#05816:00000014000014000000001400001400
#05812:14
#0581a:0014
#06016:0000001400000014
#06012:00141400
#0601a:14000000000000002400002400002400
#06014:00000000000000000000001400000000
#07313:00140000000000000000000000000000
#07314:00000014000000000000000000000000
#07315:00000000001400000000000000000000
#07316:24000000000000140000001400000014
#07312:0000000000000000000000000000000000000000140000002464646464000000
#0731a:0000000000000000000000000000000024646464640000000000000014000000
#07317:0024000000000000
#07318:00240000
#07319:0000002400000000
#01312:00130000000000001300000000000000
#01318:0013001300130000
#01315:00000013001300000000001300000000
#0131b:23232300
#0141b:00130000000000001300000000000000
#01415:0013001300000000
#01418:00000013001300000000140000001400
#01414:00000000000000000000001400140000
#01412:23232300
#03312:00141414
#0331a:00140000001400000014000000140000
#03318:16161616
#0381a:14141414
#03816:000000140000000000000000540000145454540000000000
#03812:14
#03813:00000000005400000000000000000000
#03814:0000005400000000
#03815:00000000000000540000000000000000
#03912:14141414
#0391a:14141400
#03915:0024000000240000
#03917:0000002400000000
#03910:41
#04615:00000000000000130000000000000013
#04614:00000000001300000000000000130000
#04613:00000013000000000000001300000000
#04612:00130000000000000013000000000000
#0461a:0013000000130000
#04618:0000001300000013
#0461b:2323
#04619:00230023
#06112:14000014000014001400000000000000
#0611b:00000013
#0611a:24
#06118:00000024000000000000000000000000
#06116:0000002424000000
#07015:00130000001300130000000000000000
#07018:0013001300140014
#07012:00000013000000001300000000000000
#07014:00000000000000000000001400140000
#0701b:23232323
#0701b:23
#0741a:14
#07118:00130000001300130000001400140000
#07115:0013001300000000
#0711b:00000013000000001300000000000000
#07114:0000000000140014
#07112:23232323
#07112:23
#03716:0000000000000014
#0371a:000000000000140000000000145454545454540000000000
#03712:000000000000000000000000545454545454540000000000
#03418:00000000145454000000000000000000
#03416:0000000000000024
#03412:00540000000000000000000000000000
#03612:00141414
#0351a:14141414
#06918:00000013000000000000000000000000
#06915:0013000000000000
#0691b:00130000001300000000000000000000
#06916:0000001300000000
#06912:23232300
#06912:0023
#06818:00000013000000000000140000001400
#06815:0013000000000000
#0681b:00130000001300001300000000000000
#0681b:0013
#06816:0000001300000000
#06814:00000000000000000000001400140000
#06812:23232300
#06812:0023
#06715:00000013000000000000001300001300
#06718:0013000000130000
#06712:00130000001300001300000000000000
#06717:0000001300000000
#0671b:23232300
#0671b:0023
#06615:00000013000000000000000000000000
#06618:00001300000000000000001400140000
#06612:00130000001300001300000000000000
#06612:0013
#06617:0000001300000000
#06614:0000000000140014
#0661b:23232300
#0661b:0023
#06310:41
#0005a:14
#00452:16000013
#00458:16
#0055b:00000013
#00754:0034
#00758:00000044
#00655:00530000
#00658:00000063
#02055:0056
#02058:00000000000000000000001600000000
#01652:0066
#01655:00000000000000000000001600000000
#01855:0066
#01858:00000000000000000000001600000000
#01955:00000000000000000000005600000000
#01952:0000000000000016
#02152:0000000000000014
#0215a:0000000000000014
#0245a:14
#0325a:14
#03252:56240000562400005624000056240000
#04057:0063
#04052:0063
#04056:14000000000000000000001300000000
#0405b:00000000000000000000001300000000
#04156:0053
#0415b:0053
#04157:00000000000000000000001300000000
#04152:00000000000000000000001300000000
#04257:0063
#04252:0063
#04256:00000000000000000000001300000000
#0425b:00000000000000000000001300000000
#04356:5353
#04352:00000000630000000000001300000000
#0435b:0053
#04357:00000000000000000000001300000000
#0485a:14000054000000000000000000000000
#04852:5400001400000000
#04856:00000054000014000000000000000000
#04956:00000064000014000000000000000000
#0495a:6400001400000000
#04952:14000064000000000000000000000000
#05256:14000064000014000000000000000000
#0525a:6400001400000000
#05356:14000054000014000000000000000000
#05352:5400001400000000
#0565a:5400001400000000
#05652:14000054000000000000000000000000
#05656:0000001400000000
#05752:5400001400000000
#0575a:14000054000000000000000000000000
#05756:0000001400000000
#01758:0056
#01755:00000000000000000000001600000000
#02255:0056
#02258:00000000000000000000001600000000
#02852:14
#0295a:14
#03154:00000034
#03158:0044
#05152:6400001400000000
#05156:00000054000014000000000000000000
#0515a:00000054000000000000000000000000
#05456:1414
#0545a:54
#05452:0064
#05056:00000054000000006400000000000000
#05052:64
#0505a:00000000000000000000005400000000
#05852:14
#0585a:0014
#05856:00000024000000000000002400000000
#06453:1a
#03856:00000014
#05556:14000024000000000000000000000000
#0555a:54
#0605a:64
#0595a:64640000
#05956:0024002400240024
#05952:00005454
#0625a:0014
#06252:0014
#0745a:14
#06552:00000056
#0335a:00240000002400000024000000240000
#03358:66666666
#0445b:00000013
#04552:00000013
#003350:000000000000000000000000000000000000000000000000000000000000000000000000000000000000000000000000000000000000000000000000000000000000000000000000000000000000000000000000000000000000000000000000000000000000000000000000000000000000000000000000000000000000000000000000000000000000000000000000000000000000000000000000000000000000000000000000000000000000000000000000000000000000000000000000000000000000000000000000000000000000000000000000000000000000000000000000000000000000000000000000000000000000000000000000000000000000000000000000000000000000000000000000000000000000000000000000000000000000000000000000000000000000000000000000000000000000000000000000000000000000000000000000000000000000000000000000000000000000000000000000000000000000000000000000000000000000000000000000000000000000000000000000000000000000000000000000000000000000000000000000000000000000000000000000000000000000000000000000000000000000000000000000000000000000000000000000000000000000000000000000000000000000000000000000000000000000000000000000000000000000000000000000000000000000000000000000000000000000000000000000000000000000000000000000000000000000000000000000000000000000000000000000000000000000000000000000000000000000000000000000000000000000000000000000000000000000000000000000000000000000000000000000000000000000000000000000000000000000000000000000000000000000000000000000000000000000000000000000000000000000000000000000000000000000000000000000000000000000000000000000000000000000000000000000000000000000000000000000000000000000000000000000000000000000000000000000000000000000000000000000000000000000000000000000000000000000000000000000000000000000000000000000000000000000000000000000000000000000000000000000000000000000000000000000000000000000000000000000000000000000000000000000000000000000000000000000000000000000000000000000000000000000000000000000000000000000000000000000000000000000000000000000000000000000000000000000000000000000000000000000130000000000000000000000000000000000000000000000000000000000000000000000000000000000000000000000000000000000000000000000000000000000000000000000000000000000000000000000000000000000000000000000000000000000000000000000000000000000000000000000000000000000000000000000000000000000000000000000000000000000000000000000000000000000000000000000000000000000000000000000000000000000000000000000000000000000000000000000000000000000000000000000000000000000000000000000000000000000000000000000000000000000000000000000000000000000000000000000000000000000000000000000000000000000000000000000000000000000000000000000000000000000000000000000000000000000000000000000000000000000000000000000000000000000000000000000000000000000000000000000330000000000000000000000000000000000000000000000000000000000000000000000000000000000000000000000000000000000000000000000000000000000000000000000000000000000000000000000000000000000000000000000000000000000000000000000000000000000000000000000000000000000000000000000000000000000000000000000000000000000000000000000000000000000000000000000000000000000000000000000000000000000000000000000000000000000000000000000000000000000000000000000000000000000000000000000000000000000000000000053000000000000000000000000000000000000000000000000000000000000000000000000000000000000000000000000000000000000000000000000000000000000000000000000000000000000000000000000000000000000000000000000000000000000000000000000000000000000000000000000000000000000000000000000000000000000000000000000000000000000000000000000000000000000000000000000000000000000000000000000000000000000000000000000000000000000000000000000000000000000000000000000000000000000000000000000000000000000000000000000000000000000000000000000000000000000000000000000000000000000000000000000000000000000000000000000000000000000000000000000000000000000000000000000000000000000000000000000000000000000000000000000000000000000000000000000000000000000000000000000
#003340:000000000000000000000000000000000000000000000000000000000000000000000000000000000000000000000000000000000000000000000000000000000000000000000000000000000000000000000000000000000000000000000000000000000000000000000000000000000000000000000000000000000000000000000000000000000000000000000000000000000000000000000000000000000000000000000000000000000000000000000000000000000000000000000000000000000000000000000000000000000000000000000000000000000000000000000000000000000000000000000000000000000000000000000000000000000000000000000000000000000000000000000000000000000000000000000000000000000000000000000000000000000000000000000000000000000000000000000000000000000000000000000000000000000000000000000000000000000000000000000000000000000000000000000000000000000000000000000000000000000000000000000000000000000000000000000000000000000000000000000000000000000000000000000000000000000000000000000000000000000000000000000000000000000000000000000000000000000000000000000000000000000000000000000000000000000000000000000000000000000000000000000000000000000000000000000000000000000000000000000000000000000000000000000000000000000000000000000000000000000000000000000000000000000000000000000000000000000000000000000000000000000000000000000000000000000000000000000000000000000000000000000000000000000000000000000000000000000000000000000000000000000000000000000000000000000000000000000000000000000000000000000000000000000000000000000000000000000000000000000000000000000000000000000000000000000000000000000000000000000000000000000000000000000000000000000000000000000000000000000000000000000000000000000000000000000000000000000000000000000000000000000000000000000000000000000000000000000000000000000000000000000000000000000000000000000000000000000000000000000000000000000000000000000000000000000000000000000000000000000000000000000000000000000000000000000000000000000000000000000000000000000000000000000000000000000000000000000000000000000000000000000000000000000000000000000000000000000000000000000000000000000000000000000000000000000000000000000000000000000000000000000000000000000000000000000000000000000000000000000000000000000000000000000000000000000000000000000000000000000000000000000000000000000000000000000000000000000000000000000000000000000000000000000000000000000000000000000000000000000000000000000000000000000000000000000000000000000000000000000000000000000000000000000000000000000000000000000000000000000000000000000000000000000000000000000000000000000000000000000000000000000000000000000000000000000000000000000000000000000000000000000000000000000000000000000000000000000000000000000000000000000000000000000000000000000000000000000000000000000000000000000000000000000000000000000000000000000000000000000000000000000000000000000000000000000000000000000000000000000000000000000000000000000000000000000000000000000000000000000000000000000000000000000000000000000000000000000000000000000000000000000000000000000000000000000000000000000000000000000000000000000000000000000000000000000000000000000000000000000000000000000000000000000000000000000000000000000000000000000000000000000000000000000000000000000000000000000000000000000000340000000000000000000000000000000000000000000000000000000000000000000000000000000000000000000000000000000000000000000000000000000000000000000000000000000000000000000000000000000000000000000000000000000000000000000000000000000000000000000054000000000000000000000000000000000000000000000000000000000000000000000000000000000000000000000000000000000000000000000000000000000000000000000000000000000000000000000000000000000000000000000000000000000000000000000000000000000000000000000000000000000000000000000000000000000000000000000000000000000000000000000000000000000000000000000000000000000000000000000000000000000000000000000000000000000000000000000000000000000000000000000000000000000000000000000000000000000000000000000000
#003330:000000000000000000000000000000000000000000000000000000000000000000000000000000000000000000000000000000000000000000000000000000000000000000000000000000000000000000000000000000000000000000000000000000000000000000000000000000000000000000000000000000000000000000000000000000000000000000000000000000000000000000000000000000000000000000000000000000000000000000000000000000000000000000000000000000000000000000000000000000000000000000000000000000000000000000000000000000000000000000000000000000000000000000000000000000000000000000000000000000000000000000000000000000000000000000000000000000000000000000000000000000000000000000000000000000000000000000000000000000000000000000000000000000000000000000000000000000000000000000000000000000000000000000000000000000000000000000000000000000000000000000000000000000000000000000000000000000000000000000000000000000000000000000000000000000000000000000000000000000000000000000000000000000000000000000000000000000000000000000000000000000000000000000000000000000000000000000000000000000000000000000000000000000000000000000000000000000000000000000000000000000000000000000000000000000000000000000000000000000000000000000000000000000000000000000000000000000000000000000000000000000000000000000000000000000000000000000000000000000000000000000000000000000000000000000000000000000000000000000000000000000000000000000000000000000000000000000000000000000000000000000000000000000000000000000000000000000000000000000000000000000000000000000000000000000000000000000000000000000000000000000000000000000000000000000000000000000000000000000000000000000000000000000000000000000000000000000000000000000000000000000000000000000000000000000000000000000000000000000000000000000000000000000000000000000000000000000000000000000000000000000000000000000000000000000000000000000000000000000000000000000000000000000000000000000000000000000000000000000000000000000000000000000000000000000000000000000000000000000000000000000000000000000000000000000000000000000000000000000000000000000000000000000000000000000000000000000000000000000000000000000000000000000000000000000000000000000000000000000000000000000000000000000000000000000000000000000000000000000000000000000000000000000000000000000000000000000000000000000000000000000000000000000000000000000000000000000000000000000000000000000000000000000000000000000000000000000000000000000000000000000000000000000000000000000000000000000000000000000000000000000000000000000000000000000000000000000000000000000000000000000000000000000000000000000000000000000000000000000000000000000000000000000000000000000000000000000000000000000000000000000000000000000000000000000000000000000000000000000000000000000000000000000000000000000000000000000000000000000000000000000000000000000000000000000000000000000000000000000000000000000000000000000000000000000000000000000000000000000000000000000000000000000000000000000000000000000000000000000000000000000000000000000000000000000000000000000000000000000000000000000000000000000000000000000000000000000000000000000000000000000000000000000000000000000000000000000000000000000000000000000000000000000000000000000000000000000000000000000000000000000000000000000000000000000000000000000000000000000000000000000000000000000000000000000000000000000000000000000000000000000000000000000000000000000000000000000000000000000000000000000000000000000000000000000000000000000000000000000000000350000000000000000000000000000000000000000000000000000000000000000000000000000000000000000000000000000000000000000000000000000000000000000000000000000000000000000000000000000000000000000000000000000000000000000000000000000000000000000000055000000000000000000000000000000000000000000000000000000000000000000000000000000000000000000000000000000000000000000000000000000000000000000000000000000000000000000000000000000000000000000000000000000000000000000000000000000000000000000000000
#003320:00000000000000000000000000000036
#004320:26
#003381:000000000000000000000000000000000000000000000000000000000000000000000000000000000000000000000000000000000000000000000000000000000000000000000000000000000000000000000000000000000000000000000000000000000000000000000000000000000000000000000000000000000000000000000000000000000000000000000000000000000000000000000000000000000000000000000000000000000000000000000000000000000000000000000000000000000000000000000000000000000000000000000000000000000000000000000000000000000000000000000000000000000000000000000000000000000000000000000000000000000000000000000000000000000000000000000000000000000000000000000000000000000000000000000000000000000000000000000000000000000000000000000000000000000000000000000000000000000000000000000000000000000000000000000000000000000000000000000000000000000000000000000000000000000000000000000000000000000000000000000000000000000000000000000000000000000000000000000000000000000000000000000000000000000000000000000000000000000000000000000000000000000000000000000000000000000000000000000000000000000000000000000000000000000000000000000000000000000000000000000000000000000000000000000000000000000000000000000000000000000000000000000000000000000000000000000000000000000000000000000000000000000000000000000000000000000000000000000000000000000000000000000000000000000000000000000000000000000000000000000000000000000000000000000000000000000000000000000000000000000000000000000000000000000000000000000000000000000000000000000000000000000000000000000000000000000000000000000000000000000000000000000000000000000000000000000000000000000000000000000000000000000000000000000000000000000000000000000000000000000000000000000000000000000000000000000000000000000000000000000000000000000000000000000000000000000000000000000000000000000000000000000000000000000000000000000000000000000000000000000000000000000000000000000000000000000000000000000000000000000000000000000000000000000000000000000000000000000000000000000000130000000000000000000000000000000000000000000000000000000000000000000000000000000000000000000000000000000000000000000000000000000000000000000000000000000000000000000000000000000000000000000000000000000000000000000000000000000000000000000000000000000000000000000000000000000000000000000000000000000000000000000000000000000000000000000000000000000000000000000000000000000000000000000000000000000000000000000000000000000000000000000000000000000000000000000000000000000000000000000000000000000000000000000000000000000000000000000000000000000000000000000000000000000000000000000000000000000000000000000000000000000000000000000000000000000000000000000000000000000000000000000000000000000000000000000000000000000000000000000000330000000000000000000000000000000000000000000000000000000000000000000000000000000000000000000000000000000000000000000000000000000000000000000000000000000000000000000000000000000000000000000000000000000000000000000000000000000000000000000000000000000000000000000000000000000000000000000000000000000000000000000000000000000000000000000000000000000000000000000000000000000000000000000000000000000000000000000000000000000000000000000000000000000000000000000000000000000000000000000053340000000000000000000000000000000000000000000000000000000000000000000000000000000000000000000000000000000000000000000000000000000000000000000000000000000000000000000000000000000000000000000000000000000000000000000000000000000000000000000054350000000000000000000000000000000000000000000000000000000000000000000000000000000000000000000000000000000000000000000000000000000000000000000000000000000000000000000000000000000000000000000000000000000000000000000000000000000000000000000055360000000000000000000000000000000000000000000000000000000000000000000000000000000000000000000000000000000000000000000000000000000000000000000000000000000000000000000000000000000000000000000000000000000000000000000000000000000000000000000000
#004381:26
#004381:0000132300000000
#005381:0013230000000000
#005350:0000132300000000
#006350:00130000
#006330:00000000003300000000000000000000
#006320:00000000000033332300000000000000
#006380:00000013
#0063a0:00000000000000000000000000330000
#0063b0:00000000000000000000000000003333
#0073b0:23
#009360:00000013
#009350:00000000000000000000000000330000
#009340:0000000000000033
#009330:00000000000000000000000000000033
#010320:23
#011370:0013
#011380:00000000000000000033000000000000
#011390:0000000000330000
#0113a0:00000000000000000000003300000000
#0113b0:00000023
#011361:00000013
#011351:00000000000000000000000000330000
#011341:0000000000000033
#011331:00000000000000000000000000000033
#012321:23
#0133b1:00000013
#0133a1:00000000000000000000000000330000
#013391:0000000000000033
#013381:00000000000000000000000000000033
#014371:23
#016321:0016
#016351:00000000000000000000002600000000
#017381:0016
#017351:00000000000000000000002600000000
#018351:0016
#018381:00000000000000000000002600000000
#019351:00000000000000000000001600000000
#019321:0000000000000026
#020351:0016
#020381:00000000000000000000002600000000
#021351:0016
#021321:00000000000000000056000000002400
#021380:00000000000000000000001600000000
#0213a0:0000000000000024
#022350:0016
#022380:00000000000000000000002600000000
#023350:1323000000000000
#023381:0014240000000000
#023330:0000152500000000
#023381:0000001626000000
#025371:1323
#025381:00330000000000330000000000000000
#025391:0033003300000000
#0253a1:00000033003300000000000000000000
#0253b1:00330000
#025320:0013
#025330:00000000000000000033000000000000
#025340:0000000000330000
#025350:00000000000000000000003300000000
#025360:00000023
#026380:1626000000000000
#026321:0016260000000000
#027361:1323
#027351:00330000000000330000000000000000
#027341:0033003300000000
#027331:00000033003300000000000000000000
#027321:00330000
#0273b0:0013
#0273a0:00000000000000000033000000000000
#027390:0000000000330000
#027380:00000000000000000000003300000000
#027370:00000023
#032320:16540000365400003654000036540000
#033320:26
#033381:16363636
#0333a1:00540000005400000054000000540000
#034381:26
#034320:1454240000000000000000000000000000000000000000000000000000000000
#034330:00540054000000000000000000000000000000000000000000000000000000000000000000000000000000000000000000000000000000000000000000000000
#034320:000000000000000000000000145454345555260000000000
#034330:000000000000000000000000000000000000000000000000005400540054005500550055000000000000000000000000
#0343a1:000000000000000000000000145454340000000000000000
#034391:000000000000000000000000000000000000000000000000005400540054000055005500000000000000000000000000
#034381:000000000000000000000000000000000000000000000000000000000000005500550055260000000000000000000000
#035321:14540000000054003454000000005400
#035361:00005400345400000000540034540000
#036321:24
#0363a0:14540000000054003454000000005400
#036360:00005400345400000000540034540000
#0373a0:24
#037321:14540000000054002400000000000000
#037361:00005400345400000000000000000000
#038321:000000000000000000000000000000000000000000000000000000000000000000000000000000000000000000000000000000000000000000000000000000000000000000000000000000000000000000000000000000000000000000000000000000000000000000000000000000000000000000000000000000000000000000000000000000000000000000000000000000000000000000000000000000000000000000000000000000000000000000000000000000000000000000000000000000000000000000000000000000000000000000000000000000000000000000000000000000000000000000000000140000000000000000000000000000000000000000000000000000000000000000000000000000000000000000000054000000000000000000000000000000000000000000000000000000000000000000000000000000000000000000000000000000000000000000000000000000000000000000000000000000000000000000000000000000000000000000000000000000000000000000000000000000000000000000000000000000000000000000000000000000000000000000000000000000000000000000000000000000000000000000000000000000000000000000000000000000000000000000000000000000000000000000000000000000000000000000000000000000000000000000000000000000000000000000000000000000000000000000000000000000000000000000000000000000000000000000000000000000000000000000000000000000000000000000000000000000000000000000000000000000000000000000000000000000000000000000000000000000000000000000000000000000000000000000000000000000000000000000000000000000000000000000000000000000000000000000000000000000000000000000000000000000000000000000000000000000000000000000000000000000000000000000000000000000000000000000000000000000000000000000000000000000000000000000000000000000000000000000000000000000000000000000000000000000000000000000000000000000000000000000000000000000000000000000000000000000000000000000000000000000000000000000000000000000000000000000000000000000000000000000000000000000000000000000000000000000000000000000000000000000000000000000000000000000000000000000000000000000000000000000000000000000000000000000000000000000000000000000000000
#038331:000000000000000000000000000000000000000000000000000000000000000000000000000000000000000000000000000000000000000000000000000000000000000000000000000000000000000000000000000000000000000000000000000000000000000000000000000000000000000000000000000000000000000000000000000000000000000000000000000000000000000000000000000000000000000000000000000000000000000000000000000000000000000000000000000000000000000000000000000000000000000000000000000000000000000000000000000000000000000000000000000000000000000000000000000000000000000000000000000000000000000000000000000000000000000000000000000000000000000000000000000000000000000000000000000000000000000000000000000000000000000000000000000000000000000000000000000000000000000000000000000000000000000000000000000000000000000000000000000000000000000000000000000000000000000000000000000000000000000000000000000000000000000000000000000000000000000000000000000000000000000000000000000000000000000000000000000000000000000000000000000000000000000000000000000000000000000000000000000000000000000000000000000000000000000000000000000000000000000000000000000000000000000000000000000000000000000000000000000000000000000000000054000000000000000000000000000000000000000000000000000000000000000000000000000000000000000000000000000000000000000000000000000000000000000000000000000000000000000000000000000000005400000000000000000000000000000000000000000000000000000000000000000000000000000000000000000000000000000000000000000000000000000000000000000000000000000000000000000000000000000000000000000000000000000000000000000000000000000000000000000000000000000000000000000000000000000000000000000000000000000000000000000000000000000000000000000000000000000000000000000000000000000000000000000000000000000000000000000000000000000000000000000000000000000000000000000000000000000000000000000000000000000000000000000000000000000000000000000000000000000000000000000000000000000000000000000000000000000000000000000000000000000000000000000000000000000000000000000000000000000000000000000000000000000000000000000000000000000000000000000000000000000000000000000000000000000000000000000000000000000000000000000000000000000000000000000000000000000000000000000000000000000000000000000000000000000000000000000000000000000000000000000000000000000000000000000000000000000000000000000000000000000000000000000000000000000000000000000000000000000000000000000000000000000000000000000000000000000000000000000000000000000000000000000000000000000000000000000000000000000000000000000000000000000000000000000000000000000000000000000000000000000000000000000000000000000000000000000000000000000000000000000000000000000000000000000000000000000000000000000000000000000000000000000000000000000000000000000000000000000000000000000000000000000000000000000000000000000000000000000000000000000000000000000000000000000000000000000000000000000000000000000000000000000000000000000000000000000000000000000000000000000000000000000000000000000000000000000000000000000000000000000000000000000000000000000000000000000000000000000000000000000000000000000000000000000000000000000000000000000000000000000000000000000000000000000000000000000000000000000000000000000000000000000000000000000000000000000000000000000000000000000000000000000000000000000000000000000000000000000000000000000000000000000000000000000000000000000000000000000000000000000000000000000000000000000000000000000000000000000000000000000000000000000000000000000000000000000000000000000000000000000000000000000000000000000000000000000000000000000000000000000000000000000000000000000000000000000000000000000000000000000000000000000000000000000000000000000000000000000000000000000000000000000000000000000000000000000000000000000000000000000000000000000000000000000000000000000000000000000000000000000000000000000000000000000000000000000000000000000000000000000000000000000000000000000000000000000000000000
#038341:000000000000000000000000000000000000000000000000000000000000000000000000000000000000000000000000000000000000000000000000000000000000000000000000000000000000000000000000000000000000000000000000000000000000000000000000000000000000000000000000000000000000000000000000000000000000000000000000000000000000000000000000000000000000000000000000000000000000000000000000000000000000000000000000000000000000000000000000000000000000000000000000000000000000000000000000000000000000000000000000000000000000000000000000000000000000000000000000000000000000000000000000000000000000000000000000000000000000000000000000000000000000000000000000000000000000000000000000000000000000000000000000000000000000000000000000000000000000000000000000000000000000000000000000000000000000000000000000000000000000000000000000000000000000000000000000000000000000000000000000000000000000000000000000000000000000000000000000000000000000000000000000000000000000000000000000000000000000000000000000000000000000000000000000000000000000000000000000000000000000000000000000000000000000000000000000000000000000000000000000000000000000000000000000000000000000000000000000000000000000000000000000000000000000000000000000000000000000000000000000000000000000000000000000000000000000000000000000000000000000000000000000000000000000000000000000000000000000000000000000000000000054000000000000000000000000000000000000000000000000000000000000000000000000000000000000000000000000000000000000000000000000000000000000000000000000000000000000000000000000000000000000000000540000000000000000000000000000000000000000000000000000000000000000000000000000000000000000000000000000000000000000000000000000000000000000000000000000000000000000000000000000000000000000000000000000000000000000000000000000000000000000000000000000000000000000000000000000000000000000000000000000000000000000000000000000000000000000000000000000000000000000000000000000000000000000000000000000000000000000000000000000000000000000000000000000000000000000000000000000000000000000000000000000000000000000000000000000000000000000000000000000000000000000000000000000000000000000000000000000000000000000000000000000000000000000000000000000000000000000000000000000000000000000000000000000000000000000000000000000000000000000000000000000000000000000000000000000000000000000000000000000000000000000000000000000000000000000000000000000000000000000000000000000000000000000000000000000000000000000000000000000000000000000000000000000000000000000000000000000000000000000000000000000000000000000000000000000000000000000000000000000000000000000000000000000000000000000000000000000000000000000000000000000000000000000000000000000000000000000000000000000000000000000000000000000000000000000000000000000000000000000000000000000000000000000000000000000000000000000000000000000000000000000000000000000000000000000000000000000000000000000000000000000000000000000000000000000000000000000000000000000000000000000000000000000000000000000000000000000000000000000000000000000000000000000000000000000000000000000000000000000000000000000000000000000000000000000000000000000000000000000000000000000000000000000000000000000000000000000000000000000000000000000000000000000000000000000000000000000000000000000000000000000000000000000000000000000000000000000000000000000000000000000000000000000000000000000000000000000000000000000000000000000000000000000000000000000000000000000000000000000000000000000000000000000000000000000000000000000000000000000000000000000000000000000000000000000000000000000000000000000000000000000000000000000000000000000000000000000000000000000000000000000000000000000000000000000000000000000000000000000000000000000000000000000000000000000000000000000000000000000000000000000000000000000000000000000000000000000000000000000000000000000000000000000000000000000000000000000000000000000000000000000000000000000000000000000000000000000
#038351:000000000000000000000000000000000000000000000000000000000000000000000000000000000000000000000000000000000000000000000000000000000000000000000000000000000000000000000000000000000000000000000000000000000000000000000000000000000000000000000000000000000000000000000000000000000000000000000000000000000000000000000000000000000000000000000000000000000000000000000000000000000000000000000000000000000000000000000000000000000000000000000000000000000000000000000000000000000000000000000000000000000000000000000000000000000000000000000000000000000000000000000000000000000000000000000000000000000000000000000000000000000000000000000000000000000000000000000000000000000000000000000000000000000000000000000000000000000000000000000000000000000000000000000000000000000000000000000000000000000000000000000000000000000000000000000000000000000000000000000000000000000000000000000000000000000000000000000000000000000000000000000000000000000000000000000000000000000000000000000000000000000000000000000000000000000000000000000000000000000000000000000000000000000000000000000000000000000000000000000000000000000000000000000000000000000000000000000000000000000000000000000000000000000000000000000000000000000000000000000000000000000000000000000000000000000000000000000000000000000000000000000000000000000000000000000000000000000000000000000000000000000000000000000000000000000000000000000000000000000000000000000000000000000000000000000000000000000000000000000000000000000000000000000000000000000000000000000000000000000000000000000000000000005400000000000000000000000000000000000000000000000000000000000000000000000000000000000000000000000000000000000000000000000000000000000000000000000000000000000000000000000000000000000000000000000000005400000000000000000000000000000000000000000000000000000000000000000000000000000000000000000000000000000000000000000000000000000000000000000000000000000000000000000000000000000000000000000000000000000000000000000000000000000000000000000000000000000000000000000000000000000000000000000000000000000000000000000000000000000000000000000000000000000000000000000000000000000000000000000000000000000000000000000000000000000000000000000000000000000000000000000000000000000000000000000000000000000000000000000000000000000000000000000000000000000000000000000000000000000000000000000000000000000000000000000000000000000000000000000000000000000000000000000000000000000000000000000000000000000000000000000000000000000000000000000000000000000000000000000000000000000000000000000000000000000000000000000000000000000000000000000000000000000000000000000000000000000000000000000000000000000000000000000000000000000000000000000000000000000000000000000000000000000000000000000000000000000000000000000000000000000000000000000000000000000000000000000000000000000000000000000000000000000000000000000000000000000000000000000000000000000000000000000000000000000000000000000000000000000000000000000000000000000000000000000000000000000000000000000000000000000000000000000000000000000000000000000000000000000000000000000000000000000000000000000000000000000000000000000000000000000000000000000000000000000000000000000000000000000000000000000000000000000000000000000000000000000000000000000000000000000000000000000000000000000000000000000000000000000000000000000000000000000000000000000000000000000000000000000000000000000000000000000000000000000000000000000000000000000000000000000000000000000000000000000000000000000000000000000000000000000000000000000000000000000000000000000000000000000000000000000000000000000000000000000000000000000000000000000000000000000000000000000000000000000000000000000000000000000000000000000000000000000000000000000000000000000000000000000000000000000000000000000000000000000000000000000000000000000000000000000000000000000000000000000000000000000000000000000000000000000000000000000000000000000000000000000000000000000000
#038361:000000000000000000000000000000000000000000000000000000000000000000000000000000000000005400000000240000000000000000000000000000000000000000000000000000000000000000000000000000000000000000000000
#0393a1:00000014
#039361:00000000000000000000000000540000
#040361:24
#040321:0013
#040361:00000000000000000000002300000000
#040370:0013
#0403b0:00000000000000000000002300000000
#0413b0:0013
#041370:00000000000000000000002300000000
#041361:0013
#041321:00000000000000000000002300000000
#042321:0013
#042361:00000000000000000000002300000000
#042370:0013
#0423b0:00000000000000000000002300000000
#043360:1333
#043320:00000000330000000000002300000000
#0433b1:0013
#043371:00000000000000000000002300000000
#044351:0000132300000000
#045351:0013230000000000
#045380:0000132300000000
#0473b0:000000000000000000000000000000000000000000000000000000000000000000000000000000000000000000000000000000000000000000000000000000000000000000000000000000000000000000000000000000000000000000000000000000000000000000000000000000000000000000000000000000000000000000000000000000000000000000000000000000000000000000000000000000000000000000000000000000000000000000000000000000000000000000000000000000000000000000000000000000000000000000000000000000000000000000000000000000000000000000000000130000000000000000000000000000000000000000000000000000000000000000000000000000000000000000000000000000000000000000000053000000000000000000000000000000000000000000000000000000000000000000000000000000000000000000000000000000000000000000000000000000000000000000000000000000000000000000000000000000000000000000000000000000000000000000000000000000000000000000000000000000000000000000000000000000000000000000000000000000000000000000000000000000000000000000000000000000000000000000000000000000000000000000000000000000000000000000000000000000000000000000000000000000000000000000000000000000000000000000000000000000000000000000000000000000000000000000000000000000000000000000000000000000000000000000000000000000000000000000000000000000000000000000000000000000000000000000000000000000000000000000000000000000000000000000000000000000000000000000000000000000000000000000000000000000000000000000000000000000000000000000000000000000000000000000000000000000000000000000000000000000000000000000000000000000000000000000000000000000000000000000000000000000000000000000000000000000000000000000000000000000000000000000000000000000000000000000000000000000000000000000000000000000000000000000000000000000000000000000000000000000000000000000000000000000000000000000000000000000000000000000000000000000000000000000000000000000000000000000000000000000000000000000000000000000000000000000000000000000000000000000000000000000000000000000000000000000000000000000000000
#0473a0:000000000000000000000000000000000000000000000000000000000000000000000000000000000000000000000000000000000000000000000000000000000000000000000000000000000000000000000000000000000000000000000000000000000000000000000000000000000000000000000000000000000000000000000000000000000000000000000000000000000000000000000000000000000000000000000000000000000000000000000000000000000000000000000000000000000000000000000000000000000000000000000000000000000000000000000000000000000000000000000000000000000000000000000000000000000000000000000000000000000000000000000000000000000000000000000000000000000000000000000000340000000000000000000000000000000000000000000000000000000000000000000000000000000000000000000000000000000000000000000054000000000000000000000000000000000000000000000000000000000000000000000000000000000000000000000000000000000000000000000000000000000000000000000000000000000000000000000000000000000000000000000000000000000000000000000000000000000000000000000000000000000000000000000000000000000000000000000000000000000000000000000000000000000000000000000000000000000000000000000000000000000000000000000000000000000000000000000000000000000000000000000000000000000000000000000000000000000000000000000000000000000000000000000000000000000000000000000000000000000000000000000000000000000000000000000000000000000000000000000000000000000000000000000000000000000000000000000000000000000000000000000000000000000000000000000000000000000000000000000000000000000000000000000000000000000000000000000000000000000000000000000000000000000000000000000000000000000000000000000000000000000000000000000000000000000000000000000000000000000000000000000000000000000000000000000000000000000000000000000000000000000000000000000000000000000000000000000000000000000000000000000000000000000000000000000000000000000000000000000000000000000000000000000000000000000000000000000000000000000000000000000000000000000000000000000000000000000000000000000000
#047390:000000000000000000000000000000000000000000000000000000000000000000000000000000000000000000000000000000000000000000000000000000000000000000000000000000000000000000000000000000000000000000000000000000000000000000000000000000000000000000000000000000000000000000000000000000000000000000000000000000000000000000000000000000000000000000000000000000000000000000000000000000000000000000000000000000000000000000000000000000000000000000000000000000000000000000000000000000000000000000000000000000000000000000000000000000000000000000000000000000000000000000000000000000000000000000000000000000000000000000000000000000000000000000000000000000000000000000000000000000000000000000000000000000000000000000000000000000000000000000000000350000000000000000000000000000000000000000000000000000000000000000000000000000000000000000000000000000000000000000000055000000000000000000000000000000000000000000000000000000000000000000000000000000000000000000000000000000000000000000000000000000000000000000000000000000000000000000000000000000000000000000000000000000000000000000000000000000000000000000000000000000000000000000000000000000000000000000000000000000000000000000000000000000000000000000000000000000000000000000000000000000000000000000000000000000000000000000000000000000000000000000000000000000000000000000000000000000000000000000000000000000000000000000000000000000000000000000000000000000000000000000000000000000000000000000000000000000000000000000000000000000000000000000000000000000000000000000000000000000000000000000000000000000000000000000000000000000000000000000000000000000000000000000000000000000000000000000000000000000000000000000000000000000000000000000000000000000000000000000000000000000000000000000000000000000000000000000000000000000000000000000000000000000000000000000000000000000000000000000000000000000000000000000000000000000000000000000000000000000000000000000000000000000000000000000000000000000000000000000000000
#047380:00000000000000362600000000000000
#047321:000000000000000000000000000000000000000000000000000000000000000000000000000000000000000000000000000000000000000000000000000000000000000000000000000000000000000000000000000000000000000000000000000000000000000000000000000000000000000000000000000000000000000000000000000000000000000000000000000000000000000000000000000000000000000000000000000000000000000000000000000000000000000000000000000000000000000000000000000000000000000000000000000000000000000000000000000000000000000000000000130000000000000000000000000000000000000000000000000000000000000000000000000000000000000000000000000000000000000000000053340000000000000000000000000000000000000000000000000000000000000000000000000000000000000000000000000000000000000000000054350000000000000000000000000000000000000000000000000000000000000000000000000000000000000000000000000000000000000000000055360000000000000000000000000000000000000000000000000000000000000000000000000000000000000000000000000000000000000000000000260000000000000000000000000000000000000000000000000000000000000000000000000000000000000000000000000000000000000000000000000000000000000000000000000000000000000000000000000000000000000000000000000000000000000000000000000000000000000000000000000000000000000000000000000000000000000000000000000000000000000000000000000000000000000000000000000000000000000000000000000000000000000000000000000000000000000000000000000000000000000000000000000000000000000000000000000000000000000000000000000000000000000000000000000000000000000000000000000000000000000000000000000000000000000000000000000000000000000000000000000000000000000000000000000000000000000000000000000000000000000000000000000000000000000000000000000000000000000000000000000000000000000000000000000000000000000000000000000000000000000000000000000000000000000000000000000000000000000000000000000000000000000000000000000000000000000000000000000000000000000000000000000000000000000000000000000000000000000000000000
#048321:1400002400000000
#048361:00000034000000000000000000000000
#0483a0:00000014000000000000000000000000
#048360:0000002400000000
#0493a0:1400002400000000
#049360:00000034000000000000000000000000
#049321:00000014000000000000000000000000
#049361:0000002400000000
#050321:1400002400000000
#050361:00000034000000000000000000000000
#050360:0000001434000024
#0503a0:00000000000000000000003400000000
#050321:0000000000000014
#051321:3400002400000000
#051361:00000034000000000000000000000000
#0513a0:00000014000000000000000000000000
#051360:0000002400000000
#0523a0:1400002400000000
#052360:00000034000000000000000000000000
#053320:1400002400000000
#053360:00000034000000000000000000000000
#0543a0:14
#054360:0024
#054321:0014
#055361:24
#0553a0:1400002400000000
#055360:00000054000000000000000000000000
#0563a0:14
#056360:00000024000000000000000000000000
#056321:00000014000000000000000000000000
#056361:0000002400000000
#057321:14
#057361:00000024000000000000000000000000
#0573a0:00000014000000000000000000000000
#057360:0000002400000000
#0583a0:14000024000000000000000000000000
#058361:00000014000000000000000000000000
#058321:0000002400000000
#058321:00000000000000001400002400000000
#058360:00000000000000000000001400000000
#0583a0:0000000000000024
#0593a0:14342400
#059360:0054005400000000
#059321:00001434
#059361:0000000000540054
#060321:24
#0603a0:14
#060360:00240000
#061360:00000013
#062320:23
#062361:14
#0623a1:00540024000000000000000000000000
#062360:00000014000000000000000000000000
#062320:00542400
#063360:14
#064330:2a
#065320:00000016
#066350:26
#067370:00000013
#067380:00000000000000000000000000330000
#067390:0000000000000033
#0673a0:00000000000000000000000000000033
#0683b0:23
#0693b0:00001323
#069390:00000000000000000033003300000000
#069370:0000000000330000
#069321:00000013
#069341:00000000000000000000000000330033
#069361:0000000000000033
#070321:23
#034980:0000142400000000
#0379a0:00001424
#037921:00001424
#038961:0000000000142400
#0739a1:0000000014240000
#073921:0000000000001424
