This file was generated by Ched 2.7.0.0.
#TITLE ""
#ARTIST ""
#DESIGNER ""
#DIFFICULTY 0
#PLAYLEVEL
#SONGID ""
#WAVE ""
#WAVEOFFSET 0
#JACKET ""
#REQUEST "ticks_per_beat 480"
#00002: 4
#BPM01: 109
#00008: 01
#TIL00: ""
#VOLUME: ""
#HISPEED 00
#MEASUREHS 00
#00018:14
#00114:14
#00418:14
#00714:14
#0081a:14
#00914:14
#01018:14
#01112:14
#01218:14
#01210:41
#01312:14
#01614:14
#01718:14
#02018:14
#02312:0016
#02318:26
#02418:16
#02412:0016
#02410:41
#02518:1616
#03312:14
#0331f:11
#03418:14
#03718:14
#03714:0014
#00314:14
#00512:14
#0021a:14
#0061a:14
#00610:41
#02718:0016
#02712:16
#02812:16
#02818:0016
#02912:1616
#03118:1616
#04118:16
#04112:0016
#04110:0041
#04218:16
#04212:0016
#04312:16
#04512:16
#04518:0016
#04612:16
#04618:0016
#04718:16
#04418:0016
#04812:0016
#04912:1626
#0501a:0014
#05114:0014
#05218:0014
#04012:0026
#0401f:0021
#01810:41
#03010:41
#0143a0:1434
#0153a0:34342400
#018320:1434
#019320:34342400
#021340:14
#022340:24
#026380:16362600
#030320:16362600
#032380:16362600
#035320:1434
#036320:34342400
#038380:14
#039380:24
#043320:00001636
#044320:26
#047380:00001636
#048380:26
#049320:00001636
#050320:26
#053320:0014
#054320:34240000
