This file was generated by Ched 2.7.0.0.
#TITLE ""
#ARTIST ""
#DESIGNER ""
#DIFFICULTY 0
#PLAYLEVEL
#SONGID ""
#WAVE ""
#WAVEOFFSET 0
#JACKET ""
#REQUEST "ticks_per_beat 480"
#00002: 4
#BPM01: 109
#00008: 01
#TIL00: ""
#VOLUME: ""
#HISPEED 00
#MEASUREHS 00
#00014:1414
#00018:00240024
#00412:1300000000000013
#00418:13001313
#00415:0000130000130000
#0041b:00130000
#00114:13000014
#00113:00140000
#00119:13140000
#00112:0014
#00118:00000014
#0011a:0014
#00212:24130000
#0021b:0000130000000013
#00215:00001313
#00218:0000000000130000
#0021a:24
#00312:13130000
#0031b:000000000000130000000000003333333333000000000000
#00318:0013
#0051b:13130000
#00512:0000130000330000
#00515:0023
#00615:00001313
#00618:0000000000130000
#0061b:1300000000000013
#00610:41
#00718:00001313
#00715:0000000000130000
#00712:1300000000000013
#0081b:0013000000000000
#00815:00130000
#00818:0000001300000000
#00812:0013
#00918:1313
#00915:0013000000000000
#0091b:0000130000330000
#00912:0000001300000000
#01012:1300000000000013
#0101b:1313
#01015:0013001300001300
#01018:0000130000130000
#0111b:1313
#01115:0013001300001300
#01118:0000130000130000
#0121b:1313
#01215:0013000000001300
#01218:0000130000130000
#01212:1300001300000013
#01210:41
#01317:13
#01312:0013000000000000
#01319:00130000
#01314:0000001300000000
#0131b:0013
#01412:1313
#01417:1414
#0141b:00130013
#01415:00140014
#01512:13001324
#0151b:0013000000000000
#01518:00130000
#01515:0000001300000000
#0151a:00000024
#01613:14
#01619:14
#01612:00130013
#01618:0000000000130013
#01615:0013
#0161b:0000001300000000
#01712:1313
#01718:0013001300000000
#01715:00130000
#0181b:1313
#01815:1414
#01812:00130013
#01817:00140014
#01810:41
#0191b:1313
#01912:0013000000002400
#01915:00130000
#01918:0000001300000000
#0191a:00000024
#02019:140000000000530000000000000000000053000000000000
#02013:14
#02018:000000000053000000000000000000000000000000000000
#02015:000000000000000000000053000000000000000000000000
#02014:000000000000000000000000530000000000000000000053
#0201a:00000053
#02312:0013000000130000
#02315:000000000000130000000013000000000000130000000000
#0231b:0000001300000000
#02318:240000000013000000000000130000000013000000000000
#02412:000013000013000000000000000000000000000000000000
#02418:1313130000000000
#02415:0000000013131300
#0241b:000000000000000000000000000013000013000000000000
#02410:41
#02515:00130013
#02518:0000001300130000
#0251b:0013
#02512:0000000000000013
#02618:1313
#0261b:00130000
#02715:130000000013000000000000130000000013000000000000
#0271b:0013000000130000
#02718:000000000000130000000013000000000000130000000000
#02712:0000001300000000
#02812:1313000000001300
#02818:000013000000000000000000000000000013000000000000
#02815:000000000000000013000000130000130000000000000000
#0281b:000000000000130000130000000013000000000000000000
#03018:0014
#03015:00000013
#03014:0014000000000000
#03012:24
#03010:41
#03115:0000001300001300
#0311b:0013
#03112:0000000013000013
#03118:0000230000130000
#03218:00130013
#03215:0000000000130000
#0321b:23
#03512:1313
#03516:14141414
#0351b:00130013
#03612:13001324
#0361b:0013000013000000
#03618:00130000
#03615:0000001300000000
#0361a:00000024
#03719:140000000000000000000000000000000053000000000000
#03713:1453
#03718:000000000053000000000000000000000000000000000000
#0371a:00530000
#03715:000000000000000000000053000000000000000000000000
#0371b:00000053
#03714:000000000000000000000000000000000000000000000053
#04012:00241300
#04018:000000000000000000000000000000130000000000000013
#0401b:00000013
#04015:000000000000000000000000000000000013000000130000
#0401a:00240000
#0401f:0021
#04112:1313
#04118:000000130000000000000000000013000000000000000000
#04115:000000000013000000000000000000130000130000000000
#0411b:000000000000130000000000000000000013000000000000
#04110:0041
#0421b:13130000
#04212:001300000000000000000000
#04218:0013000000000013
#04215:000000000013000000000000000000000000130000000000
#0431b:1300001300000000
#04318:00130000
#04312:13000013
#04315:0013000013000000
#04415:130000000000000000000000000000130000000000000013
#0441b:0013
#04412:00000013
#04418:000000000000000000000000000000000013000000130000
#0451b:130000000000000000000000000000130000000013000000
#04515:0013000000001300
#04518:000000000013000000000000130000000000000000000000
#04512:000000000000130000000000000013000000000000130000
#0461b:13
#04612:001300000000000000000000
#04618:0013130000000013
#04615:000000000013000000000000000000000000130000000000
#0471b:13
#04712:1300001300000000
#04718:0013000000140000
#04715:00130000
#0471a:0024
#04814:14
#04818:0000130000000013
#04815:00000023
#04912:1324
#0491b:1300001300000000
#04915:0013000000002400
#04918:00130000
#04917:0024
#0491a:00000024
#0501b:00000013
#05012:24000013
#05017:24
#05014:0023
#05019:0023
#05118:13130000
#05115:0013001300000000
#05119:00000013
#05114:00000013
#05112:0023
#0511b:0023
#05215:13000013
#0521b:003333333333000000000000000000000000130000000000
#05218:1323
#05212:003333333333000000000000230000000000000000000000
#05318:13130013
#05315:0013000023000000
#05312:0000001300001300
#0531b:0023
#02918:00130013
#02915:0000001300130000
#02912:0013
#0291b:0000000000000013
#02212:26000014
#0221a:00000014
#0331f:11
#02112:0024
#0211b:00230000
#02119:00000025
#02113:53
#03912:24
#0391a:24
#0381a:00000024
#0381b:00232300
#03812:53232324
#0541b:23
#05412:23
#00058:00140014
#00154:00000024
#00152:0054
#00158:00000024
#0015a:0064
#00358:0053
#0035b:00000013
#00552:00000013
#00555:0053
#0065b:63
#00752:53
#00852:0053
#00958:0053
#0095b:00000013
#01155:00000013
#0135b:0013
#00252:14
#0025a:14
#01552:00000014
#0155a:00000014
#01752:0053
#01755:00000013
#0195a:00000014
#01952:00000014
#0215b:00130000
#02152:0014
#02159:00000015
#02252:16
#02658:5353
#0265b:00530013
#02852:00000063
#02855:000000000000000000000000000000000000000000000013
#02355:00000053
#02358:14
#02458:00630000
#02452:000000000000000000000000000000000000000000000013
#02455:00000063
#02758:00000053
#03058:0014
#03055:00000053
#03054:0024000000000000
#03052:54140000
#03258:00630013
#0325b:5313
#0365a:00000014
#03652:00000014
#03952:14
#0395a:14
#0385a:00000014
#0385b:00131300
#03852:00131314
#0425b:00630000
#04258:000000000000000000000013000000000000000000000000
#04355:0063
#04352:00000063
#04455:63
#04452:00130000
#04658:00630000
#0465b:000000000000000000000013000000000000000000000000
#0415b:00530000
#04155:00000053
#04552:00530000
#04758:0000000000240000
#0475a:00006414
#04854:14
#04858:00630000
#0485b:0013
#0405a:00140000
#04052:00140000
#05055:00140000
#05052:64
#05057:64
#0505a:00140000
#04957:0014
#04952:0014
#04955:00000014
#0495a:00000014
#05255:63
#05258:53
#05252:00130000
#0525b:00130000
#0545b:53
#05452:63
#05458:00130000
#05455:00130000
#03152:13
#001320:0014
#001340:00000054
#002320:24
#0013a1:0014
#001381:00000054
#0023a1:24
#003381:0013
#0033b1:000000000000000000000000003333333333230000000000
#005351:0013
#005321:0000000000332300
#0063b1:13
#006381:00230000
#007321:13
#007351:00230000
#008321:0013
#008351:00000023
#009381:0013
#0093b1:0000000000332300
#017321:0013
#017351:00000023
#023351:00000013
#023321:0000000000000023
#024381:00130000
#0243b1:0000002300000000
#024351:00000013
#024321:000000000000000000000000000000000000000000330023
#026381:1333
#0263b1:00330023
#027381:00000013
#0273b1:0000000000000023
#028321:00000013
#028351:000000000000000000000000000000000000000000330023
#030321:14240000
#030341:0054000000000000
#030351:00000013
#031321:23
#0323b1:1323
#032381:00330000
#033351:1300005333000000
#033321:0053330000532300
#034381:1300005333000000
#0343b1:0053330000532300
#0413b1:00130000
#041381:0000002300000000
#041351:00000013
#041321:0000000000000023
#0423b1:00130000
#042381:000000000000000000330023000000000000000000000000
#043351:0013
#043321:00000033
#044351:33
#044321:00230000
#045321:00130000
#045351:0000002300000000
#046381:00130000
#0463b1:000000000000000000330023000000000000000000000000
#0473a1:00001424
#047381:0000000000540000
#048381:00130000
#0483b1:0023
#050321:14
#050351:00240000
#050370:14
#0503a0:00240000
#052350:13
#052320:003333333333230000000000000000000000000000000000
#052381:13
#0523b1:003333333333230000000000000000000000000000000000
#0543b1:13
#054381:0033230000000000
#054320:13
#054350:0033230000000000
#020980:000000000013000000000000000000000000000000000000
#020990:00230000
#020950:000000000000000000000013000000000000000000000000
#020940:0023
#020990:000000000000000000000000000000000013000000000000
#0209a0:00000023
#020940:000000000000000000000000000000000000000000000013
#021930:23
#037980:000000000013000000000000000000000000000000000000
#0379a0:00230000
#037950:000000000000000000000013000000000000000000000000
#037930:0023
#037990:000000000000000000000000000000000013000000000000
#0379b0:00000023
#037940:000000000000000000000000000000000000000000000013
#038920:23
