This file was generated by Ched 2.7.0.0.
#TITLE ""
#ARTIST ""
#DESIGNER ""
#DIFFICULTY 0
#PLAYLEVEL
#SONGID ""
#WAVE ""
#WAVEOFFSET 0
#JACKET ""
#REQUEST "ticks_per_beat 480"
#00002: 4
#BPM01: 109
#00008: 01
#TIL00: ""
#VOLUME: ""
#HISPEED 00
#MEASUREHS 00
#00018:16
#00012:0016
#00214:0014
#00218:00140000
#0021a:00000014
#00212:24
#00312:14
#00318:00140000
#00612:1414
#00618:00140014
#00610:41
#00714:1414
#0071a:00140014
#00812:14
#01614:1414
#01618:00140014
#02018:1414
#02014:00140014
#02118:14
#02318:00140014
#02314:0014
#02312:24
#02412:14
#0241a:00140014
#02414:0014
#02410:41
#02512:14
#02518:0014
#02514:00000014
#02714:00140014
#02718:0014
#0271a:14
#0281a:14
#02812:00140014
#02818:0014
#0291a:14
#02914:0014
#02918:00000014
#03118:0014
#03114:00000014
#03112:24
#0311a:24
#03312:1414
#03318:00140014
#0331f:11
#0341a:00140014
#03414:1414
#03718:14
#03714:00140000
#0371a:0014
#03712:00000014
#03818:14
#04018:00000014
#04012:0024
#0401f:0021
#04114:14
#0411a:00140000
#04112:0014
#04118:00000014
#04110:0041
#04214:14
#0421a:00140000
#04212:0014
#04318:1414
#04314:00140000
#04319:00000034
#04418:00000014
#04412:0014
#04514:14
#04518:00140000
#04512:0014
#0451a:00000014
#04614:14
#0461a:00140000
#04612:0014
#04718:14
#04714:00140000
#0471a:0014
#04719:00000034
#05018:0014
#05014:00000014
#0511a:14
#05112:00140000
#05118:0014
#05114:00000014
#00418:0014
#00414:00140000
#00412:00000014
#0041a:24
#0051a:14
#00514:00140000
#0091a:14
#01014:1414
#0101a:00140014
#01112:1414
#01118:00140014
#01318:14
#01214:14
#01210:41
#01518:00000014
#01914:00000014
#02614:00000014
#05214:0014
#05218:00000014
#05312:14
#0531a:00140000
#05314:0014
#05318:00000014
#04812:0024
#0481a:0024
#04914:24
#04918:00240000
#04912:0024
#04913:00000034
#01713:00340000
#01712:0034
#01810:41
#03010:41
#01552:0014
#02158:54
#0225a:14
#03858:54
#0395a:14
#04358:0064
#04952:0054
#00852:54
#0095a:64
#01358:54
#01254:64
#0195a:0014
#03654:0014
#0475a:0054
#05054:14
#05452:00140000
#001380:1626
#003340:00001424
#005380:00001424
#008320:14
#008340:00000024
#0093a0:14
#009380:00000024
#012340:14
#012320:00000024
#013380:14
#0133a0:00000024
#014320:14
#014330:00340034
#014340:0034
#015320:34342400
#017340:14
#017330:00340000
#017320:00003424
#0183a0:14
#018390:00340034
#018380:0034
#0193a0:34342400
#021380:14
#0223a0:24
#026380:14
#026390:00340000
#0263a0:0024
#030340:14
#030330:00340000
#030320:0024
#0323a0:14
#032390:00340000
#032380:0024
#035340:14
#035330:00340034
#035320:0034
#036340:34342400
#038380:14
#0393a0:24
#043380:0014
#043390:00000034
#0443a0:24
#0473a0:0014
#047390:00000034
#048380:24
#049320:0014
#049330:00000034
#050340:24
#0523a0:14240000
#054320:14240000
