This file was generated by Ched 2.7.0.0.
#TITLE ""
#ARTIST ""
#DESIGNER ""
#DIFFICULTY 0
#PLAYLEVEL
#SONGID ""
#WAVE ""
#WAVEOFFSET 0
#JACKET ""
#REQUEST "ticks_per_beat 480"
#00002: 4
#BPM01: 170
#00008: 01
#TIL00: ""
#VOLUME: ""
#HISPEED 00
#MEASUREHS 00
#05615:0013135313000000
#05612:13
#05618:13000013000013001300000013000000
#05614:0000000000000000005300530000000000000000000000000000000000000000
#05613:00000000005300000000000000000000
#05712:13
#05715:0013
#0571b:00130000
#05718:00000013
#0021b:1300000000130000
#00215:00000013
#00218:0000000000000013
#00212:00130000
#00216:14140000
#00818:0000000000130000
#00815:00002313
#0081b:00000013
#00810:0041
#00918:1300130000130000
#00915:0013000013000000
#00912:00130013
#0091b:00000013
#01018:13
#01015:0013000000000000
#0101b:00130013
#01012:00131300
#01014:0000000000130000
#01016:00000013
#01115:0000130000130000
#01117:13
#01119:0013000000000000
#0111b:0000130000000013
#01112:00001313
#01118:00000013
#01812:0000000013000013
#01818:0000000000130000
#01815:00000013
#0181b:0000000013000013
#01810:0041
#01918:0013001300000000
#01915:00130000
#01917:0000000000000013
#0191b:0013
#01912:00001313
#02018:0000000000130000
#02015:0000000000000013
#02016:0013130000000000
#02012:0013
#0201b:0013
#0211b:1300130013000013
#02112:1300130013000013
#02115:0013000000130000
#02118:0000001300001300
#02712:1300001300000000
#02718:0013000000000000
#02715:00130000
#0271b:13131300
#02716:0013
#02717:00000013
#02719:0000000000130000
#02714:0000000000000013
#03418:0000000000130013
#03415:00000013
#0341b:13001313
#03416:13
#03412:0013
#0391a:00000013
#03914:0000000000000013
#03912:1300001300000000
#03918:0013130000000000
#03915:00000013000000001300000000000000
#0391b:1300001300130000
#03913:00000013
#03919:0000000000000013
#0411b:0000000000130000
#04112:0014000000000013
#04114:0000001400000000
#04116:0014000000000000
#04118:0000001400000000
#04612:1313
#0461b:00001313
#04617:13
#04618:0000000000130000
#04615:0000000000000013
#04217:13
#04212:1300000000140000
#04218:0000000000000014
#04216:0000000000140000
#04214:0000000000000014
#04718:0013130000000000
#04715:00000013000000000000000000000000
#0471b:13
#04712:1300002400242400
#0471a:0000002400242400
#05812:1313
#0581b:13000013
#05817:0013
#05816:00000013
#0601b:00131300
#06012:13000013
#06017:00000013
#06016:0013
#0651b:1300130000000013
#06515:0013000013001300
#06512:0000130000000013
#06518:0000001300130000
#06618:1313001300130000
#06615:00130013
#0661b:0013
#06612:0000000013000013
#0671b:00001313
#06712:0013000013000000
#06715:0000001300001300
#06718:0000000000130000
#06818:0000000000130013
#06815:00000013
#06817:13
#06812:1313
#0681b:0013
#0701b:0000000000131300
#07014:0000000000000013
#07012:0013000013001300
#07015:0000001300000000
#07116:1313
#07119:0013000000000000
#07117:00130000
#07115:00000013
#07118:0000000000130013
#0711b:1313
#07112:00130000
#07114:0000001300000000
#07212:1322
#0721b:13
#07218:0012
#07214:00000000000000000000002200000000
#07216:0000000000000022
#00012:0013
#00017:0013
#00112:13
#0011b:00131300
#00116:14141300
#00318:0013000000001300
#0031b:0000001300000013
#00312:0013
#00315:0000000000130000
#0041b:0013
#00416:0013
#00418:13
#0051a:14140000
#00512:0013
#00517:0013
#00516:0014000000000000
#00612:14000000140000000000000000000013
#00616:0014000000000000
#00618:0013
#00619:0000000000130000
#00615:00000000000000000013000000000000
#00614:00000000000000000000001300000000
#0061a:00000013
#00613:00000000000000000000000000130000
#0061b:0000000000000013
#01212:13001313
#01218:13000013000013000000000013000000
#01215:0000000013000000135353535300000000000000130000000000000000000000
#0121b:0013
#01315:1300130000130000
#01318:0013000013000000
#0131b:00130013
#01312:00000013
#01415:13
#01418:0013000000000000
#01412:00130013
#0141b:00131300
#01419:0000000000130000
#01417:00000013
#01518:0000130000130000
#01516:13
#01514:0013000000000000
#01512:0000130000000013
#0151b:00001313
#01515:00000013
#0161b:13
#01615:13000013000013000000000000000000
#01618:0000000013000000135353535300000000000000000000000000000000000000
#01612:0024
#0161a:0024
#02215:0013001300130000
#02218:00130013
#02216:0000000000000013
#0221b:0000000013000013
#02212:0013
#02317:0013000000000000
#02316:0000001313000013
#0231b:0000001313000013
#02318:0000000000130000
#02312:00000013
#02412:0013000000001300
#02414:0000131300000000
#02417:00000000001300000000130000001300
#0241a:0014
#0261a:0014000000000000
#02617:00140000
#02614:0000001400000000
#02612:00001626
#02618:00000026
#02816:13
#02813:0013000000000000
#02815:00001613
#02812:0000000000130000
#0281b:00130013
#02819:0000000000000013
#02810:0041
#03012:0013000024000000
#03015:0000000000140000
#03017:000000000000000000000000000000000000000000000000000000000000000000000000000000000000000000000000000000000000000000000000000000000000000000000000000000000000000000000000000000000000000000000000000000000000000000000000000000000000000000000000000000000000000000000000000000000000000000000000000000000000000000000000000000000000000000000000000000000000000000000000000000000000000000000000000000000000000000000000000000000000000000000000000000000000000000000000000000000000000000000000000000000000000000000000000000000000000000000000000000000000000000000000000000000000000000000000000000000000000000000000000000000000000000000000000000000000000000000000000000000000000000000000000000000000000000000000000000000000000000000000000000000000000000000000000000000000000000000000000000000000000000000000000000000000000000000000000000000000000000000000000000000000000000000000000000000000000000000000000000000000000000000000000000000000000000000000000000000000000000000000000000000000000000000000000000000000000000000000000000000000000000000000000000000000000000000000000000000000000000000000000000000000000000000000000000000000000000000000000000000000000000000000000000000000000000000000000000000000000000000000000000000000000000000000000000000000000000000000000000000000000000000000000000000000000000000000000000000000000000000000000000000000000000000000000000000000000000000000000000000000000000000000000000000000000000000000000000000000000000000000000000000000000000000000000000000000000000000000000000000000000000000000000000000000000000000000000000000000000000000000000000000000000000000000000000000000000000000000000000000000000000000000000000000000000000000000000000000000000000000000000000000000000000000000000000000000000000000000000000000000000000000000000000000000000000000000000000000000000000000000000000000000000000000000000000000000000000000000000000000000000000000000000000000000000000000000000000000000000000000000000000000000000000000000000000000000000000000000000000000000000000000000000000000000000000000000000000000000000000000000000000000000000000000000000000000000000000000000000000000000000000000000000000000000000000000000000000000000000000000000000000000000000000000000000000000000000000000000000000000000000000000000000000000000000000000000000000000000000000000000000000000000000000000000000000000000000000000000000000000000000000000000000000000000000000000000000000000000000000000014000000000000000000000000000000000000000000000000000000000000000000000000000000000000000000000000000000000000000000000000000000000000000000000000000000000000000000000000000000000000000000000000000000000000000000000000000000000000000000000000000000000000000000000000000000000000000000000000000000000000000000000000000000000000000000000000000000000000000000000000000000000000000000000000000000000000000000000000000000000000000000000000000000000000000000000000000000000000000000000000000000000000000000000000000000000000000000000000000000000000000000000000000000000000000000000000000000000000000000000000000000000000000000000000000000000000000000000000000000000000000000000000000000000000000000000000000000000000000000000000000000000000000000000000000000000000000000000000000000000000000000000000000000000000000000000000000000000000000000000000000000000000000000000000000000000000000000000000000000000000000000000000000000000000000000000000000000000000000000000000000000000000000000000000000000000000000000000000000000000000000000000000000000000000000000000000000000000000000000000000000000000000000000000000000000000000000000000000000000000000000000000000000000000000000000000000000000000000000000000000000000000000000000000000000000000000000000000000000000000000000000000000000000000000000000000000000000000000000000000000000000000000000000000000000000000000000000000000000000000000000000000000000000000000000000000000000000000000000000000000
#0301b:0013000000000000
#0301a:0024
#03112:0014000000000000
#0311a:0014000000000000
#03114:24
#03118:2422
#03116:0022
#0321b:00000013
#03216:00000013
#03212:0024000023000000
#0321a:0024000000000000
#03217:0023
#03312:13000013
#03317:13000013
#0331b:0023
#03316:0023
#03518:0013000000000000
#0351b:0000001300001300
#03512:0013
#03519:0000000000130000
#03514:0000000000000013
#03618:0000160023000013
#03612:1323
#03615:0000000000130000
#0361b:00000023
#0371b:0000000000130000
#03712:0013000000000013
#03718:00232300
#03715:23002323
#03812:0000230013130000
#0381b:2313
#03817:0000000000130000
#03815:0000000000000013
#03818:0013000000000000
#04312:0000000000130000
#0431b:0000000000000013
#04318:0000001400000000
#0431a:0014000000000000
#04316:0014000000000000
#04314:0000001400000000
#04416:1300000000140000
#0441b:13
#04414:0000000000000014
#0441a:0000000000140000
#04418:0000000000000014
#0451b:0000000000130000
#04512:0014000000000013
#04514:0000001400000000
#04516:0014000000000000
#04518:0000001400000000
#04819:0000000000130000
#04817:00000013
#04812:24002313
#0481b:0023
#0481a:24
#04916:13130000
#04919:0013000000000000
#04917:0013
#04914:0000000000130000
#0491b:00130013
#04912:00000013
#05014:13
#05019:0013000000130000
#05012:00130013
#0501b:00131300
#05017:00000013
#05118:0000130000130000
#05116:13
#05114:0013000000000000
#05112:0000130000000013
#0511b:00001313
#05115:00000013
#0521b:13001313
#05215:13000013000013000000000000000000
#05218:0013135300000000
#05214:0000000000130000
#05216:00000013
#05212:0013
#05219:0000000000000000005300530000000000000000000000000000000000000000
#0521a:00000000005300000000000000000000
#05317:13130000
#05314:0013000000000000
#05316:0013
#05319:0000000000130000
#05312:00130013
#0531b:00000013
#05419:13
#05414:0013000000130000
#0541b:00130013
#05412:00131300
#05416:00000013
#05515:0000130000130000
#05517:13
#05519:0013000000000000
#0551b:0000130000000013
#05512:00001313
#05518:00000013
#05912:1313
#0591b:00130013
#05917:0013
#05914:0000000000130000
#05919:0000000000130000
#05916:00000013
#06112:0013
#0611b:13000013
#06116:13000013
#06117:0013
#06218:0013
#06215:00001313
#06217:13
#06212:13
#0631b:1300000000130013
#06318:00001313
#06312:0000130000130013
#06315:00001313
#06414:00140000
#06418:0000140000130000
#0641b:0013
#06415:0000000000000013
#06412:00001313
#0641f:0011
#0691b:0013000013000000
#06918:0000001300001300
#06912:0013
#06915:0000000000130013
#07315:13
#07317:0000002314000000
#07319:00000023000000000000000000000000
#0731b:23
#07312:0024
#07313:00000000000000000000002400000000
#07314:0000000000000024
#07618:0000000000130013
#07615:00000013
#07612:1313
#0761b:00231313
#07616:0013000000000000
#0761a:13
#0811a:00000013
#08114:0000000000000013
#08112:1300001300130000
#08115:0013130000000000
#08118:00000013000000001300000000000000
#0811b:1300001300000000
#08113:00000013
#08119:0000000000000013
#08812:00001313
#0881b:13001313
#08818:0000000000130000
#08815:0000000000130013
#08816:13
#08810:0041
#08918:0013130000000000
#08915:00000013000000000000000000000000
#0891b:13
#08912:1300002400242400
#0891a:0000002400242400
#07718:0013000000000000
#0771b:0000001313000000
#07714:0000000000130000
#07712:00000013
#07719:0000000000000013
#07716:0013
#07812:0000140000000013
#0781b:1300000000130000
#07815:00002313
#07814:0013000000000000
#07818:0023
#08012:1300000013130000
#0801b:1313
#08017:0000000000130000
#08015:0000000000000013
#09019:0000000000130000
#09016:00000013
#0901b:00002323
#09012:2423
#0901a:24
#09114:0013000000000000
#09119:0000000000130000
#09117:23130000
#09112:00230013
#09116:0023
#0911b:00000023
#09214:0013000000130000
#0921b:00130023
#09216:00000013
#09219:23
#09212:00232300
#09319:0013000000130000
#0931b:00130023
#09314:0000000000000013
#09316:00230013
#09317:23
#09312:0023
#09417:13000013
#0941b:0013135323000000
#09416:00000013000013000000000000000000
#09414:0000000000130000
#09412:23001323
#09419:0000000000000000005300530000000000000000000000000000000000000000
#09418:00000000005300000000000000000000
#09519:0013000000000000
#09514:0000000000130000
#09516:23130000
#0951b:00230013
#09517:0023
#09512:00000023
#09619:0013000000130000
#09612:00130023
#09617:00000013
#09614:23
#0961b:00232300
#09714:0013000000130000
#09712:00130023
#09719:0000000000000013
#09717:00230013
#09716:23
#0971b:0023
#09816:1300005300000000
#09812:0013130053000000
#09817:00000013000000000000000000000000
#0981b:23
#09813:0000000000000000005300000000005300000000000000000000000000000000
#09814:00000000005300530000000000000000
#09815:0000000000000000000000530053000000000000000000000000000000000000
#07514:0000000000130000
#07515:0000000000000013
#07512:00232313
#07518:0013
#07519:00000013
#07517:0013000000000000
#0751b:13
#07513:13
#07510:0041
#07419:2525000000130000
#07418:0000000000000013
#0741b:00002313
#07415:0013
#07414:00000013
#07412:2525000000000000
#0741f:0021
#07915:13
#07918:13
#0791b:00002313
#07917:0000000000000013
#07916:0000000000130000
#07912:0023
#0251a:1414
#02512:14001413
#02516:0013001300000000
#02517:0000000000130013
#0251b:00130000
#0291b:0000001300000000
#02912:0013
#02914:0000000000130000
#02918:0013
#04014:0000000000000014
#04016:0000000000140000
#0401a:0000240000140000
#04018:2300000000000014
#04015:23
#04012:00240000
#04010:0041
#0831a:0000001400000000
#08316:0014001400000000
#08312:0014000000130000
#0831b:0000000000000013
#08317:0000000000130000
#0821a:0000240000000014
#08216:0000000000140014
#08212:0000240000140000
#08215:23
#08218:23
#08512:0000001400000013
#08516:0014001400130000
#0851a:0014000000000000
#0851b:0000000000130000
#08412:0000000000000014
#08416:1300000000140014
#0841a:0000000000140000
#0841b:13
#0871a:0000001400000000
#08716:0014001400000000
#08712:0014000000130000
#0871b:0000000000000013
#08717:0000000000130000
#0861a:0000000000000014
#08616:0000000000140014
#08612:1300000000140000
#08617:13
#0071a:2400002400000000
#00716:0024000000000000
#00712:00240000
#05655:0063
#05658:13000053
#05752:63
#05755:0063
#0575b:00530000
#05758:00000053
#0185b:0000000000000013
#01852:0000000000000053
#01957:0000000000000053
#0195b:0063
#02658:00000016
#02652:00000016
#03652:23165300
#03658:0000160000000023
#03655:0000000000230000
#0365b:00000053
#04055:13
#04052:00140000
#0405a:0000140000440000
#04058:1300000000000044
#04054:0000000000000034
#04056:0000000000340000
#0415b:0000000000530000
#04154:0000003400000000
#04152:0034000000000000
#04156:0044000000000000
#04158:0000004400000000
#04257:63
#04252:6300000000340000
#04256:0000130000440000
#0425b:00130000
#04258:0000000000000044
#04254:0000000000000034
#04752:0000001400000000
#0475a:0000001400000000
#05852:63
#0585b:53000063
#05857:0063
#05856:00000053
#0605b:0053
#06052:63000063
#06057:00000053
#06056:00130000
#06755:00000053
#07252:63
#0725b:53
#07258:0052
#00052:0053
#00057:0053
#0005b:00000013
#00056:00000013
#0015b:0063
#00156:0063
#00157:00000013
#00152:00000013
#00455:00130000
#0045b:0063
#00456:0063
#00452:00000013
#00457:00000013
#00552:0053
#00557:0053
#00556:00000013
#0055b:00000013
#00855:00000053
#00958:00630000
#00952:00000063
#0105b:00530000
#01056:00000053
#0115b:00530000
#01258:00000063
#01252:00000013
#01355:00530000
#0135b:00130053
#01352:00000013
#01452:00630013
#01457:00000063
#0145b:00130000
#01552:00630000
#01558:00130000
#01556:0013
#0155b:00000013
#02058:0000000000530000
#02152:0000000000000013
#0215b:0000000000000063
#02256:0000000000000063
#0225b:0000000000000013
#0235b:0000000000000053
#02756:0063
#02757:00000053
#02856:63130000
#02853:0023000000000000
#0285b:00130000
#03052:0063000054003400
#03055:0000000000240000
#03057:000000000000000000000000000000000000000000000000000000000000000000000000000000000000000000000000000000000000000000000000000000000000000000000000000000000000000000000000000000000000000000000000000000000000000000000000000000000000000000000000000000000000000000000000000000000000000000000000000000000000000000000000000000000000000000000000000000000000000000000000000000000000000000000000000000000000000000000000000000000000000000000000000000000000000000000000000000000000000000000000000000000000000000000000000000000000000000000000000000000000000000000000000000000000000000000000000000000000000000000000000000000000000000000000000000000000000000000000000000000000000000000000000000000000000000000000000000000000000000000000000000000000000000000000000000000000000000000000000000000000000000000000000000000000000000000000000000000000000000000000000000000000000000000000000000000000000000000000000000000000000000000000000000000000000000000000000000000000000000000000000000000000000000000000000000000000000000000000000000000000000000000000000000000000000000000000000000000000000000000000000000000000000000000000000000000000000000000000000000000000000000000000000000000000000000000000000000000000000000000000000000000000000000000000000000000000000000000000000000000000000000000000000000000000000000000000000000000000000000000000000000000000000000000000000000000000000000000000000000000000000000000000000000000000000000000000000000000000000000000000000000000000000000000000000000000000000000000000000000000000000000000000000000000000000000000000000000000000000000000000000000000000000000000000000000000000000000000000000000000000000000000000000000000000000000000000000000000000000000000000000000000000000000000000000000000000000000000000000000000000000000000000000000000000000000000000000000000000000000000000000000000000000000000000000000000000000000000000000000000000000000000000000000000000000000000000000000000000000000000000000000000000000000000000000000000000000000000000000000000000000000000000000000000000000000000000000000000000000000000000000000000000000000000000000000000000000000000000000000000000000000000000000000000000000000000000000000000000000000000000000000000000000000000000000000000000000000000000000000000000000000000000000000000000000000000000000000000000000000000000000000000000000000000000000000000000000000000000000000000000000000000000000000000000000000000000000000000000000000000024000000000000000000000000000000000000000000000000000000000000000000000000000000000000000000000000000000000000000000000000000000000000000000000000000000000000000000000000000000000000000000000000000000000000000000000000000000000000000000000000000000000000000000000000000000000000000000000000000000000000000000000000000000000000000000000000000000000000000000000000000000000000000000000000000000000000000000000000000000000000000000000000000000000000000000000000000000000000000000000000000000000000000000000000000000000000000000000000000000000000000000000000000000000000000000000000000000000000000000000000000000000000000000000000000000000000000000000000000000000000000000000000000000000000000000000000000000000000000000000000000000000000000000000000000000000000000000000000000000000000000000000000000000000000000000000000000000000000000000000000000000000000000000000000000000000000000000000000000000000000000000000000000000000000000000000000000000000000000000000000000000000000000000000000000000000000000000000000000000000000000000000000000000000000000000000000000000000000000000000000000000000000000000000000000000000000000000000000000000000000000000000000000000000000000000000000000000000000000000000000000000000000000000000000000000000000000000000000000000000000000000000000000000000000000000000000000000000000000000000000000000000000000000000000000000000000000000000000000000000000000000000000000000000000000000000000000000000000000000000000
#0305a:00006444
#03152:0024000000000000
#03154:64140000
#0315a:0024000000000000
#03158:54146200
#03156:0052
#0325a:1414000000000000
#03252:1414000063000000
#0325b:00000063
#03256:00000063
#03257:0063
#03352:53000053
#03357:53000053
#0335b:00135300
#03356:00135300
#0345b:63
#03456:63
#03457:00130000
#03452:00130000
#03552:0053
#0355b:00000063
#0375b:0000000000230000
#03752:0023000000000023
#03758:00135300
#03755:53130053
#03857:0000000000530000
#03858:0023000000000000
#03852:00130000
#0385b:53130000
#03955:0023
#03952:0000005300000000
#04352:0000000000630000
#04358:0000004400000000
#0435a:0044000000000000
#04356:0034000000000000
#04354:0000003400000000
#04456:5300000000340000
#0445b:53
#04452:00130000
#04457:00130000
#04454:0000000000000034
#0445a:0000000000440000
#04458:0000000000000044
#0455b:0000000000530000
#04554:0000003400000000
#04552:0034000000000000
#04556:0044000000000000
#04558:0000004400000000
#04657:63
#04652:63
#0465b:00130023
#04656:00130000
#04658:0000000000530000
#04857:00000063
#04852:14
#0485a:14
#04956:00530000
#0495b:00000053
#05052:00630000
#05057:00000063
#05152:00630000
#05555:00130000
#0555b:00530000
#05557:0013
#05552:00000013
#05256:00000053
#0525b:00000013
#05357:00630000
#05352:00130063
#0535b:00000013
#0545b:00530013
#05456:00000053
#05452:00130000
#05952:53
#0595b:00000053
#06152:0063
#0615b:53000053
#06156:53000063
#06258:0053
#06255:00000063
#06257:53
#06252:53
#0635b:5300000000230023
#06358:00005353
#06352:0000630000230023
#06355:00006363
#06458:1300140000230000
#06455:1300000000000023
#06454:00140000
#0645b:0053
#06452:00000063
#06552:0000000000000053
#06857:53
#06852:53
#06856:00130000
#0685b:00130000
#07357:0054
#07355:63
#0775b:0063
#07752:00000053
#0785b:6300000000230000
#07852:0000340000000023
#07856:00440000
#07855:00000053
#07858:0053
#08057:0000000000530000
#0805b:53
#08052:53
#08055:00130000
#08058:00130000
#08158:0023
#0815b:0000006300000000
#0885b:53000023
#08858:0000000000530000
#08856:53
#08852:00130000
#08857:00130000
#08255:13
#08252:0000140000340000
#0825a:0000140000000044
#08258:13
#08256:0000000000440034
#09056:00000053
#0905a:14
#09052:14
#09157:00630000
#09152:00000063
#0925b:00530000
#09256:00000053
#0935b:00530000
#09457:00000063
#09452:00000013
#09556:00530000
#0955b:00130053
#09552:00000013
#09652:00630013
#09657:00000063
#0965b:00130000
#09752:00630013
#09757:00130000
#0975b:0013
#07554:0000000000230000
#07555:0000000000000023
#07552:00335353
#07557:0023000000000000
#0755b:63430000
#07656:0023000000000000
#07652:53330000
#0765b:00430000
#07459:0015000000230000
#07458:0000000000000023
#0745b:00005363
#07452:0015000000000000
#07955:53
#07958:53
#07952:00336300
#0795b:00430053
#07957:0000000000000023
#07956:0000000000230000
#0985b:13
#01655:13
#0835a:0000004400000000
#08356:0044003400000000
#08352:0034000000630000
#08552:0000003400000000
#08556:0034004400000000
#0855a:0044000000000000
#0855b:0000000000530000
#08452:0000130000000034
#08456:5300000000340044
#0845a:0000000000440000
#0845b:53
#08457:00130000
#0875a:0000004400000000
#08756:0044003400000000
#08752:0034000000630000
#0865a:0000000000000044
#08656:0000130000440034
#08652:6300000000340000
#08657:63
#0865b:00130000
#02556:0013000000000000
#02557:0000000000000013
#02952:0013000000000000
#0295b:0000000000000013
#02956:0000000000000013
#02957:0013000000000000
#0895a:0000001400000000
#08952:0000001400000000
#000320:0013
#000360:00000023
#000371:0013
#0003b1:00000023
#0013b1:0013
#001371:00000023
#001360:0013
#001320:00000023
#003320:1323000000000000
#003350:0000132300000000
#004350:13230000
#0043b0:0013
#004370:00000023
#004361:0013
#004321:00000023
#005321:0013
#005361:00000023
#005370:0013
#0053b0:00000023
#008350:00000013
#009320:23
#009380:00130000
#0093b0:0023
#009320:00000013
#010350:23
#0103b0:00130000
#010380:0023
#010360:00000013
#011320:23
#0113b0:00130000
#011370:0023
#012380:00000013
#0133b0:23
#013350:00130000
#013320:0023
#0133b0:00000013
#014380:23
#014320:00130000
#014350:0023
#014370:00000013
#0153b0:23
#015320:00130000
#015360:0023
#018320:0000000000000013
#019350:0023000000000000
#0193b0:0013
#019370:00000023
#019370:0000000000000013
#0203b0:00230000
#020380:0000000000130000
#0203b0:0000000000000023
#0213b0:0000000000000013
#022380:0023000000000000
#022360:0000000000000013
#023320:0023000000000000
#0233b0:0000000000000013
#024370:00230000
#026380:00001626
#027360:0013
#027320:00000023
#027371:00000013
#0283b1:23
#028360:13230000
#028330:0053000000000000
#029320:1323000000000000
#029371:1323000000000000
#0293b1:0000000000001323
#029360:0000000000001323
#030320:0013000000000000
#030350:0000332300000000
#030381:0000132300000000
#030321:00001424
#030351:0000000000540000
#0303a0:00001424
#030370:000000000000000000000000000000000000000000000000000000000000000000000000000000000000000000000000000000000000000000000000000000000000000000000000000000000000000000000000000000000000000000000000000000000000000000000000000000000000000000000000000000000000000000000000000000000000000000000000000000000000000000000000000000000000000000000000000000000000000000000000000000000000000000000000000000000000000000000000000000000000000000000000000000000000000000000000000000000000000000000000000000000000000000000000000000000000000000000000000000000000000000000000000000000000000000000000000000000000000000000000000000000000000000000000000000000000000000000000000000000000000000000000000000000000000000000000000000000000000000000000000000000000000000000000000000000000000000000000000000000000000000000000000000000000000000000000000000000000000000000000000000000000000000000000000000000000000000000000000000000000000000000000000000000000000000000000000000000000000000000000000000000000000000000000000000000000000000000000000000000000000000000000000000000000000000000000000000000000000000000000000000000000000000000000000000000000000000000000000000000000000000000000000000000000000000000000000000000000000000000000000000000000000000000000000000000000000000000000000000000000000000000000000000000000000000000000000000000000000000000000000000000000000000000000000000000000000000000000000000000000000000000000000000000000000000000000000000000000000000000000000000000000000000000000000000000000000000000000000000000000000000000000000000000000000000000000000000000000000000000000000000000000000000000000000000000000000000000000000000000000000000000000000000000000000000000000000000000000000000000000000000000000000000000000000000000000000000000000000000000000000000000000000000000000000000000000000000000000000000000000000000000000000000000000000000000000000000000000000000000000000000000000000000000000000000000000000000000000000000000000000000000000000000000000000000000000000000000000000000000000000000000000000000000000000000000000000000000000000000000000000000000000000000000000000000000000000000000000000000000000000000000000000000000000000000000000000000000000000000000000000000000000000000000000000000000000000000000000000000000000000000000000000000000000000000000000000000000000000000000000000000000000000000000000000000000000000000000000000000000000000000000000000000000000000000000000000000000000000000000054000000000000000000000000000000000000000000000000000000000000000000000000000000000000000000000000000000000000000000000000000000000000000000000000000000000000000000000000000000000000000000000000000000000000000000000000000000000000000000000000000000000000000000000000000000000000000000000000000000000000000000000000000000000000000000000000000000000000000000000000000000000000000000000000000000000000000000000000000000000000000000000000000000000000000000000000000000000000000000000000000000000000000000000000000000000000000000000000000000000000000000000000000000000000000000000000000000000000000000000000000000000000000000000000000000000000000000000000000000000000000000000000000000000000000000000000000000000000000000000000000000000000000000000000000000000000000000000000000000000000000000000000000000000000000000000000000000000000000000000000000000000000000000000000000000000000000000000000000000000000000000000000000000000000000000000000000000000000000000000000000000000000000000000000000000000000000000000000000000000000000000000000000000000000000000000000000000000000000000000000000000000000000000000000000000000000000000000000000000000000000000000000000000000000000000000000000000000000000000000000000000000000000000000000000000000000000000000000000000000000000000000000000000000000000000000000000000000000000000000000000000000000000000000000000000000000000000000000000000000000000000000000000000000000000000000000000000000000000000000000
#031340:14240000
#031320:0054000000000000
#031381:14240000
#0313a1:0054000000000000
#031361:0012
#032321:24
#031380:0012
#0323a0:24
#032320:0013
#032360:00000033
#033320:33
#033360:00230000
#032371:0013
#0323b1:00000033
#033371:33
#0333b1:00230000
#0333b1:0013
#033371:00000033
#0343b1:33
#034371:00230000
#033360:0013
#033320:00000033
#034360:33
#034320:00230000
#035320:1323000000000000
#035350:0000132300000000
#035320:0013
#035360:00000023
#0353b1:00000013
#036371:23
#036320:13260000
#036320:00001323
#036350:0000000000530000
#0363b1:00000013
#036381:0000000000000053
#0373b1:23
#037350:13230000
#037320:0053000000000000
#037380:00001323
#0373b0:0000000000530000
#037351:00000013
#037321:0000000000000053
#038351:23
#0383b0:13230000
#038380:0053000000000000
#038370:0000000000130000
#0383b0:0000000000000023
#039320:0000001300230000
#039350:0053
#0413b0:0000000000130000
#041370:0000000000000023
#042370:13
#0423b0:00230000
#042321:13
#042361:00230000
#043321:0000000000130000
#043361:0000000000000023
#044361:13
#044321:00230000
#0443b0:13
#044370:00230000
#0453b0:0000000000130000
#045370:0000000000000023
#046370:13
#0463b0:00230000
#046321:13
#046361:00230000
#046381:0000000000130023
#0463b1:00000053
#048371:00000013
#0493b1:23
#049361:00130000
#049321:0023
#0493b1:00000013
#050371:23
#050321:00130000
#050361:0023
#050371:00000013
#0513b1:23
#051321:00130000
#051361:0023
#052361:00000013
#053321:23
#053371:00130000
#0533b1:0023
#053321:00000013
#054361:23
#0543b1:00130000
#054371:0023
#054361:00000013
#055321:23
#0553b1:00130000
#055371:0023
#056351:0013
#056321:0000000000533300
#057321:3300000000533300
#057351:0053330033000000
#058321:33
#058351:0053230000000000
#056380:00000013
#0563b0:0000000000000053
#0573b0:3300330000000053
#057380:0000005333003300
#0583b0:33
#058380:0053230000000000
#058370:0013
#0583b0:00000033
#059370:23
#058361:00000013
#059321:33
#059361:00230000
#0593b1:00000013
#060371:23
#060320:13
#060360:00230000
#0603b0:0000000013000053
#060370:0000000000533300
#0613b0:33
#061370:0053230000000000
#060321:00000013
#060361:0000000000000053
#061361:33
#061321:0053230000000000
#061321:0000000013000053
#061361:0000000000533300
#062321:33
#062361:0053230000000000
#0613b0:00000013
#061370:0000000000000053
#062370:33
#0623b0:0053230000000000
#062380:0013
#0623b0:0000000000533300
#0633b0:3300000000530053
#063380:0053330033003300
#064380:23
#062351:00000013
#062321:0000000000000053
#063321:3300330000530053
#063351:0000005333003300
#064351:23
#0643b1:00001323
#064381:0000000000330000
#064320:00000013
#064350:0000000000000033
#065320:23
#065320:0000000000000013
#066350:0023000000000000
#067380:1323000000000000
#0673b0:0000132300000000
#067350:00000013
#068320:33
#068360:00230000
#068371:13
#0683b1:00230000
#069321:13
#069351:0023000000000000
#069351:00130000
#069321:0000002300000000
#0703b1:13
#070381:0023000000000000
#070381:00130000
#0703b1:0000002300000000
#072321:13
#072351:00230000
#0723b0:13
#072380:00230000
#072380:0012
#0723b0:0000000000000023
#073350:13
#073320:0000002400000000
#073370:0014
#073390:0000000000000025
#0743b0:00001333
#074390:0000000000530000
#074380:0000000000000053
#0753b0:33230000
#075370:0053000000000000
#075320:00001333
#075340:0000000000530000
#075350:0000000000000053
#076320:33230000
#076360:0053000000000000
#077320:13
#077350:0023000000000000
#077350:00130000
#077320:0000002300000000
#0773b0:0013
#077370:00000023
#077321:00000013
#078361:23
#0783b0:13
#078360:00240000
#078350:00001333
#078320:0000000000000053
#079350:33
#079320:00230000
#078381:00001333
#0783b1:0000000000530000
#079381:33
#0793b1:00230000
#0793b1:00001333
#079371:0000000000000053
#0803b1:33
#080381:00230000
#079320:00001333
#079360:0000000000530000
#080320:33
#080350:00230000
#080370:0000000000130000
#0803b0:0000000000000023
#0813b0:0000001300230000
#081380:0053
#083320:0000000000130000
#083360:0000000000000023
#084360:13
#084320:00230000
#0843b1:13
#084371:00230000
#0853b1:0000000000130000
#085371:0000000000000023
#086371:13
#0863b1:00230000
#086320:13
#086360:00230000
#087320:0000000000130000
#087360:0000000000000023
#088360:13
#088320:00230000
#0883b1:13
#088371:00230000
#088381:0000000000130023
#0883b1:00000053
#090361:00000013
#091321:23
#091371:00130000
#0913b1:0023
#091321:00000013
#092361:23
#0923b1:00130000
#092371:0023
#092361:00000013
#093321:23
#0933b1:00130000
#093371:0023
#094371:00000013
#0953b1:23
#095361:00130000
#095321:0023
#0953b1:00000013
#096371:23
#096321:00130000
#096361:0023
#096371:00000013
#0973b1:23
#097321:00130000
#097361:0023
#012950:0000132300000000
#016980:0000132300000000
#052980:0000132300000000
#0529a0:00000000005300000000000000000000
#056950:0000132300000000
#056930:00000000005300000000000000000000
#0949b0:0000132300000000
#094990:0000000000000000005300530000000000000000000000000000000000000000
#094980:00000000005300000000000000000000
#098920:00132300
#098960:0000005300000000
