This file was generated by Ched 2.7.0.0.
#TITLE ""
#ARTIST ""
#DESIGNER ""
#DIFFICULTY 0
#PLAYLEVEL
#SONGID ""
#WAVE ""
#WAVEOFFSET 0
#JACKET ""
#REQUEST "ticks_per_beat 480"
#00002: 4
#BPM01: 170
#00008: 01
#TIL00: ""
#VOLUME: ""
#HISPEED 00
#MEASUREHS 00
#04912:0014
#0491a:14
#04918:00000014
#0501a:0014
#05012:14
#05014:00000014
#05112:0014
#0511a:14
#05116:00000014
#0551a:0014
#05512:14
#05516:00000014
#06414:0014
#06418:00000014
#0641f:0011
#0651a:0014
#06514:14
#06512:00000014
#0041a:0014
#00514:14
#00518:0014
#00612:14
#00618:0014
#00818:00000014
#00812:0024
#00810:0041
#00912:14
#0091a:0014
#00914:00000014
#0101a:14
#01012:0014
#01018:00000014
#01112:14
#0111a:0000000000343434
#01214:0014
#0121a:00000014
#01314:14
#01318:0014
#01312:00000014
#01418:14
#01414:0014
#0141a:00000014
#01514:14
#01518:0000000000343434
#02014:0014
#02018:00000014
#02114:14
#0211a:0014
#02112:00000014
#0221a:14
#02212:0014
#02618:0014
#02714:14
#0271a:0014
#02812:14
#02810:0041
#03214:00000014
#0321a:0024
#03318:14
#0331a:0014
#03314:00000014
#03312:00140000
#03412:00140000
#03418:1414
#03414:00000014
#0351a:1400000000343434
#03512:00140000
#03618:00000014
#03612:0014
#03714:14
#03712:0014
#03718:00000014
#0371a:00140000
#0381a:00140000
#03814:1414
#03818:00000014
#03912:14
#0391a:00140000
#03918:0000003400000000
#04614:00000014
#0461a:0014
#04718:14
#04712:0000143400000000
#04814:00000014
#0481a:0024
#0521a:14
#05212:0014
#05218:00000014
#05312:14
#0531a:0014
#05314:00000014
#0541a:14
#05412:0014
#05418:00000014
#05612:14
#05618:0014
#0571a:14
#05718:0014
#05814:0014
#05912:14
#05914:0014
#06018:0014
#06114:0014
#0621a:0014
#06318:14
#0631a:0014
#0661a:14
#06614:0014
#06618:00000014
#06714:1414
#06718:00140000
#0681a:0014
#06814:00000014
#0691a:14
#06912:0014
#06918:00000014
#07012:14
#07018:0014
#07014:00000014
#07118:1414
#07114:00140000
#07414:00000014
#0741a:0024
#0741f:0021
#07518:14
#0751a:0014
#07514:00000014
#07512:00140000
#07510:0041
#07612:00140000
#07618:1414
#07614:00000014
#0771a:1400000000343434
#07712:00140000
#07718:0014
#07818:00000014
#07812:0014
#07914:14
#07912:0014
#07918:00000014
#0791a:00140000
#0801a:00140000
#08014:1414
#08018:00000014
#08112:14
#0811a:00140000
#08114:0014
#09118:0014
#0911a:14
#09114:00000014
#09112:00140000
#0921a:0014
#09218:14
#09214:00000014
#09212:00140000
#0931a:1414
#09316:00000014
#09312:00140000
#09014:00000014
#0901a:0024
#09412:1414
#09418:00000014
#09514:0014
#09512:14
#09518:00000014
#0951a:00140000
#09612:0014
#09614:14
#09618:00000014
#0961a:00140000
#09712:1414
#09716:00000014
#0971a:00140000
#0981a:14
#09812:00240000
#01814:0014
#01810:0041
#01918:0014
#0231a:0014
#08814:00000014
#0881a:0014
#08810:0041
#08918:14
#08912:0000143400000000
#0001a:0024
#01612:0024
#0161a:0024
#03012:0024
#0301a:0024
#03112:2424
#0311a:2424
#0821a:24240000
#04010:0041
#05658:0054
#0575a:54
#05758:0054
#05854:0064
#05952:64
#05954:0064
#06058:0054
#06154:0064
#0625a:0064
#06358:64
#0635a:0064
#06754:0064
#07158:0054
#07452:0014000000000000
#0785a:00140000
#07758:0054
#00658:0054
#01854:0054
#01958:0054
#02252:0064
#0235a:0054
#0365a:00140000
#0395a:00540000
#04058:00140000
#04254:14
#04458:14
#04652:14
#04752:00540000
#08452:14
#0865a:14
#08854:14
#08952:00540000
#0003a0:0014
#001380:34
#0013a0:0034
#002380:24
#002320:0014
#003340:34
#003320:0034
#004340:24
#006380:0014
#0073a0:3400342400000000
#011380:0014
#0113a0:0000000000343434
#0123a0:24
#0153a0:0014
#015380:0000000000343434
#016380:24
#018340:0014
#019320:24
#019380:0014
#0203a0:24
#022320:0014
#023340:24
#0233a0:0014
#024380:24
#024340:0014
#025320:3434
#026340:24
#028380:0014
#0293a0:3434
#030380:24
#031320:0014
#032320:24
#0313a1:0014
#0323a1:24
#035381:0014
#0353a1:0000000000343434
#0363a1:34240000
#0393a1:00140000
#039381:0000003400343434
#040381:34240000
#040321:0000000014340000
#040341:0000000000000034
#041321:0034000000000000
#041341:0000003400000000
#042341:24
#0423a1:0000000014340000
#042381:0000000000000034
#0433a1:0034000000000000
#043381:0000003400000000
#044381:24
#044341:0000000014340000
#044321:0000000000000034
#045341:0034000000000000
#045321:0000003400000000
#046321:24
#047321:0000143400000000
#048341:24
#056381:0014
#0573a1:34
#057381:0034
#0583a1:24
#058341:0014
#059321:34
#059341:0034
#060321:24
#060381:0014
#0613a1:24
#061341:0014
#062321:24
#0623a1:0014
#063381:34
#0633a1:0034
#064381:24
#067341:0014
#068321:24
#071381:0014
#0723a1:24
#072341:0014
#073321:34
#073341:0034
#074321:3424000000000000
#077381:0014
#0773a1:0000000000343434
#0783a1:34240000
#082341:0000000014340000
#082321:0000000000000034
#083341:0034000000000000
#083321:0000003400000000
#084321:24
#084381:0000000014340000
#0843a1:0000000000000034
#085381:0034000000000000
#0853a1:0000003400000000
#0863a1:24
#086321:0000000014340000
#086341:0000000000000034
#087321:0034000000000000
#087341:0000003400000000
#088341:24
#089321:0000143400000000
#090341:24
