This file was generated by Ched 2.7.0.0.
#TITLE ""
#ARTIST ""
#DESIGNER ""
#DIFFICULTY 0
#PLAYLEVEL
#SONGID ""
#WAVE ""
#WAVEOFFSET 0
#JACKET ""
#REQUEST "ticks_per_beat 480"
#00002: 4
#BPM01: 136
#00008: 01
#TIL00: "63'837:10000, 63'838:1"
#VOLUME: ""
#HISPEED 00
#MEASUREHS 00
#00318:13
#00315:13
#0041b:1313000000001313
#00415:1313000000000000
#00412:0000001300000013
#00417:00000000000053130013000000000000
#0041a:00000053000000000000000000000000
#00418:00000000005300000000000000000000
#00419:00530000
#00512:1313000000001300
#00518:1313000000000000
#00515:00000000005300000000000000000013
#0051b:0000001300000013
#00516:00000000000053130013000000000000
#00513:00000053000000000000000000000000
#00514:00530000
#0061b:13000000000053130013000013000000
#00617:0013000000000000
#00612:0013000000000000
#00616:0000001300000000
#00614:0000000000000013
#00619:0000530000000013
#00618:00000053000000000000000000000000
#0061a:00000000005300000000000000000000
#00716:0013000000000000
#0071b:00001300000000000000000000000013
#00717:1300001300000000
#00712:13000000000053130013000013000000
#00718:00000000000000000000000000130000
#00715:00000053000000000000000000001300
#00713:00000000005300000000000000000000
#00714:00530000
#00812:1300001300000000
#00815:0000130013000013
#00818:00001300000000130000000000130013
#0081b:00000000000000000013000000000000
#00810:41
#00912:1300001300000000
#0091b:0013130000000000
#00915:00000013000000000000000000000000
#00918:00000000000000130000000000000000
#01018:2300130013000013
#01015:00001300000000130000000000130013
#0101b:0000001300000000
#01012:00000000000000000013000000000000
#0121a:0024001300000000
#01214:00000000000000130000000000000000
#01219:0013
#01213:00000000000000000013000000000000
#01218:00000000000000000000130000130013
#01215:0000000000000013
#01212:0024000000000000
#01312:1313
#01318:00001300000000130000130000000000
#01315:00000013000013000000001300000000
#0131b:00130000
#0131a:0000000000001414
#01413:0000001300000000
#01418:00000000000000130000000000001300
#0141a:00002400000000000013000000000000
#01415:00000000000000001300000000130000
#01412:00002400000000000000001300000013
#0151b:1313000000000000
#01515:00130013000000000000000000000000
#01516:00000000000000000000001300000000
#01512:0000000024000024
#0151a:00000000000000000000002400000000
#01517:0000000000000023
#0161b:0013001300130013
#01618:00130013
#01615:0013000000000000
#01612:00240024
#01610:41
#01712:1313001300130013
#01718:13
#01715:00130013
#0171a:00240024
#0181b:1313001300130013
#01818:00130013
#01815:1300000000000013
#01812:00240024
#01918:13000013000013000013000000000000
#01912:00230000230000230000230000000000
#02019:14
#0201a:0012000000000000
#02014:14240013
#0201b:0000000000001313
#02016:0000000000000013
#02012:0000001300130000
#02118:0013131300000000
#02112:0000131300000013
#02116:0013
#0211b:0000000000130000
#02217:1300000000130000
#02212:13
#02216:0000131300001300
#0221b:0000001300001300
#02219:0000000000000013
#02214:0000000000000023
#02317:00130000000000000000000013000000
#0231b:0000001313000000
#02316:0013
#02314:0000000000130000
#02312:00000013
#02319:0000000000000013
#02416:00140000
#0241b:00130000
#02417:0000000014000014
#02415:00000000000000000000001400000000
#02412:2400000000000024
#0241a:24000000000000000000002400000000
#02512:0013
#02516:0014
#02515:24
#0251a:24
#02712:0013000000130000
#0271b:0000131300001300
#02715:24000000230000130000000013000000
#02718:0000000000130000
#0271a:24
#02710:41
#0281b:0013000000130000
#02812:0000131300001300
#02818:00000000230000130000000013000000
#02815:0000000000130000
#02912:00001300000000230000002300000000
#0291b:00000000130000000023000000130000
#02918:00000000000013000000002300000013
#02915:00000000230000000023000000001300
#03012:1414
#03018:0014000000000000
#0301a:0000140000140000
#03013:0000001400000000
#03014:00140000
#03017:0024
#0311b:0013000000132300
#03112:2400131300132300
#03118:00000000230000130000000000000000
#03117:24
#03212:0013000000130000
#0321b:0000131300001300
#03215:00000000230000130000000013000000
#03218:0000000000130000
#0331b:0013000000000000
#03315:00130000
#03318:0000001300000000
#03313:00000000000000000000000000130013
#0331a:00000000000000000000002400001300
#03312:00000000000000240000000000000000
#03316:00000000000000000024000000000000
#03310:41
#0341b:0000000013000013
#03412:00000000000000000000001300000000
#03416:24000000000000002400002400002400
#03616:13
#0361b:13
#03715:00130013
#03712:0023001313000000
#03718:00002300000000130000130000001300
#0371b:00230023
#0381b:1300001313000000
#03815:00001300000000130000130000000000
#03812:13230023
#03818:00130013
#03913:0013000000000000
#03914:00130000
#03915:0000001300000000
#0391b:00000013
#03919:0000000000000013
#03912:13
#03910:41
#0391a:00000000000000000000000000000053
#04012:00000013
#0401b:53
#04315:0013000000000000
#04314:00130000
#04313:0000001300000000
#04316:13
#04317:00000013
#0431b:0000000000000013
#04319:00000000000000000000000000000053
#04112:00000013
#04114:0000000000000013
#0411a:0013000000000000
#04119:00130000
#04118:0000001300000000
#0411b:13
#04113:00000000000000000000000000000053
#0421b:00000013
#04212:53
#04416:00000013
#04417:53
#04518:0013000000000000
#04519:00130000
#0451a:0000001300000000
#04517:13
#04516:00000013
#04512:0000000000000013
#04514:00000000000000000000000000000053
#0461b:13
#04617:0013000000000000
#04612:00130000
#04615:0000001300000000
#0461f:0011
#04616:53
#04914:12
#04916:00000000000000000000000000000012
#05118:00001300000013000000006300000000
#05115:00000013000000130000000000000063
#05112:24000000001300000000000023000000
#0511a:24000000000000000063000000000000
#0511b:00232300
#05119:0000000000630000
#05117:00000063
#05113:00000000000000000000000000630000
#05114:0000000000000063
#0531b:00001300000000130000000023000000
#05318:0000130000130000
#05315:0000001300001300
#05312:2400230000130000
#05317:24
#0531f:21
#05310:0041
#05515:00001300000000000000000000000013
#0551b:00000000130000000000002300000000
#05518:0000001300000013
#05512:13000000230000230000000000130000
#05514:00000000000000000023000000000000
#05519:00000000000000000023000000000000
#05516:00000000000000000000002300000000
#0561a:1400001414001400
#05612:0014140000000000
#05617:0000140000000014
#05614:0025
#05915:0000001300000000
#0591a:00000000000000240000000000130013
#05913:0000000000000013
#0591b:13130000
#05918:0013000000000000
#05912:00000000130000000000002400000000
#05916:00000000000000000024000000000000
#06012:0000000014000024
#0601a:00000000000000000000001400000000
#06016:24000000000000002400002400002400
#05216:6314
#05214:00000014
#0521a:2400002400000000
#05212:00000024000000000000000000000000
#05217:00000024000000000000000000000000
#05215:0000002400000000
#05418:0013001300001300
#05415:0000130000130000
#05412:00000000000000130000000023000000
#0541b:1300230000130000
#05712:00001300000000130000000023000000
#05715:2400130000130000
#05718:0000001300001300
#0571b:0000230000130000
#05815:0013001300000000
#05818:0000130000130000
#0581b:00000000000000130000000023000000
#05812:1300230000130000
#05814:00000025
#06117:00120000
#00118:00000000000000000000002400000000
#00114:00000000000000000000002400000000
#0011a:0000000000000024
#00112:0000000000000024
#00113:0024
#00119:0024
#01112:00000000000000000000002300002400
#01117:00000000000000000000002300000000
#0111a:0000000000000024
#0111b:0023
#02619:00240000
#02618:0024
#02617:00000024
#02612:00343434343434343434343400000000
#0351a:0024000000000000
#03512:0024000000000000
#04716:23
#06213:2a
#00153:0014
#00159:0014
#00158:00000000000000000000001400000000
#00154:00000000000000000000001400000000
#0015a:0000000000000064
#00152:0000000000000054
#00358:63
#00355:53
#0125a:0014000000000000
#01352:1313
#0135b:00130000
#01452:0014000000000000
#0145a:00000000000000000013000000000000
#01557:0000000013000013
#01556:00000000000000000000001300000000
#02059:54
#0205a:0022000000000000
#02056:0000000000000063
#02052:0000001300000000
#0205b:0000000000000013
#02152:0000006300000000
#02156:0023
#0215b:0000000000530000
#02257:63
#02256:0000005300000000
#02259:0000000000000063
#02254:0000000000000063
#02357:00230000000000000000000000000000
#0235b:0013
#02352:00000013
#02456:00240000
#02452:6400000014000014
#0245a:14000000000000000000001400000000
#0255a:64
#02555:64
#02556:0024
#02552:0023
#0265a:44
#02659:00440000
#02658:0044
#0275a:14
#02755:14000000000000130000000063000000
#0275b:00000063
#02858:13000000000000130000000053000000
#02852:13000053
#0295b:13
#02955:13
#03052:1414
#0305a:0000140000240000
#03057:0064
#03158:00000000000000130000000000000000
#03152:14000063
#03157:14
#0315b:00000063
#03255:13000000000000130000000063000000
#0325b:00000063
#03258:13
#03352:13
#03358:13
#03456:14
#0345b:0000000013000013
#03452:00000000000000000000001300000000
#03552:0064000000000000
#03656:63
#03752:0013000000000000
#03758:0013000000000000
#03858:00000013
#03852:00000013
#04056:13
#04452:13
#04257:13
#0465b:63
#04657:0023000000000000
#0475b:13
#04756:63
#05152:14
#0515a:14
#04956:00000000000000000000000000000062
#0535b:00000000000000130000000013000000
#05352:14
#05357:14
#05355:00000063
#0565a:14001464
#05652:00140000
#05657:0000000000000024
#06056:1400000000000064
#06052:0000000034000034
#0605a:00000000000000000000004400000000
#05255:0000005400000000
#05256:0024
#05254:00000064
#0525a:4400004400000000
#05252:00000034000000000000000000000000
#05452:13000000000000130000000013000000
#05458:00000053
#0555b:13
#0575a:14
#05752:00000000000000130000000013000000
#05758:00000053
#05755:14
#0585b:13000000000000130000000013000000
#06157:00220000
#06253:1a
#001330:143434343434343434343434240000000000000000000000
#001340:005400000054000000540000005400000054000000540000000000000000000000000000000000000000000000000000
#001320:000000540000005400000054000000540000005400000054000000000000000000000000000000000000000000000000
#001391:143434343434343434343434240000000000000000000000
#001381:005400000054000000540000005400000054000000540000000000000000000000000000000000000000000000000000
#0013a1:000000540000005400000054000000540000005400000054000000000000000000000000000000000000000000000000
#0013a1:0000000000000014
#003381:33
#0033a1:00000024
#001320:0000000000000014
#003350:33
#003320:00000024
#004320:00000000000000000013000023000000
#0053b0:00000000000000000013000023000000
#006360:00000000000000000013000023000000
#007370:00000000000000000013000023000000
#008350:00000000000000000000001300230000
#009320:00000000000000001300002300000000
#0093b1:00000000000000000000001300002300
#009350:0000000000000013
#010350:23
#010380:00000000000000000000001300230000
#0113b0:13
#0113a0:00330000000000000000000000000000
#011390:0033000000000000
#011380:00000033000000000000000000000000
#011370:00230000
#011321:00130000
#011331:00000000003300000000000000000000
#011341:0000003300000000
#011351:00000000000000330000000000000000
#011361:0023
#012351:0000132300000000
#012321:00000000000000000000001300230000
#013321:0000000000000014
#014321:0024000000000000
#014381:0000132300000000
#0143b1:00000000000000000000001300230000
#0153b1:00130000
#0153a1:00000000003300000000000000000000
#015391:0000003300000000
#015381:00000000000000330000000000000000
#015371:0023
#016351:00000000000000130000230000000000
#017381:00000000000000130000230000000000
#018351:00000000000000130000230000000000
#020391:14240000
#0203a1:0052000000000000
#0203b1:0000001300230000
#020361:0000000000000013
#021321:0023000000000000
#021321:0000001300230000
#021361:0053
#0213b0:0000000000130000
#021370:0000000000000023
#022370:13
#0223b0:00230000
#022360:0000001300000000
#022320:0000000000230000
#022390:0000000000000013
#023370:00530000000000000000000000000000
#0233b0:00230000
#022341:0000000000000013
#023321:00230000
#024321:1424
#024361:00540000
#0253a1:14
#025361:0054
#0263a1:24
#025350:14
#025320:0053
#026350:34
#026320:00343434343434343434343424000000
#027350:00000013
#028320:23
#0273b1:00000013
#028381:23
#028381:00000013
#0293b1:23
#028320:00000013
#029350:23
#030370:00001424
#0303a0:0000000000540000
#030321:00000014
#031321:24
#031321:00000013
#032351:23
#0313b0:00000013
#032380:23
#032350:00000013
#033320:23
#0323b1:00000013
#033381:23
#035321:0014000000000000
#036361:53
#037321:3323000000000000
#037380:1323000000000000
#0393b0:1323
#039361:0013
#040361:23
#0403b1:00000013000023000000000000000000
#040360:0000001323000000
#0403b1:0013
#040371:00000023
#041321:1323
#041370:0013
#042370:23
#042320:00000013000023000000000000000000
#042371:0000001323000000
#042320:0013
#042360:00000023
#0433b0:1323
#043321:0013
#044321:23
#044371:00000013000023000000000000000000
#044320:0000001323000000
#044371:0013
#0443b1:00000023
#045321:1323
#0453b0:0013
#0463b0:33332300
#046370:0053000000000000
#046321:00001323
#0463b0:00000013
#0473b0:23
#047361:13
#048321:22
#049361:00120000
#049341:00000000000000220000000000000000
#0493a0:00000000120000000000000000000022
#049380:00000000000000320000000032000000
#049341:00000012
#049361:00000000000000000000000000000032
#051321:24
#052351:0000001400000000
#052361:0054
#052341:00000054
#053321:24
#053351:00000013
#054321:23
#054381:00000013
#0553b1:23
#056341:000000000000000000000000000000000000000000000000000000000000000000000000000000000000000000000000150000005554550000550055000000005500555455000000250000000000000000000000000000000000000000000000
#056361:000000000000000000000000000000000000000000000000000000000053000000000000000000000000000000000000
#056351:000000000000000000000000000000000000000000000000000000000000000000000000000000000000000000000000000000000000000000000000000000000054000000000000000000000000000000000000000000000000000000000000
#0563a0:00000014
#056370:0000000000000054
#0573a0:24
#057380:00000013
#0583b0:23
#058340:00000015
#059340:25
#060360:0000000000000014
#061370:00520000
#061340:00000028
#0049b0:0013000000000000
#004970:0000002300000000
#005920:0013000000000000
#005960:0000002300000000
#006970:0013000000000000
#0069b0:0000002300000000
#007960:0013000000000000
#007920:0000002300000000
#039990:0000000000000013
#0409b0:23
#041940:0000000000000013
#042920:23
#0439b0:0000000000000013
#044970:23
#045920:0000000000000013
#046960:23
#0519b0:0013
#051970:00000023
#051921:00000013
#052961:23
#0639d1:000000000000000000000000000000000000000000000000000000000000000000000000000000000000000000000000000000000000000000000000000000000000000000000000000000000000000000000000000000000000000000000000000000000000000000000000000000000000000000000000000000000000000000000000000000000000000000000000000000000000000000000000000000000000000000000000000000000000000000000000000000000000000000000000000000000000000000000000000000000000000000000000000000000000000000000000000000000000000000000000000000000000000000000000000000000000000000000000000000000000000000000000000000000000000000000000000000000000000000000000000000000000000000000000000000000000000000000000000000000000000000000000000000000000000000000000000000000000000000000000000000000000000000000000000000000000000000000000000000000000000000000000000000000000000000000000000000000000000000000000000000000000000000000000000000000000000000000000000000000000000000000000000000000000000000000000000000000000000000000000000000000000000000000000000000000000000000000000000000000000000000000000000000000000000000000000000000000000000000000000000000000000000000000000000000000000000000000000000000000000000000000000000000000000000000000000000000000000000000000000000000000000000000000000000000000000000000000000000000000000000000000000000000000000000000000000000000000000000000000000000000000000000000000000000000000000000000000000000000000000000000000000000000000000000000000000000000000000000000000000000000000000000000000000000000000000000000000000000000000000000000000000000000000000000000000000000000000000000000000000000000000000000000000000000000000000000000000000000000000000000000000000000000000000000000000000000000000000000000001121000000000000000000000000000000000000000000000000000000000000000000000000000000000000000000000000000000000000000000000000000000000000000000000000000000000000000000000000000000000000000000000000000000000000000000000000000000000000000000000000000000000000000000000000000000000000000000000000000000000000000000000000000000000000000000000000000000000000000000000000000000000000000000000000000000000000000000000000000000000000000000000000000000000000000000000000000000000000000000000000000000000000000000000000000000000000000000000000000000000000000000000000000000000000000000000000000000000000000000000000000000000000000000000000000000000000000000000000000000000000000000000000000000000000000000000000000000000000000000000000000000000000000000000000000000000000000000000000000000000000000000000000000000000000000000000000000000000000000000000000000000000000000000000000000000000000000000000000000000000000000000000000000000000000000000000000000000000000000000000000000000000000000000000000000000000000000000000000000000000000000000000000000000000000000000000000000000000000000000000000000000000000000000000000000000000000000000000000000000000000000000000000000000000000000000000000000000000000000000000000000000000000000000000000000000000000000000000000000000000000000000000000000000000000000000000000000000000000000000000000000000000000000000000000000000000000000000000000000000000000000000000000000000000000000000000000000000000000000000000000000000000000000000000000000000000000000000000000000000000000000000000000000000000000000000000000000000000000000000000000000000000000000000000000000000000000000000000000000000000000000000000000000000000000000000000000000000000000000000000000000000000000000000000000000000000000000000000000000000000000000000000000000000000000000000000000000000000000000000000000000000000000000000000000000000000000000000000000000000000000000000000000000000000000000000000000000000000000000000000000000000000000000000000000000000000000000000000000000000000000000000000000000000000000000000000000000000000000000000000000000000000000000000000000000000000000000000000000000000000000000000000000000000000000000000000000000000000000000000000000
