This file was generated by Ched 2.7.0.0.
#TITLE ""
#ARTIST ""
#DESIGNER ""
#DIFFICULTY 0
#PLAYLEVEL
#SONGID ""
#WAVE ""
#WAVEOFFSET 0
#JACKET ""
#REQUEST "ticks_per_beat 480"
#00002: 4
#BPM01: 136
#00008: 01
#TIL00: "63'837:10000, 63'838:1"
#VOLUME: ""
#HISPEED 00
#MEASUREHS 00
#02618:13
#02615:23
#0261a:00343400
#02612:00343400
#02712:0013000000000000
#02718:00130000
#02715:0000001300000000
#0271b:00000000000000130000000000000000
#0271a:24
#02710:41
#03315:13000000130000000000000000000013
#03318:0013001300000013
#03312:00000000000000240000000000000000
#03310:41
#00316:14
#00412:13000000000000130000000000000000
#00418:0013000000000000
#0051b:13000000000000130000000000000000
#00515:0013000000000000
#00612:13000000000000130000000000000000
#00618:00001300000000130000000000000000
#0071b:13000000000000130000000000000000
#00715:00001300000000130000000000000000
#00812:13
#00818:00001300000000333333001300000000
#00815:00130000
#0081b:00000000000013000000000000333333
#00810:41
#00915:0013000000000000
#0091a:0014
#00918:00130000
#00912:0000001300000000
#0101b:13
#01015:00001300000000333333001300000000
#01018:00130000
#01012:00000000000013000000000000333333
#01118:0013000000000000
#01112:0014
#01115:00130000
#0111b:0000001300000000
#0121a:0000140000140000
#01215:0000001313000000
#01218:00000000000000130000000000001300
#01212:0024000000001400
#01315:13000000000013000000001300000000
#0131b:0013000000000000
#01318:0000130000131300
#01312:0000000013000013
#01412:0000140000140000
#01418:0000001313000000
#01415:00000000000000130000000000001300
#0141a:0024000000001400
#01518:1300001300000000
#01512:0013000000000000
#01515:00130000
#0151a:0024
#01514:00000000000000000000002400000000
#0161a:0014000000000000
#01618:0000001300130000
#01615:0013
#01612:00240024
#01610:41
#01718:1413
#01712:0014000000000000
#01715:0000001300130000
#0171a:00240024
#01814:14
#0181a:0014000000000000
#01818:0000001300130000
#01815:0013
#01812:00240024
#02018:0000001300000000
#02015:0000000000001323
#02012:00240000
#0201a:00240000
#02112:0000001300000000
#0221b:13000013
#02212:0000001300000000
#02215:0000000000000023
#02318:0000001300001300
#02312:0013
#02315:0000000000130000
#0231b:0000000000000013
#02416:00140000
#02412:2400000000000024
#0241a:00000000000000000000002400000000
#0281b:0013000000000000
#02815:00130000
#02818:0000001300000000
#02812:14000000000000130000000000000000
#0291a:14000000000000240000001400003434
#02915:0013001300000000
#02918:00000000130000000014000000140000
#03014:0014000000000000
#03018:00141400
#03012:0000001400000000
#0311b:0013000000000000
#03115:00130000
#03118:0000001300000000
#03112:24000000000000130000000000000000
#03212:0013000000000000
#03218:00130000
#03215:0000001300000000
#0321b:00000000000000130000000000000000
#0321a:14
#03418:13
#03412:00000000000000000000002400000000
#0341a:0000000000000024
#03416:0024
#03515:0013130000000000
#03518:00000013000000000000000000000000
#03514:0000005300000000
#03513:0053
#03512:0000000000530000
#03618:0013130000000000
#03615:00000013000000000000000000000000
#03619:0000005300000000
#0361a:0053
#0361b:0000000000530000
#03715:0000001313000000
#03718:00000000000000130000000000000000
#0371a:0000240000140014
#03712:0024000000002400
#03812:0000240000140000
#03818:0014001313000000
#03815:00000000000000130000000000000000
#03814:14
#0381a:00000024
#03912:1400000000000013
#03914:0014000000000000
#03916:00140000
#03918:00000000000014000000000000000013
#0391a:0014
#03910:41
#0411a:14
#04118:0014000000000000
#04116:00140000
#04114:0000001400000000
#0411b:0000000000000013
#04115:00000000000000000000000000000013
#04112:0014
#04012:00000013000000001300000000000000
#04015:1300001300000000
#04312:1414
#04316:0014001400000000
#0431a:00140000
#04318:0000000000000013
#04315:00000000000000000000000000000013
#0421b:00000013000000001300000000000000
#04218:1300001300000000
#04418:1300003300000000
#0441b:00000013000000000000000000000000
#04415:0013
#0451a:1414
#04516:0014001400000000
#04512:00140000
#04515:0000000000000013
#04518:00000000000000000000000000000013
#04612:13
#04618:0013
#0461b:00000013
#0461f:0011
#04615:0000003300000000
#04718:13
#04715:23
#05115:00130000000000000013000000000000
#0511b:2313000023130000
#05118:00000000001300000000000000130000
#05112:0000231300002313
#0531b:0013000000000000
#05315:0000130000130000
#05318:0000001300000000
#05312:24000000000000130000000000000000
#0531f:21
#05310:0041
#05918:13000000130000000000000000000013
#05915:0013001300000013
#0591a:00000000000000240000002400000000
#05912:00000000000000000024000000000000
#05412:0013000000000000
#05418:0000130000130000
#05415:0000001300000000
#0541b:00000000000000130000000000000000
#0541a:14
#05512:14000000000000240000001400003434
#05518:0013001300000000
#05515:00130000
#05514:00000000000000000014000000140000
#05618:0014000000000000
#05614:00141400
#0561a:0000001400000000
#05612:0000000000140000
#05712:0013000000000000
#05718:0000130000130000
#05715:0000001300000000
#0571b:00000000000000130000000000000000
#0571a:24
#0581b:0013000000000000
#05815:0000130000130000
#05818:0000001300000000
#05812:14000000000000130000000000000000
#06015:13
#0601a:00000000000000000000002400002400
#06012:00000000000000000000002400002400
#06016:0024
#06115:13
#06118:13
#0251a:24
#00112:2424
#00116:00000000000000000000002400000000
#0011a:2400000000000024
#0521a:24
#06214:28
#02452:6400000014000014
#02456:00240000
#0245a:00000000000000000000001400000000
#0255a:64
#0275a:14
#0275b:00000000000000630000000000000000
#02758:00000013
#04755:63
#04758:63
#02255:0000000000000063
#0225b:63
#02252:0000006300000000
#0015a:1400000000000064
#00152:14
#00356:64
#00452:00000000000000630000000000000000
#0055b:00000000000000530000000000000000
#00652:00000000000000630000000000000000
#00658:00000000000000630000000000000000
#0075b:00000000000000530000000000000000
#00755:00000000000000530000000000000000
#0085b:0000006300000000
#00858:00000000000000000000006300000000
#01052:0000005300000000
#01055:00000000000000000000005300000000
#01554:0000000000000014
#01158:0000000000000014
#00954:0000000000000014
#0205a:14
#02058:0000006300000000
#02055:0000000000000063
#02152:0000006300000000
#02658:63
#02655:63
#02852:00000000000000530000000000000000
#02855:00000013
#0295a:00000000000000640000006400000000
#02958:00000000000000000064000000640000
#03058:0064
#0305a:14000014
#03152:14000000000000530000000000000000
#03155:00000013
#0325b:00000000000000630000000000000000
#03258:00000013
#03352:00000000000000000000001400000000
#03458:63
#03456:0014
#03452:00000000000000000000001400000000
#0345a:0000000000000014
#04055:6300006300001300
#04052:00000063000000006300000000000000
#03958:00000013
#0395a:0064
#04152:0054
#04155:00000013
#04352:0054
#04355:00000013
#0425b:00000053000000005300000000000000
#04258:5300005300001300
#04458:63
#0445b:00000063000000000000000000000000
#04455:0063
#04452:00000013
#0455a:0064
#04558:00000013
#04652:63
#04658:0063
#0465b:00000063
#0525a:0000001400000000
#05352:14000000000000530000000013000000
#05355:0000000000630000
#0545b:00000000000000630000000013000000
#05458:0000000000630000
#05554:00000000000000000054000000540000
#05552:00000000000000540000005400000000
#05654:00005414
#05652:1400000000240000
#0575b:00000000000000630000000013000000
#0575a:14
#05758:0000000000630000
#06055:53
#06056:0014
#0605a:0000000000000064
#06052:0000000000000064
#05852:00000000000000530000000013000000
#05855:0000000000530000
#0595a:00000000000000000000001400000000
#06254:18
#06155:23
#06158:23
#0013a0:0000000000000014
#003360:34
#0033a0:00000024
#004320:00000000130000330000000000000000
#004350:00000023
#0053b0:00000000130000330000000000000000
#005380:00000023
#006320:00000000130000330000000000000000
#006350:00000023
#006381:00000000000000130000000000000000
#0063b1:00000023
#0073b1:00000000130000330000000000000000
#007381:00000023
#007350:00000000000000130000000000000000
#007320:00000023
#0083b0:00000000000013000000000000333333
#008380:00000000000000333333003300000000
#0093b0:23
#009340:00000000000000000000001400002400
#010320:00000000000013000000000000333333
#010350:00000000000000333333003300000000
#011320:23
#011380:00000000000000000000001400002400
#015340:00000000000000000000001400002400
#0193a0:14340034340034340034340000000000
#0203a0:24
#020380:0000001300000000
#0203b0:0000000000230000
#020350:0000000000000013
#021320:0000333300000000
#021350:0000000000230000
#0213b0:0000000000000013
#0223b0:33
#022380:00230000
#022320:0000001300000000
#022350:0000000000230000
#022350:0000000000000013
#023320:00230000
#024320:1424
#024360:00540000
#0253a0:14
#026380:33
#0263a0:00343424
#026351:13
#026321:00343424
#0273b1:00000000000000130000000000000000
#027381:0000000000332300
#028321:00000000000000130000000000000000
#028351:0000000000332300
#0293a1:00000000000000140000003400003434
#029381:00000000000000000034000000340000
#0303a1:24
#030381:0014
#0303a1:00000024
#031321:00000000000000130000000000000000
#031351:0000000000332300
#0323b1:00000000000000130000000000000000
#032381:0000000000332300
#033321:00000000000000140034002400000000
#034381:13
#034361:0024
#0393a1:0014
#039381:00000023
#040351:1300003300002300
#040321:00000033000000003300000000000000
#041321:0014
#041351:00000023
#042381:1300003300002300
#0423b1:00000033000000003300000000000000
#043321:0014
#043351:00000023
#044381:1300003323000000
#0443b1:00000033000000000000000000000000
#044350:0013
#044320:00000023
#0453a0:0014
#045380:00000023
#046320:13
#046350:0000003323000000
#046381:0013
#0463b1:00000033
#047381:33
#0483b1:23
#047350:13
#048320:23
#0523a0:14000034000024000000000000000000
#053320:00000000000000130000000023000000
#053350:0000000000330000
#0543b0:00000000000000130000000023000000
#054380:0000000000330000
#055320:00000000000000140000003400003434
#055340:00000000000000000034000000340000
#056320:24
#056340:00001424
#056320:0000000000540000
#0573b0:00000000000000130000000023000000
#057380:0000000000330000
#058320:00000000000000130000000023000000
#058350:0000000000330000
#060350:13
#060360:0024
#0603a0:0000000000000014
#061380:53000026
#060321:0000000000000014
#061351:53
#061321:00000026
#035950:00130000
#035920:000000000000000000000000000000000000000000000000000000000000000000000000000000000000000000000000000000000000000000000000000000000000000000000000000000000000000000000000000000000000000000000000000000000000000000000000000000000000000000000000000000000000000000000000000000000000000000000000000000000000000000000000000000000000000000000000000000000000000000000000000000000000000000000000000000000000000000000000000000000000000000000000000000000000000000000000000000000000000000000000000000000000000000000000000000000000000000000000000000000000000000000000000000000000000000000000000000000000000000000000000000000000000000000000000000000000000000000000000000000000000000000000000000000000000000000000000000000000000000000000000000000000000000000000000000000000000000000000000000000000000000000000000000000000000000000000000000000000000000000000000000000000000000000000000000000000000000000000000000000000000000000000000000000000000000000000000000000000000000000000000000000000000000000000000000000000000000000000000000000000000000000000000000000000000000000000000000000000000000000000000000000000000000000000000000000000000000000000000000000000000000000000000000000000000000000000000000000000000000000000000000000000000000000000000000000000000000000000000000000000000000000000000000000000000000000000000000000000000000000000000000000000000000000000000000000000000000000000000000000000000000000000000000000000000000000000000000000000000000000000000000000000000000000000000000000000000000000000000000000000000000000000000000000000000000000000000000000000000000000000000000000000000000000000000000000000000000000000000000000000000000000000000000000000000000000000000000000000000000000000000000000000000000000000000000000000000000000000000000000000000000000000000000000000000000000000000000000000000000000000000000000000000000000000000000000000000000000000000000000000000000000000000000000000000000000000000000000000000000000000000000000000000000000000000000000000000000000000000000000000000000000000000000000000000000000000000000000000000000000000000000000000000000000000000000000000000000000000000000000000000000000000000000000000000000000000000000000000000000000000000000000000000000000000000000000000000000000000000000000000000000000000000000000000000000000000000000000000000000000000000000000000000000000000000000000000000000000000000000000000000000000000000000000000000000000000000000000000000000000053230000000000000000000000000000000000000000000000000000000000000000000000000000000000000000000000000000000000000000000000000000000000000000000000000000000000000000000000000000000000000000000000000000000000000000000000000000000000000000000000000000000000000000000000000000000000000000000000000000000000000000000000000000000000000000000000000000000000000000000000000000000000000000000000000000000000000000000000000000000000000000000000000000000000000000000000000000000000000000000000000000000000000000000000000000000000000000000000000000000000000000000000000000000000000000000000000000000000000000000000000000000000000000000000000000000000000000000000000000000000000000000000000000000000000000000000000000000000000000000000000000000000000000000000000000000000000000000000000000000000000000000000000000000000000000000000000000000000000000000000000000000000000000000000000000000000000000000000000000000000000000000000000000000000000000000000000000000000000000000000000000000000000000000000000000000000000000000000000000000000000000000000000000000000000000000000000000000000000000000000000000000000000000000000000000000000000000000000000000000000000000000000000000000000000000000000000000000000000000000000000000000000000000000000000000000000000000000000000000000000000000000000000000000000000000000000000000000000000000000000000000000000000000000000000000000000000000000000000000000000000000000000000000000000000000000000000000000000000000000000
#036980:00130000
#0369b0:000000000000000000000000000000000000000000000000000000000000000000000000000000000000000000000000000000000000000000000000000000000000000000000000000000000000000000000000000000000000000000000000000000000000000000000000000000000000000000000000000000000000000000000000000000000000000000000000000000000000000000000000000000000000000000000000000000000000000000000000000000000000000000000000000000000000000000000000000000000000000000000000000000000000000000000000000000000000000000000000000000000000000000000000000000000000000000000000000000000000000000000000000000000000000000000000000000000000000000000000000000000000000000000000000000000000000000000000000000000000000000000000000000000000000000000000000000000000000000000000000000000000000000000000000000000000000000000000000000000000000000000000000000000000000000000000000000000000000000000000000000000000000000000000000000000000000000000000000000000000000000000000000000000000000000000000000000000000000000000000000000000000000000000000000000000000000000000000000000000000000000000000000000000000000000000000000000000000000000000000000000000000000000000000000000000000000000000000000000000000000000000000000000000000000000000000000000000000000000000000000000000000000000000000000000000000000000000000000000000000000000000000000000000000000000000000000000000000000000000000000000000000000000000000000000000000000000000000000000000000000000000000000000000000000000000000000000000000000000000000000000000000000000000000000000000000000000000000000000000000000000000000000000000000000000000000000000000000000000000000000000000000000000000000000000000000000000000000000000000000000000000000000000000000000000000000000000000000000000000000000000000000000000000000000000000000000000000000000000000000000000000000000000000000000000000000000000000000000000000000000000000000000000000000000000000000000000000000000000000000000000000000000000000000000000000000000000000000000000000000000000000000000000000000000000000000000000000000000000000000000000000000000000000000000000000000000000000000000000000000000000000000000000000000000000000000000000000000000000000000000000000000000000000000000000000000000000000000000000000000000000000000000000000000000000000000000000000000000000000000000000000000000000000000000000000000000000000000000000000000000000000000000000000000000000000000000000000000000000000000000000000000000000000000000000000000000000000000000000000053230000000000000000000000000000000000000000000000000000000000000000000000000000000000000000000000000000000000000000000000000000000000000000000000000000000000000000000000000000000000000000000000000000000000000000000000000000000000000000000000000000000000000000000000000000000000000000000000000000000000000000000000000000000000000000000000000000000000000000000000000000000000000000000000000000000000000000000000000000000000000000000000000000000000000000000000000000000000000000000000000000000000000000000000000000000000000000000000000000000000000000000000000000000000000000000000000000000000000000000000000000000000000000000000000000000000000000000000000000000000000000000000000000000000000000000000000000000000000000000000000000000000000000000000000000000000000000000000000000000000000000000000000000000000000000000000000000000000000000000000000000000000000000000000000000000000000000000000000000000000000000000000000000000000000000000000000000000000000000000000000000000000000000000000000000000000000000000000000000000000000000000000000000000000000000000000000000000000000000000000000000000000000000000000000000000000000000000000000000000000000000000000000000000000000000000000000000000000000000000000000000000000000000000000000000000000000000000000000000000000000000000000000000000000000000000000000000000000000000000000000000000000000000000000000000000000000000000000000000000000000000000000000000000000000000000000000000000000000000000000
#0639d0:000000000000000000000000000000000000000000000000000000000000000000000000000000000000000000000000000000000000000000000000000000000000000000000000000000000000000000000000000000000000000000000000000000000000000000000000000000000000000000000000000000000000000000000000000000000000000000000000000000000000000000000000000000000000000000000000000000000000000000000000000000000000000000000000000000000000000000000000000000000000000000000000000000000000000000000000000000000000000000000000000000000000000000000000000000000000000000000000000000000000000000000000000000000000000000000000000000000000000000000000000000000000000000000000000000000000000000000000000000000000000000000000000000000000000000000000000000000000000000000000000000000000000000000000000000000000000000000000000000000000000000000000000000000000000000000000000000000000000000000000000000000000000000000000000000000000000000000000000000000000000000000000000000000000000000000000000000000000000000000000000000000000000000000000000000000000000000000000000000000000000000000000000000000000000000000000000000000000000000000000000000000000000000000000000000000000000000000000000000000000000000000000000000000000000000000000000000000000000000000000000000000000000000000000000000000000000000000000000000000000000000000000000000000000000000000000000000000000000000000000000000000000000000000000000000000000000000000000000000000000000000000000000000000000000000000000000000000000000000000000000000000000000000000000000000000000000000000000000000000000000000000000000000000000000000000000000000000000000000000000000000000000000000000000000000000000000000000000000000000000000000000000000000000000000000000000000000000000000000001121000000000000000000000000000000000000000000000000000000000000000000000000000000000000000000000000000000000000000000000000000000000000000000000000000000000000000000000000000000000000000000000000000000000000000000000000000000000000000000000000000000000000000000000000000000000000000000000000000000000000000000000000000000000000000000000000000000000000000000000000000000000000000000000000000000000000000000000000000000000000000000000000000000000000000000000000000000000000000000000000000000000000000000000000000000000000000000000000000000000000000000000000000000000000000000000000000000000000000000000000000000000000000000000000000000000000000000000000000000000000000000000000000000000000000000000000000000000000000000000000000000000000000000000000000000000000000000000000000000000000000000000000000000000000000000000000000000000000000000000000000000000000000000000000000000000000000000000000000000000000000000000000000000000000000000000000000000000000000000000000000000000000000000000000000000000000000000000000000000000000000000000000000000000000000000000000000000000000000000000000000000000000000000000000000000000000000000000000000000000000000000000000000000000000000000000000000000000000000000000000000000000000000000000000000000000000000000000000000000000000000000000000000000000000000000000000000000000000000000000000000000000000000000000000000000000000000000000000000000000000000000000000000000000000000000000000000000000000000000000000000000000000000000000000000000000000000000000000000000000000000000000000000000000000000000000000000000000000000000000000000000000000000000000000000000000000000000000000000000000000000000000000000000000000000000000000000000000000000000000000000000000000000000000000000000000000000000000000000000000000000000000000000000000000000000000000000000000000000000000000000000000000000000000000000000000000000000000000000000000000000000000000000000000000000000000000000000000000000000000000000000000000000000000000000000000000000000000000000000000000000000000000000000000000000000000000000000000000000000000000000000000000000000000000000000000000000000000000000000000000000000000000000000000000000000000000000000000000000000000000
