This file was generated by Ched 2.7.0.0.
#TITLE ""
#ARTIST ""
#DESIGNER ""
#DIFFICULTY 0
#PLAYLEVEL
#SONGID ""
#WAVE ""
#WAVEOFFSET 0
#JACKET ""
#REQUEST "ticks_per_beat 480"
#00002: 4
#BPM01: 144
#00008: 01
#TIL00: ""
#VOLUME: ""
#HISPEED 00
#MEASUREHS 00
#01018:14
#01114:14
#0121a:14
#01312:14
#0141a:14
#01514:14
#01618:14
#01712:14
#01710:41
#01812:14
#0191a:14
#0201a:14
#02114:14
#02214:14
#02318:14
#02418:14
#02918:14
#03014:14
#03018:00000000000000000000000000000026
#03318:0016
#03312:26
#0331f:21
#03412:16
#03418:0016
#03410:41
#03712:16
#03718:0016
#03812:1616
#04112:0016
#04118:26
#04218:16
#04212:0016
#04518:1616
#04510:41
#04612:1616
#05116:0000001600000000
#05412:00160000
#05418:00000016
#05512:00160016
#05618:00160016
#05912:00260016
#06018:00160016
#06218:00160000
#06212:00000016
#06519:00140000
#06513:00000014
#06619:00140000
#06613:00000014
#06719:00140000
#0251f:11
#03112:00000000000000260000000000000000
#04918:26
#05212:0026
#05218:00000026
#05312:26
#05318:00260000
#05310:00410000
#06112:00260000
#06110:00410000
#00910:41
#05156:0000006600000000
#0013a0:14
#001380:0000000000000034
#0023a0:0000000000000034
#003380:0000000000000034
#004380:0000002400000000
#007340:14
#008320:00000034
#009320:24
#025340:14
#026320:34
#027340:34
#028320:24
#0323a0:1424
#035320:1626
#036380:1626
#039380:1626
#040320:1626
#043380:1626
#044320:1626
#047380:1626
#048320:1626
#049380:16
#050360:00360000
#051360:00000036000036000000000000000000
#052380:26
#053380:00160026
#057320:00160026
#058380:00160026
#061320:00160026
#063380:00160026
#064320:00160026
