This file was generated by Ched 2.7.0.0.
#TITLE ""
#ARTIST ""
#DESIGNER ""
#DIFFICULTY 0
#PLAYLEVEL
#SONGID ""
#WAVE ""
#WAVEOFFSET 0
#JACKET ""
#REQUEST "ticks_per_beat 480"
#00002: 4
#BPM01: 144
#00008: 01
#TIL00: ""
#VOLUME: ""
#HISPEED 00
#MEASUREHS 00
#00818:00000014
#00912:0014
#00910:41
#01018:1414
#01114:14
#0111a:0014
#01214:1414
#01518:14
#01514:0014
#01714:00140000
#01718:00000014
#0171a:24
#01710:41
#01814:00140000
#01818:00000014
#01912:14
#01918:00140000
#01914:00000014
#02018:00140024
#02014:0024
#0221a:1414
#02312:14
#02318:0014
#02414:14
#0241a:0014
#02914:1414
#03018:14
#03114:00000000000000140000000000000000
#03218:14
#03318:00160016
#03312:2616
#0331f:21
#03412:16160016
#03418:0016
#03410:41
#03612:00000016
#03718:26160000
#03712:00001616
#03818:1616
#03812:00160016
#03812:00000016
#04114:00140000
#04118:0014
#04112:00000014
#0411a:24
#04218:14
#04214:00140000
#0421a:0014
#04312:14
#04318:00140000
#04314:0014
#0431a:00000014
#04518:00140000
#04512:26
#04510:41
#0461a:14
#04614:00140000
#05018:16
#05214:0014
#05218:00000014
#05314:14
#05318:00262626
#05310:00410000
#05412:00140000
#05418:0014
#05414:00000014
#0551a:14
#05514:00140000
#05618:00140000
#05714:00140014
#05718:0014
#05818:14
#05814:0000143434000000
#05918:1414
#05914:00000014
#05912:00240000
#0601a:14
#06014:00140000
#06018:0014
#06012:00000014
#0611a:14
#06112:00262626
#06110:00410000
#0621a:00140000
#06214:0014
#06218:00000014
#06312:14
#06318:00140000
#0631a:0034
#06414:00140000
#06412:0034
#06519:00141400
#06513:00000014
#06613:14000024
#06619:00240024
#0251f:11
#0031a:0000000000000024
#0161a:24
#01612:24
#02112:24
#04412:26260000
#04418:00002626
#04912:26
#05112:0000002600000000
#0035a:0000000000000014
#00958:16
#00858:00000024
#0175a:14
#01952:14
#02152:0000001400000000
#03058:00000000000000000000000000000014
#03154:00000000000000140000000000000000
#0325a:0000001400000000
#03258:64
#03352:16
#03658:0000001600000000
#04052:0000001600000000
#04052:0000001600000000
#03958:0016
#0425a:0014
#04552:16
#05152:0000001600000000
#05258:0014000000000000
#05554:00640000
#05552:00000014
#05658:00540000
#0565a:00000014
#05852:0000000000140000
#05854:00640000
#06052:00000014
#06358:00540000
#0635a:00000014
#06454:00640000
#06452:00000014
#06753:00140000
#06759:00140000
#0013a0:14
#001380:0000000000000034
#0023a0:0000000000000034
#0033a0:0034003400340024
#005320:00140000000000000000000000340000
#005340:00000000000000340000000000000000
#006340:00000034000000002400000000000000
#0073a0:14000000000000000000000000340000
#007380:00000000000000340000000000000000
#008380:00000034000000000000000054000000
#009380:26
#0133a0:1424
#014320:1424
#0163a0:1424
#016321:1424
#021321:1400002400000000
#025341:14
#026321:24
#027381:14
#0283a1:24
#030381:00000000000000001400000000000024
#032381:14
#0323a1:0000002400000000
#035381:16260000
#035321:00001626
#036381:1600002600000000
#039381:1626
#040321:1600002600000000
#040320:1600002600000000
#045340:00001424
#046380:00001424
#047320:14
#047340:0024
#0483a0:14
#048380:0024
#049320:1626
#050330:00140034
#051320:0000002600000000
#051380:00000000000000000000000014000034
#052380:0024000000000000
#055340:00140000
#055320:00000024
#056380:00140000
#0563a0:00000024
#058340:0000143434000000
#058320:0000000000240000
#063380:00140000
#0633a0:00003424
#064340:00140000
#064320:00003424
#066330:00000014
#067330:00240000
#066391:00000014
#067391:00240000
