This file was generated by Ched 2.7.0.0.
#TITLE ""
#ARTIST ""
#DESIGNER ""
#DIFFICULTY 0
#PLAYLEVEL
#SONGID ""
#WAVE ""
#WAVEOFFSET 0
#JACKET ""
#REQUEST "ticks_per_beat 480"
#00002: 4
#BPM01: 170
#00008: 01
#TIL00: ""
#VOLUME: ""
#HISPEED 00
#MEASUREHS 00
#0101a:14
#01010:41
#04512:14
#0451a:0014
#05514:14
#05618:14
#05912:0016
#05918:26
#0591f:21
#07812:14
#07918:14
#08014:14
#0811a:14
#08212:14
#00118:14
#00218:14
#0111a:14
#01212:14
#01312:14
#01418:14
#01518:14
#00314:14
#00414:14
#0051a:14
#00612:14
#0071a:14
#01614:14
#01714:14
#0181a:14
#01912:14
#0201a:14
#02112:14
#02218:14
#02314:14
#02418:14
#02514:14
#03018:14
#03114:14
#03218:14
#03518:2616
#03510:41
#03612:1616
#03718:16
#03712:0016
#03912:1616
#04018:1616
#04112:16
#04118:0016
#04612:14
#0461a:0014
#06018:16
#06012:0016
#06010:41
#06118:16
#06218:0016
#06312:16
#06318:0016
#06412:16
#06418:0016
#06512:16
#06918:14
#06914:0014
#0701a:14
#07012:0014
#04212:16
#0511f:11
#04318:26
#05712:26
#04712:26
#04710:41
#06712:26
#07118:26
#07414:36
#07313:0036
#02610:41
#07510:41
#008320:14
#009320:24
#0263a0:14
#0273a0:24
#028320:14
#029320:24
#033340:14
#034340:24
#038380:1626
#043380:16
#043370:00000036
#044360:0026
#047320:16
#047330:00000036
#048340:0026
#0493a0:1434
#050380:0024
#051320:14
#052320:24
#0533a0:14003434
#0543a0:24
#057320:1636
#058320:3626
#061320:0016
#062320:26
#065380:0016
#066380:26
#067320:16
#067340:00000036
#068320:0026
#071380:16
#071360:00000036
#072380:0026
#073320:16
#073330:0036
#074340:3626
#0753a0:14
#0773a0:24
#083380:14000024
